#TITLE:Vixen;
#SUBTITLE:;
#ARTIST:xRGTMx;
#TITLETRANSLIT:;
#SUBTITLETRANSLIT:;
#ARTISTTRANSLIT:;
#CREDIT:;
#BANNER:bn.png;
#BACKGROUND:bg.png;
#LYRICSPATH:;
#CDTITLE:;
#MUSIC:Vixen.mp3;
#OFFSET:-0.021;
#SAMPLESTART:47.380;
#SAMPLELENGTH:12.000;
#SELECTABLE:YES;
#BPMS:0.000=83.500,66.000=167.000,130.000=83.500,162.000=167.000,226.000=83.500,229.000=167.000;
#STOPS:;
#BGCHANGES:;

//---------------dance-single - ----------------
#NOTES:
     dance-single:
     :
     Hard:
     8:
     0.411,0.628,0.076,0.194,0.013:
0000
0000
0000
0000
,
0000
0000
0000
0000
,
0000
0000
0000
0000
,
0000
0000
0000
0000
,
0000
0000
0000
0000
1000
0100
0001
0000
,
0001
0100
1000
0000
1000
0100
0001
0000
,
0001
0100
0010
0001
0010
0100
0001
0000
,
0001
0100
1000
0000
1000
0100
0001
0100
,
1000
0100
1100
0000
1000
1000
0001
0100
,
0001
0001
0010
0000
0010
0010
0100
1000
,
1000
0001
0010
0000
0100
0100
0010
0001
,
0100
0100
0010
0000
0010
1000
1000
0100
,
1000
1000
0010
0000
0100
0010
1000
0000
,
1000
0001
0100
0000
0001
0100
0100
0010
,
1000
1000
0010
0000
1000
0001
0100
0000
,
0001
0010
0100
0000
1010
0000
0000
0000
,
0000
0000
0000
0000
1000
0001
0100
0000
,
0100
0001
0010
0000
0001
0010
0100
0010
,
0001
0001
0000
0001
0100
0010
1000
0000
,
1000
0010
0100
0000
0010
0000
1000
0001
,
0000
0010
0000
0001
0100
0000
0010
0000
,
0010
1000
0001
0000
0001
1000
0001
0100
,
0001
0010
0000
0001
0010
0000
1100
0000
,
1000
0010
0100
0000
0100
0010
1000
0001
,
0010
0100
0000
1000
1001
0000
0101
0000
,
0001
0100
0010
0000
0010
1000
0001
0010
,
0001
0000
0000
0100
0000
0000
0020
0000
1030
0000
0010
0000
0100
0000
0000
0000
,
0010
1000
0002
0000
0013
0001
0020
0130
,
0020
0032
2003
3100
1000
0010
0220
0330
,
0010
0100
0202
0303
0001
1000
2200
3300
,
1000
0100
2000
3010
0100
0001
0020
0130
,
1000
0002
0103
0010
2000
3100
0010
0002
,
0103
0000
0010
0000
1000
0010
1000
0010
2000
0000
0000
0000
0000
0000
0000
0000
,
0010
0000
0100
0000
,
0001
0000
0000
0010
3020
0000
0000
0000
,
1000
0000
0100
0000
,
0001
0000
0000
0130
0002
0000
0000
0000
,
0010
0000
0100
0000
,
1000
0000
0000
0010
0203
0000
0000
0000
,
0010
0000
1000
0000
,
0002
0000
0000
0303
1000
0100
0000
0100
,
1000
0000
1000
0001
0000
0001
1000
0000
,
0001
0100
0010
0100
0001
0010
0000
0010
,
0100
0000
0100
0010
0000
0001
1000
0000
,
1000
0100
0010
0100
1000
0010
0000
0100
,
0001
0000
0001
1000
0000
1000
0010
0000
,
0100
0010
1000
0001
0010
0100
0000
1000
,
0001
0000
0001
0100
0000
0010
1000
0000
,
1000
0001
0010
0000
0100
0010
1000
0001
,
0010
0001
0010
0100
0010
0001
0100
0010
,
1000
0100
1000
0010
0100
0010
1000
0001
,
0010
0100
1000
0100
1000
0010
0100
0001
,
0010
0100
1100
0000
1000
0100
0100
1000
,
0010
0010
0100
0001
0100
0010
0100
0010
,
1000
0100
0010
0001
0010
0100
0100
0010
,
0001
0001
0010
0100
1000
0010
0001
0010
,
0100
0001
0010
0100
0020
0000
0000
0000
,
0000
0030
0000
0000
;

//---------------dance-single - ----------------
#NOTES:
     dance-single:
     :
     Medium:
     6:
     0.317,0.387,0.118,0.076,0.000:
0000
0000
0000
0000
,
0000
0000
0000
0000
,
0000
0000
0000
0000
,
0000
0000
0000
0000
,
0000
0000
0000
0000
0010
0010
1000
0000
,
0001
0010
0001
0000
0001
0100
0010
0000
,
0010
1000
0100
1000
0010
0100
0001
0000
,
0001
0100
0010
0000
0010
1000
0100
0000
,
0100
1000
0010
0000
1000
0001
1000
0000
,
0001
0100
0001
0000
0001
0010
0100
0100
,
0010
0001
1001
0000
1000
0010
0100
0000
,
0100
0010
1000
0000
1000
0010
0100
0001
,
0010
0100
1000
0000
1001
1000
1000
0000
,
1001
0001
0001
0000
1000
0001
0100
0010
,
1000
1000
1100
0000
1000
0100
0010
0000
,
0010
0001
0100
0000
0020
0000
0000
0000
,
0030
0000
0000
0000
1000
0001
1000
0000
,
0001
0100
0010
1000
,
0100
1000
0000
1000
0010
0000
0100
0000
,
0100
0010
0100
0000
1000
0000
0001
0010
,
0000
0001
0000
0100
0001
0000
0100
0000
,
0100
0010
1000
0000
0001
0000
1000
0001
,
0000
0100
0000
0100
0010
0000
1010
0000
,
0010
1000
0100
0000
1000
0000
0010
0100
,
0000
0001
0000
0010
0001
0000
0101
0000
,
0001
0100
0010
0000
1000
0000
0010
0000
,
1000
0000
0000
0000
0001
1000
0100
0000
,
0100
1000
0010
0000
1000
0000
1100
0000
,
0010
0001
0100
0000
0001
0000
1001
0000
,
0010
0101
0010
1100
,
1000
0010
0000
1000
0100
0000
0011
0000
,
0100
0101
0100
0010
,
1000
0001
0010
0100
2000
0000
0000
0000
,
0010
0000
0100
0000
,
0001
0000
0000
0001
3200
0000
0000
0000
,
0001
0000
0010
0000
,
1000
0000
0000
0310
2000
0000
0000
0000
,
0100
0000
0010
0000
,
0001
0000
0000
0010
0200
0000
0000
3000
,
0020
0000
0000
0300
0200
0000
0000
0030
,
2000
0000
0000
3300
1000
0100
0000
1000
,
0100
0010
0001
0100
,
0010
0000
1000
0000
0001
0100
0000
0100
,
0010
0000
0010
1000
0000
1000
0100
0000
,
1100
0000
1100
0000
1000
0001
0000
0100
,
0010
0100
0010
1000
,
0001
0000
0010
0000
0100
0010
0000
0010
,
0100
0000
0100
1000
0000
1000
0010
0000
,
0100
0010
0100
0000
0010
0000
0000
1000
,
0000
0000
0001
0000
0000
0010
0000
0000
,
0100
1000
0010
0100
0001
0000
0000
0100
,
0000
0000
0010
0000
0000
1000
0000
0000
,
0001
0100
0010
1000
0100
0000
0000
1000
,
0000
0000
0010
0000
0000
0100
0000
0000
,
0010
1000
0001
0010
0100
0000
0000
0100
,
0000
0000
1000
0000
0000
0010
0000
0000
,
0100
0010
1000
0001
0020
0000
0000
0000
,
0000
0030
0000
0000
;

//---------------dance-double - ----------------
#NOTES:
     dance-double:
     :
     Challenge:
     7:
     0.398,0.483,0.194,0.228,0.013:
00000000
00000000
00000000
00000000
,
00000000
00000000
00000000
00000000
,
00000000
00000000
00000000
00000000
,
00000000
00000000
00000000
00000000
,
00000000
00000000
00000000
00000000
01000000
00010000
00100000
00000000
,
00100000
00001000
00010000
00000000
00010000
00000010
00000100
00000001
,
00000100
00000010
00010000
00000000
00001000
00100000
01000000
00000000
,
01000000
00100000
00001000
00000000
00001000
00100000
01000000
10000000
,
00100000
01000000
00001000
00000000
00001000
00010000
00000100
00001000
,
00000010
00000010
00010000
00000000
00001000
00100000
00010000
01000000
,
00100000
00100000
10000000
00000000
10000000
01000000
10000000
00100000
,
01000000
00010000
00000010
00000000
00000011
00000000
00001100
00000000
,
00000001
00000100
00000010
00000000
00000100
00000010
00001000
00000000
,
00001000
00000010
00000100
00000000
00000100
00000010
00001000
00100000
,
00010000
00100000
10000000
00000000
10000000
00000000
01000000
00000000
,
00100000
00010000
00022000
00000000
,
00000000
00000000
00000000
00033000
00001000
00010000
00000100
00000000
,
00000100
00010000
00001000
00000000
00010000
00000100
00001000
00000010
,
00000100
00000100
00000000
00000010
00001000
00000100
00000010
00000000
,
00000010
00000001
00000100
00000000
00000100
00000001
00000100
00000010
,
00001000
00001000
00000000
00001000
00000100
00000000
00011000
00000000
,
00000100
00010000
00001000
00000000
00001000
00100000
00010000
01000000
,
00100000
00100000
00000000
00100000
10000000
00000000
10010000
00000000
,
10000000
01000000
00100000
00000000
00100000
01000000
00100000
00010000
,
01000000
00100000
10000000
10000000
00010000
00000000
01100000
00000000
,
00010000
11000000
10000000
01010000
,
01010000
00000000
00000000
00100000
00000000
00000000
00001000
00000000
00010000
00000000
00000100
00000000
00001000
00000000
00000000
00000000
,
00000010
00001000
00000001
00000000
00000001
00000010
00000100
00000010
,
00000001
00000100
00000010
00001000
00000100
00010000
00010100
00000000
,
00001000
00100000
00110000
00000000
00010000
01000000
01100000
00000000
,
00100000
10000000
10010000
00000000
10000000
01000000
02200000
00000000
,
03300000
00022000
00000000
00033000
00000220
00000000
00000330
00000022
,
00000000
00000000
00000033
00000000
00000010
00000100
00000010
00000100
00000002
00000000
00000000
00000000
00000000
00000000
00000000
00000000
,
00002003
00000000
00003200
00000000
,
00020300
00000000
00000000
00000010
00030020
00000000
00000000
00000000
,
00020030
00000000
00032000
00000000
,
00200000
00000000
00003000
00010000
00320000
00000000
00000000
00000000
,
02030000
00000000
03200000
00000000
,
02300000
00000000
03020000
00000000
,
00230000
00000000
20300000
00000000
,
30200000
00000000
00000000
00000000
00310000
01000000
00100000
00000000
,
00100000
10000000
00010000
00000000
00010000
00000000
10010000
00000000
,
00010000
00010000
01100000
00000000
00100000
00000000
10010000
00000000
,
00010000
00100000
00001000
00000000
00010000
00000100
00001000
00000010
,
00000100
00000100
00000000
00000100
00000010
00000000
00001001
00000000
,
00000001
00000100
00000010
00000000
00000010
00001000
00000100
00010000
,
00001000
00001000
00000000
00001000
00100000
00000000
01100000
00000000
,
00100000
00010000
01000000
00000000
00100000
01000000
00100000
10000000
,
00010000
00100000
00110000
00000000
01000000
00010000
00000000
00010000
,
00100000
00000000
00100000
00001000
00000000
00010000
00000100
00000000
,
00000100
00001000
00000100
00000010
00000001
00000010
00000000
00000010
,
00000001
00000000
00000001
00000100
00000000
00000010
00001000
00000000
,
00000010
00001000
00000100
00010000
00000100
00010000
00000000
00010000
,
00100000
00000000
00100000
01000000
00000000
01000000
10000000
00000000
,
10000000
01000000
00100000
00010000
00100000
00010000
00000000
00010000
,
00000100
00000000
00001000
00000010
00000000
00000100
00000001
00000000
,
00000001
00000100
00000010
00010000
00000200
00000000
00000000
00000000
,
00000000
00000300
00000000
00000000
;

//---------------dance-single - ----------------
#NOTES:
     dance-single:
     :
     Easy:
     3:
     0.171,0.290,0.051,0.076,0.000:
0000
0000
0000
0000
,
0000
0000
0000
0000
,
0000
0000
0000
0000
,
0000
0000
0000
0000
,
0000
0000
0001
0000
,
0000
0000
1000
0000
,
0000
0000
0010
0000
,
0000
0000
1000
0000
,
0000
0000
0001
0000
,
0010
0000
0100
0000
,
0010
0001
1000
0000
,
0010
0000
0100
0000
,
0010
1000
0100
0000
,
0010
0000
0001
0000
,
1000
0010
0100
0000
,
0001
0000
1000
0000
,
0000
0000
0010
0000
,
1000
0000
0001
0001
,
0100
0000
0100
0000
,
0010
0000
0100
0010
,
1000
0001
0011
0000
,
0100
0000
0100
1000
,
0010
0000
0100
0001
,
0010
0001
0100
0010
,
1000
0000
0001
0000
,
1000
0000
0010
1000
,
0100
0000
1000
0010
,
0100
0001
0100
0100
,
0100
0100
0010
1001
,
0010
1001
0010
1001
,
0010
1001
0001
0100
,
0010
1000
0100
0010
,
0001
1000
0202
0000
,
0000
0000
0000
0000
,
0000
0000
0303
0002
2000
0000
0000
0000
,
0000
0000
0000
0000
,
0000
0000
3003
2000
0020
0000
0000
0000
,
0000
0000
0000
0000
,
0000
0000
3030
0020
0200
0000
0000
0000
,
0000
0000
0000
0000
,
0330
0000
0001
0000
,
1000
0000
0010
1000
,
0100
0010
0001
0000
,
0010
0000
0100
1000
,
0010
0000
0010
1000
,
0001
0000
1000
0000
,
0001
0000
0100
0001
,
0010
0000
0100
0000
,
1000
0000
0000
0000
0010
0000
0000
1000
,
0000
0000
0001
0000
0000
0010
0000
0000
,
0010
0000
0001
0000
0100
0000
0000
0010
,
0000
0000
1000
0000
0000
0001
0000
0000
,
0010
0000
0100
0000
1000
0000
0000
1000
,
0000
0000
0100
0000
0000
0010
0000
0000
,
0100
0000
1000
0000
0001
0000
0000
0010
,
0000
0000
0100
0000
0000
0010
0000
0000
,
0001
0100
0020
0000
,
0000
0030
0000
0000
;

//---------------dance-single - ----------------
#NOTES:
     dance-single:
     :
     Beginner:
     1:
     0.107,0.143,0.042,0.000,0.000: // measure 1
0000
0000
0000
0000
,  // measure 2
0000
0000
0000
0000
,  // measure 3
0000
0000
0000
0000
,  // measure 4
0000
0000
0000
0000
,  // measure 5
0000
0000
0001
0000
,  // measure 6
0000
0000
0000
0000
,  // measure 7
0000
0000
1000
0000
,  // measure 8
0000
0000
0010
0000
,  // measure 9
0000
0000
0100
0000
,  // measure 10
0000
0000
0000
0000
,  // measure 11
0000
0000
0001
0000
,  // measure 12
0000
0000
1000
0000
,  // measure 13
0000
0000
0010
0000
,  // measure 14
0000
0000
0000
0000
,  // measure 15
0000
0000
0100
0000
,  // measure 16
0000
0000
0010
0000
,  // measure 17
0000
0000
0001
0000
,  // measure 18
0001
0000
0001
0001
,  // measure 19
0001
0000
1000
0000
,  // measure 20
1000
0000
1000
1000
,  // measure 21
1000
0000
0010
0000
,  // measure 22
0010
0000
0010
0010
,  // measure 23
0010
0000
0100
0000
,  // measure 24
0100
0000
0100
0100
,  // measure 25
0100
0000
0110
0000
,  // measure 26
0010
0000
1000
0000
,  // measure 27
0001
0000
1000
0000
,  // measure 28
1000
0000
0001
0001
,  // measure 29
0001
0000
0000
1001
,  // measure 30
0000
0001
0000
1001
,  // measure 31
0000
1000
0000
0010
,  // measure 32
0000
0000
0000
0000
,  // measure 33
0000
0100
1001
0000
,  // measure 34
0000
0000
0000
0000
,  // measure 35
0000
0000
1000
0000
,  // measure 36
0000
0000
0000
0000
,  // measure 37
0000
0000
0010
0000
,  // measure 38
0000
0000
0000
0000
,  // measure 39
0000
0000
0100
0000
,  // measure 40
0000
0000
0001
0000
,  // measure 41
1000
0000
0010
0000
,  // measure 42
1000
0000
0001
0000
,  // measure 43
0100
0100
0100
0000
,  // measure 44
0010
0000
1000
0000
,  // measure 45
0001
0001
0001
0000
,  // measure 46
1000
0000
0001
0000
,  // measure 47
0100
0100
0100
0000
,  // measure 48
0010
0000
1000
0000
,  // measure 49
0001
0000
1000
0000
,  // measure 50
0000
0001
0000
0000
,  // measure 51
0100
0010
1000
0000
,  // measure 52
0000
0001
0000
0000
,  // measure 53
0100
0100
0010
0000
,  // measure 54
0000
1000
0000
0000
,  // measure 55
0001
0000
0100
0000
,  // measure 56
0000
0010
0000
0000
,  // measure 57
1000
0000
1001
0000
;
