#TITLE:Vanishing Point;
#SUBTITLE:;
#ARTIST:DJ Chucky;
#TITLETRANSLIT:;
#SUBTITLETRANSLIT:;
#ARTISTTRANSLIT:;
#CREDIT:;
#BANNER:bn.png;
#BACKGROUND:bg.png;
#LYRICSPATH:;
#CDTITLE:PandemiXium-cdtitle.png;
#MUSIC:226. VANISHING POINT.mp3;
#OFFSET:-0.043;
#SAMPLESTART:84.232;
#SAMPLELENGTH:11.920;
#SELECTABLE:YES;
#BPMS:0.000=170.000;
#STOPS:142.000=0.353
,237.000=1.059
;
#BGCHANGES:;

//---------------dance-single - ----------------
#NOTES:
     dance-single:
     :
     Hard:
     9:
     0.547,0.740,0.425,0.233,0.578:
0000
0000
0000
0000
,
0000
0000
0000
0000
,
0000
0000
0000
0000
,
0000
0000
0000
0000
,
0000
0000
0001
0100
,
0001
0010
0001
1000
,
0100
1000
0010
0010
,
0100
0000
0000
0100
0000
0000
0010
0000
0010
1000
0000
0010
,
1000
0010
1000
0200
0000
0000
1300
0000
0000
0001
0000
0000
,
0010
0010
0001
0100
,
0100
0010
1000
0001
,
0010
0000
0000
0001
0000
0000
1010
0000
0000
0000
0000
0001
,
2002
0000
0000
3003
0000
0000
1000
0000
0000
0001
0000
0001
,
0010
0000
0010
0100
0000
0100
1000
0000
0000
0001
0000
0001
,
1000
0000
1000
0010
0000
0010
0100
0000
0000
0010
0000
0010
,
1000
0000
1000
0100
0000
0100
1000
0000
0000
0010
0000
0100
,
0010
0000
0100
0010
0000
0010
0100
0000
0000
0010
0000
0000
,
1000
0000
1000
0001
0000
0001
0010
0000
0010
0001
0000
0000
,
0100
0000
0010
1000
0000
1000
0001
0000
0001
0010
0000
0000
,
0001
0000
0100
0001
0000
0001
0010
0000
0100
1000
0000
1000
,
0100
0000
0100
0000
0100
0000
1100
0000
0000
1001
0000
0001
,
0100
0010
1000
0200
0000
0000
1300
0000
0000
0010
0000
0100
,
0010
1000
0001
0020
0000
0000
0031
0000
0000
0001
0000
0000
,
0001
1000
0100
0020
0000
0000
0130
0000
0010
0100
0000
0100
,
0010
1001
0101
1010
,
0010
1000
0100
0010
0000
0000
0011
0000
0000
1100
0000
0000
,
0001
1000
0001
0010
0000
0000
0011
0000
0000
0101
0000
0000
,
1010
0000
0000
1100
0000
0000
1001
0000
0001
0100
0010
1000
,
0200
0300
0200
0300
0200
0300
0110
0000
0000
0010
0000
0001
,
0000
0100
0000
0010
0000
0000
0110
0000
0000
0010
0000
1000
,
0000
0010
1000
0100
0000
0000
0110
0000
0000
0010
0000
0100
,
0000
0010
0000
0001
0000
0000
1001
0000
1000
0001
0000
0001
,
0010
0100
1000
0001
0000
0000
1001
0000
0000
0001
0000
0001
,
0000
1000
0000
1000
0000
0000
0110
0000
0000
0010
0000
0010
,
0000
0010
0100
0010
0000
0000
0110
0000
0010
1000
0000
1000
,
0100
0000
0100
0010
0000
0010
0001
0000
0001
0200
0000
0000
,
0000
0310
0000
0000
,
0000
0000
0000
0000
,
0000
0000
0000
0000
,
0000
0000
0000
0000
,
0000
0000
0000
0000
,
0000
0000
0000
0000
,
0000
0000
0000
0000
,
0000
0000
0000
0000
0000
0000
0001
0010
0001
0200
0000
0000
,
0310
1002
0000
0000
,
0010
0000
0010
0003
0000
0000
0000
0000
0000
0000
0000
0000
,
0000
0002
0000
0000
,
1000
0000
1003
0000
0000
0000
0000
0000
0000
0000
0000
0000
,
0000
2010
0000
0000
,
0010
0000
0010
3000
0000
0000
0000
0000
0000
0000
0000
0000
,
0000
0200
0000
0000
,
0010
0000
0310
0000
0000
0000
0000
0000
0000
0000
0000
0000
,
0000
1001
1010
1001
,
0011
0000
0001
0010
0000
0000
1100
0000
0000
1100
0000
0000
,
0101
0000
0001
0100
0000
0000
0110
0000
0000
1001
0000
0000
,
1100
1001
1001
0210
,
0310
0000
0000
1000
0100
1000
0100
0000
0010
0001
0010
0001
,
0010
0000
0001
0100
0010
1000
0001
0000
0001
0010
0100
0010
,
0001
0000
0001
0200
0000
0000
0010
0000
0000
1000
0000
0000
,
0301
0000
0000
1001
0000
0000
0101
0000
0000
0001
0100
0010
,
1000
0000
1000
0100
0000
1000
0001
0000
0000
0001
0000
0000
,
1000
0000
0000
1000
0000
0000
1001
0000
0000
0001
0100
0010
,
1000
0000
1000
0100
0000
0100
0010
0000
0000
0011
0000
0100
,
0002
0000
0000
0023
0000
0000
0130
0000
0000
0100
0010
1000
,
0001
1000
0010
0100
,
0010
0000
0000
1000
0000
0000
1100
0000
0000
1000
0100
1000
,
0100
0000
0000
1000
0000
0010
0100
0000
0100
0010
0000
0010
,
1000
0000
0000
2002
0000
3003
1001
0000
0001
0100
0010
1000
,
0200
0000
1300
0001
0100
0001
0010
0000
0010
0000
0001
0000
,
0001
0000
1000
0000
0001
0000
0101
0000
0001
0100
0001
0010
,
0100
0010
0001
1000
0100
1000
0020
0000
0000
0130
0000
0010
,
0200
0000
0000
0301
0000
0000
1001
0000
1000
0001
0010
0001
,
0100
0010
1000
0001
0010
0001
0100
0000
0010
0000
0010
1000
,
0002
0000
0003
0022
0030
0013
0001
0000
0001
0100
0000
0100
,
0010
0000
0010
1000
0000
1000
1001
0000
0101
0000
1100
0000
,
0100
0010
1000
0001
0010
0001
1000
0000
0000
0001
0000
0000
,
0001
0001
0100
0100
,
0100
0100
0110
1000
,
1000
1000
0100
0100
,
0100
0100
1010
0010
,
0010
0010
0100
0100
,
0100
0100
1001
0001
,
0001
0001
1000
1000
,
1000
1000
2020
3030
;

//---------------dance-single - ----------------
#NOTES:
     dance-single:
     :
     Medium:
     7:
     0.353,0.471,0.450,0.048,0.149:
0000
0000
0000
0000
,
0000
0000
0000
0000
,
0000
0000
0000
0000
,
0000
0000
0000
0000
,
0000
0000
0000
0000
,
0000
0000
0000
0000
,
0000
0000
0000
0000
,
0000
0000
0000
0000
,
0000
0000
0101
0100
,
0100
0100
0010
0010
,
0010
0010
0100
0010
,
1000
0001
1001
0000
,
0010
0000
0010
0100
,
0010
1000
0010
0100
,
0001
0010
0001
0100
,
0010
1000
0001
0100
,
0101
1100
0101
0100
,
0010
1000
0100
1000
,
0010
0101
0001
1000
,
0010
0100
0010
1000
,
0001
0000
1000
0000
0001
0000
0100
0000
0000
0010
0000
0000
,
1000
1010
0001
0100
,
0010
1001
1000
0100
,
0010
0011
0100
0010
,
1000
1001
0001
0001
,
0001
0000
0100
0001
0000
0000
0010
0000
0000
0100
0000
0000
,
0010
0000
0010
0100
0000
0000
0010
0000
0000
1000
0000
0000
,
0001
0000
1000
0100
0000
0000
1100
0000
0000
0000
0000
0000
,
0011
0000
0001
0000
,
1001
0000
1100
0000
,
0011
0000
1010
0000
,
0011
0000
1010
0000
,
0011
0000
1100
0000
,
0101
0000
0101
0000
,
1100
0000
0110
0000
,
1010
0000
0011
0001
,
0000
2002
0000
0000
,
0000
0000
0000
0000
,
0000
3003
0000
0000
,
0000
0000
0000
0000
,
0000
0000
0000
0000
,
0000
0000
0000
0000
,
0000
0000
0000
0000
,
0000
0000
0000
0000
0000
0000
0010
0100
0010
0100
0000
0000
,
0000
0110
0000
0000
,
0010
0000
0010
0000
0000
0000
0000
0000
0000
0000
0000
0000
,
0000
0000
0000
0000
,
0001
0000
1000
0000
0000
0000
0000
0000
0000
0000
0000
0000
,
0000
1100
0000
0000
,
1000
0000
1000
0000
0000
0000
0000
0000
0000
0000
0000
0000
,
0000
0000
0000
0000
,
0010
0000
0100
0000
0000
0000
0000
0000
0000
0000
0000
0000
,
0000
1001
0001
1000
,
0001
0001
0001
0100
,
0010
1001
0010
0100
,
0010
1000
0001
0010
,
0100
1100
0010
1100
,
0010
0101
0010
0101
,
0010
0000
0000
1001
0000
0000
0110
0000
0000
0001
0000
0100
,
0000
0010
0000
1000
0000
0000
1001
0000
0000
0001
0000
0000
,
0101
0000
0000
0100
0000
0000
0010
0000
0100
0000
0010
0000
,
1000
0000
0001
0000
1000
0000
0001
0000
0000
0001
0000
0000
,
1000
0000
0000
1000
0000
0000
0001
0000
0100
0000
0010
0000
,
1000
0000
0100
0000
1000
0000
0010
0000
0000
0010
0000
0000
,
0100
0000
0000
0100
0000
0000
0010
0000
1000
0000
0010
0000
,
1000
0000
0010
0000
1000
0000
0010
0000
0000
0010
0000
0000
,
1000
1000
1001
0110
,
1001
0110
1001
1000
,
0001
0000
0000
0100
0000
0000
0001
0000
0100
0000
0001
0000
,
0100
0000
0001
0000
0100
0000
0001
0000
0000
0100
0000
0000
,
0010
1000
1010
0000
,
0101
0000
1100
0011
,
0101
0000
0000
1010
0000
0000
0010
0000
1000
0000
0100
0000
,
0010
0000
0001
0000
0100
0000
0110
0000
0000
0000
0000
0000
,
0010
0000
1000
0000
0001
0000
0100
0000
0010
0000
0000
2000
,
0200
3300
1100
1000
,
0100
0010
0100
0100
,
0100
0100
1001
0001
,
0010
0001
0100
0100
,
0100
0100
1001
0010
,
1000
0010
0100
0100
,
0100
0100
1001
0010
,
0001
0100
0010
0010
,
0010
0010
2002
3003
;

//---------------dance-double - ----------------
#NOTES:
     dance-double:
     :
     Challenge:
     10:
     0.680,0.807,0.570,0.225,0.987:
00000000
00000000
00000000
00000000
,
00000000
00000000
00000000
00000000
,
00000000
00000000
00000000
00000000
,
00000000
00000000
00000000
00000000
,
00000000
00000000
00000000
00000000
00000000
00000000
11000000
00000000
00000000
00010000
00000000
00100000
,
00000000
00001000
00000000
00101000
00000000
00000000
00001000
00000000
00000000
00100000
00000000
00001000
,
00000000
00010000
00000100
00001000
00000000
00000000
00000110
00000000
00000000
00000010
00000000
00001000
,
00000000
00000100
00000000
00000010
00000000
00000000
00001001
00000000
00000001
00000100
00000000
00000010
,
00000000
00000100
00000010
00002000
00000000
00000000
00003100
00000000
00000000
00000100
00000000
00010000
,
00000000
00001000
00000000
00001000
00000000
00000000
00011000
00000000
00000000
00001000
00000000
00100000
,
00000000
00100000
00010000
01000000
00000000
00000000
01100000
00000000
00100000
10000000
00000000
10000000
,
01000000
00000000
01000000
00100000
00000000
00000000
00011000
00000000
00000000
00000000
00000000
00000000
,
00000000
00000000
00000000
00000000
00000000
00000000
00001000
00000000
00010000
00000100
00000000
00001000
,
00000010
00000000
00000100
00000001
00000000
00000001
00000010
00000000
00000100
00000010
00000000
00000010
,
00000001
00000000
00000001
00000100
00000010
00001000
00000100
00000000
00000100
00010000
00000000
00010000
,
00001000
00000000
00001000
00100000
00000000
00100000
01000000
00000000
01000000
00100000
00000000
00100000
,
00010000
00100000
01000000
00100000
00010000
10000000
01000000
00000000
00100000
00010000
00000000
00010000
,
01000000
00100000
10000000
01000000
00000000
00000000
10000000
00000000
10000000
01000000
00000000
01000000
,
00100000
00010000
00000100
00001000
00000000
00000000
00000010
00000000
00000010
00000100
00000000
00000100
,
00000010
00001000
00000001
00000010
00000000
00000000
00000100
00000000
00000010
00001000
00000001
00000010
,
00000110
00000000
00001100
00000000
00010100
00000000
00011000
00000000
00001000
00010000
00000000
00010000
,
00000100
00100000
00010000
02000000
00000000
00000000
03010000
00000000
00010000
01000000
00000000
01000000
,
00100000
10000000
01000000
00200000
00000000
00000000
00310000
00000000
00100000
00001000
00000000
00010000
,
00000100
00001000
00000010
00000200
00000000
00000000
00000310
00000000
00000010
00001000
00000000
00001000
,
00000200
00000000
00000000
00002300
00000000
00000000
00003010
00000000
00000010
00000100
00000000
00000100
,
00000010
00001000
00000001
00000020
00000000
00000000
00000130
00000000
00000100
00000010
00000000
00000010
,
00001000
00000100
00010000
00002000
00000000
00000000
00103000
00000000
00010000
00100000
00000000
00010000
,
01000000
00100000
01000000
00020000
00000000
00000000
10030000
00010000
00100000
00001000
00010000
00000100
,
00010100
00000000
00001100
00000000
00011000
00000000
00110000
00000000
00000000
00010000
00000000
00010000
,
00000000
00010000
00000000
00010000
00000000
00000000
01100000
00000000
00000000
01000000
00000000
01000000
,
00000000
01000000
00100000
00010000
00000000
00000000
10010000
00000000
00000000
10000000
00000000
10000000
,
00000000
10000000
00000000
10000000
00000000
00000000
10000000
00000000
10000000
01000000
00000000
01000000
,
00100000
00001000
00010000
00000100
00000000
00000000
00010100
00000000
00000000
00000100
00000000
00000100
,
00000000
00000100
00000000
00000100
00000000
00000000
00000011
00000000
00000000
00000001
00000000
00000001
,
00000000
00000001
00000000
00000001
00000000
00000000
00000001
00000000
00000100
00000010
00000000
00000010
,
00001000
00000000
00000100
00010000
00000000
00000000
00201000
00000000
00001000
00002000
00000000
00000000
,
00000000
00003000
00000000
00000000
,
00000000
00000000
00000000
00000000
,
00000000
00000000
00000000
00000000
,
00000000
00000000
00000000
00000000
,
00000000
00300000
00000000
00000000
,
00000000
00000000
00000000
00000000
,
00000000
00000000
00000000
00000000
,
00000000
00000000
00000000
00000000
00000000
00000000
00000010
00100000
00001000
00020000
00000000
00000000
,
00030100
00010100
00010000
00000100
,
00101000
00000000
00110000
00000000
00000000
00000000
00000000
00000000
00000000
00000000
00000000
00000000
,
00000000
00000000
00000000
01000000
00000000
01000000
00100000
00000000
00100000
10000000
00010000
00100000
,
00010000
00000000
00101000
00000000
00000000
00000000
00000000
00000000
00000000
00000000
00000000
00000000
,
00000000
00000000
00000000
00101000
00000000
00100000
00001000
00000000
00100000
00000010
00000100
00000010
,
00001010
00000000
00000101
00000000
00000000
00000000
00000000
00000000
00000000
00000000
00000000
00000000
,
00000000
00000000
00000000
00000001
00000000
00000001
00001000
00000000
00001000
00000100
00000010
00000001
,
00001001
00000000
00001100
00000000
00000000
00000000
00000000
00000000
00000000
00000000
00000000
00000000
,
00000000
00000110
00001010
00011000
,
00002000
00103000
00011000
01100000
,
01010000
12000000
13000000
01100000
,
00110000
02010000
03001000
00011000
,
00011000
00000000
00000000
00001000
00100000
00001000
00100000
00000000
00001000
00010000
00000100
00010000
,
00000100
00000000
00000100
00001000
00000010
00001000
00000010
00000000
00000100
00000001
00000010
00000001
,
00000010
00000000
00000020
00000002
00000000
00000000
00000033
00000000
00000000
00001001
00000000
00010100
,
00000000
00101000
00000000
10010000
00000000
00000000
01100000
00000000
00100000
10000000
00000000
10000000
,
01000000
00000000
01000000
00100000
00010000
00100000
01000000
00000000
00000000
01100000
00000000
00000000
,
10010000
00000000
00000000
01010000
00000000
00000000
00110000
00000000
00100000
00001000
00010000
00000100
,
00001000
00000000
00001000
00000010
00000100
00000001
00000010
00000000
00000001
00000010
00000000
00000010
,
00000220
00000000
00000330
00002002
00000000
00003003
00001001
00000000
00000001
00000100
00000000
00000100
,
00000010
00000000
00000010
00001000
00000000
00000100
00010000
00000000
00010000
00001000
00000000
00001000
,
01000000
00000000
01000000
10000000
00000000
10000000
01000000
00000000
01000000
00100000
00010000
00000100
,
00001000
00000010
00000100
00000001
00000010
00000100
00001000
00000000
00000000
00000000
00000000
00000000
,
00001001
00000000
00000000
00000010
00000100
00000100
00000010
00000000
00000100
00000010
00001000
00000100
,
00010000
00000000
00010000
00001000
00100000
00010000
01000000
00000000
01010000
00000000
11000000
00000000
,
10010000
00000000
00010000
00100000
00001000
00010000
00000100
00000000
00000100
00001000
00000010
00000100
,
00000001
00000000
00000001
00000010
00000100
00001000
00000200
00000000
00000000
00000300
00000000
00001000
,
00200000
00000000
00000000
01300000
00000000
00000000
11000000
00000000
10000000
01000000
00100000
00001000
,
00010000
00000000
00010000
00000100
00001000
00000010
00001010
00000000
00001001
00000000
00000010
00001000
,
00000200
00000000
00020000
00030300
00001000
00010000
00000010
00000100
00000001
00000010
00000100
00001000
,
00000100
00010000
00001000
00100000
00010000
01000000
00100000
10000000
00010000
00100000
01000000
10000000
,
01000000
00100000
00001000
00010000
00000100
00001000
00000020
00000000
00000000
00000130
00000000
00000000
,
00000010
00000000
00000000
00001000
00000000
00000000
00000001
00001000
00000001
00001000
00000001
00001000
,
00000001
00001000
00000001
00001000
00000001
00001000
00001001
00000000
00000000
00000110
00000000
00000000
,
00001010
00000000
00000000
00001100
00000000
00000000
00000100
00010000
00001000
00010000
00000100
00001000
,
00000100
00010000
00001000
00100000
00010000
01000000
00100000
00000000
00000000
01100000
00000000
00000000
,
01100000
00000000
00000000
10010000
00000000
00000000
10000000
00010000
00100000
00001000
00010000
00000100
,
00001000
00000010
00000100
00000001
00000100
00000010
00001000
00000000
00000000
00001010
00000000
00000000
,
00011000
00000000
00000000
00110000
00000000
00000000
10000000
00010000
00100000
00001000
00010000
00000100
,
00001000
00000010
00000100
00000001
00000010
00000100
00002200
00000000
00000000
00003300
00000000
00000000
;

//---------------dance-single - ----------------
#NOTES:
     dance-single:
     :
     Easy:
     5:
     0.360,0.570,0.674,0.265,0.000:
0000
0000
0000
0000
,
0000
0000
0000
0000
,
0000
0000
0000
0000
,
0000
0000
0000
0000
,
0000
0000
0000
0000
,
0000
0000
0000
0000
,
0000
0000
0000
0000
,
0000
0000
0000
0000
,
0000
0000
1001
0010
,
0010
0010
0100
0010
,
1000
0001
0010
0001
,
0100
0010
2020
0000
,
3030
0000
1010
0101
,
1000
0001
0011
1100
,
1000
0001
1001
0110
,
0010
0100
0110
1100
,
1000
0001
0101
1010
,
1000
0100
1100
0011
,
0001
0100
0101
0110
,
0100
0010
1001
0101
,
0001
0010
0100
0110
,
0020
0032
0103
0110
,
0200
0320
1030
1001
,
2000
3200
1300
1010
,
0100
0110
0010
1010
,
0200
0320
0130
0100
,
0010
0011
0002
0203
,
0310
1001
0002
0023
,
0031
1000
1001
0000
,
0101
0000
1010
0000
,
1100
0000
0110
0000
,
0011
0000
0101
0000
,
1010
0000
1001
0000
,
0110
0000
1010
0000
,
0011
0000
1100
0000
,
0101
0000
1001
0000
,
0000
0220
0000
0000
,
0000
0000
0000
0000
,
0000
0000
0000
0000
,
0000
0330
0000
0000
,
0000
0000
0000
0000
,
0000
0000
0000
0000
,
0000
0000
0000
0000
,
0000
0000
0020
0000
,
0030
1001
0000
0000
,
0000
0000
0000
0000
,
0000
0010
0000
0000
,
0000
0000
0000
0000
,
0000
1000
0000
0000
,
0000
0000
0000
0000
,
0000
0001
0000
0000
,
0000
0000
0000
0000
,
0000
0010
0010
0010
,
0000
0100
0100
0100
,
0000
0010
0001
0100
,
0000
0010
1000
0100
,
0000
1100
0000
0011
,
0000
1010
0000
0011
,
0000
1001
0000
0110
,
0101
1010
1001
0001
,
0100
0010
0010
0010
,
0010
0010
0100
0010
,
1000
0001
0100
0010
,
2000
3200
1300
0100
,
0010
0001
0011
0100
,
1100
0010
0110
0010
,
1000
0001
0202
0303
,
2200
3300
0110
0001
,
1001
0010
0101
1100
,
0101
1100
0110
0010
,
1010
0010
0022
0033
,
2200
3300
1001
0010
,
1001
0100
0101
1100
,
0101
1100
2020
3030
,
0022
0033
0101
1010
,
1100
0011
0202
0303
,
0000
0000
0001
1000
,
0001
1000
1001
0000
,
0000
0000
0100
0010
,
0100
0010
0110
0000
,
0000
0000
0001
0100
,
0010
1000
1010
0000
,
0000
0000
1000
0100
,
0010
0001
1100
0000
;

//---------------dance-single - ----------------
#NOTES:
     dance-single:
     :
     Beginner:
     3:
     0.170,0.302,0.241,0.000,0.000: // measure 1
0000
0000
0000
0000
,  // measure 2
0000
0000
0000
0000
,  // measure 3
0000
0000
0000
0000
,  // measure 4
0000
0000
0000
0000
,  // measure 5
0000
0000
0000
0000
,  // measure 6
0000
0000
0000
0000
,  // measure 7
0000
0000
0000
0000
,  // measure 8
0000
0000
0000
0000
,  // measure 9
0000
0000
1001
0000
,  // measure 10
0000
0000
0010
0000
,  // measure 11
0000
0000
0100
0000
,  // measure 12
0000
0000
0110
0000
,  // measure 13
0010
0000
0100
0000
,  // measure 14
0010
0010
0010
0000
,  // measure 15
1000
1000
1000
0000
,  // measure 16
0001
0001
0001
0000
,  // measure 17
1001
0000
0010
0000
,  // measure 18
0100
0100
0100
0000
,  // measure 19
0010
0010
0010
0000
,  // measure 20
1000
1000
1001
0000
,  // measure 21
1001
0000
0010
0000
,  // measure 22
0100
0110
0000
0000
,  // measure 23
1000
1001
0000
0000
,  // measure 24
0001
1001
0000
0000
,  // measure 25
0010
0010
0100
0000
,  // measure 26
0010
0110
0000
0000
,  // measure 27
0100
1001
0000
0000
,  // measure 28
1000
0100
0010
0000
,  // measure 29
0100
0000
1001
0000
,  // measure 30
0001
0000
1000
0000
,  // measure 31
0010
0000
0100
0000
,  // measure 32
0001
0000
1000
0000
,  // measure 33
1000
0000
0001
0000
,  // measure 34
0001
0000
1000
0000
,  // measure 35
0010
0000
0100
0000
,  // measure 36
0001
0000
1000
0000
,  // measure 37
0000
0110
0000
0000
,  // measure 38
0000
0000
0000
0000
,  // measure 39
0000
0000
0000
0000
,  // measure 40
0000
0000
0000
0000
,  // measure 41
0000
0000
0000
0000
,  // measure 42
0000
0000
0000
0000
,  // measure 43
0000
0000
0000
0000
,  // measure 44
0000
0000
0000
0000
,  // measure 45
0000
0010
0000
0000
,  // measure 46
0000
0000
0000
0000
,  // measure 47
0000
0000
0000
0000
,  // measure 48
0000
0000
0000
0000
,  // measure 49
0000
1001
0000
0000
,  // measure 50
0000
0000
0000
0000
,  // measure 51
0000
0000
0000
0000
,  // measure 52
0000
0000
0000
0000
,  // measure 53
0000
0110
0000
0000
,  // measure 54
0000
0010
0000
0000
,  // measure 55
0000
1000
0000
0000
,  // measure 56
0000
0001
0000
0000
,  // measure 57
0000
1001
0000
0110
,  // measure 58
0000
1001
0000
0110
,  // measure 59
0000
1001
0000
0010
,  // measure 60
0010
1001
0010
0000
,  // measure 61
0010
0000
0100
0100
,  // measure 62
0100
0000
0001
0000
,  // measure 63
1000
0000
0010
0010
,  // measure 64
0010
0000
0100
0000
,  // measure 65
0001
0000
0010
0010
,  // measure 66
0010
0000
0100
0000
,  // measure 67
1000
0000
0110
0000
,  // measure 68
0110
0000
0010
0000
,  // measure 69
1000
0000
0001
0001
,  // measure 70
0001
0000
1000
0000
,  // measure 71
0010
0000
0110
0000
,  // measure 72
1001
0000
1001
0000
,  // measure 73
0001
0000
0100
0100
,  // measure 74
0100
0000
0010
0000
,  // measure 75
1000
0000
0001
0001
,  // measure 76
0001
0000
1001
0000
,  // measure 77
0000
0000
0000
0000
,  // measure 78
0000
0000
0110
0000
,  // measure 79
0000
0000
0000
0000
,  // measure 80
0000
0000
0110
0000
,  // measure 81
0000
0000
0000
0000
,  // measure 82
0000
0000
1001
0000
,  // measure 83
0000
0000
0000
0000
,  // measure 84
0000
0000
1001
0000
;
