#TITLE:Vairocana;
#SUBTITLE:;
#ARTIST:五条式改;
#TITLETRANSLIT:;
#SUBTITLETRANSLIT:;
#ARTISTTRANSLIT:Gojyoushiki Kai;
#CREDIT:;
#BANNER:bn.png;
#BACKGROUND:bg.png;
#LYRICSPATH:;
#CDTITLE:PandemiXium-cdtitle.png;
#MUSIC:Vairocana.ogg;
#OFFSET:-6.726;
#SAMPLESTART:27.380;
#SAMPLELENGTH:15.000;
#SELECTABLE:YES;
#BPMS:0.000=145.000,50.000=290.000,146.000=145.020,152.333=290.000,233.000=145.000,265.000=290.000,383.000=145.000;
#STOPS:;
#BGCHANGES:;

//---------------dance-single - ----------------
#NOTES:
     dance-single:
     :
     Hard:
     10:
     0.704,0.785,0.170,0.286,0.063:
0000
0000
0000
0000
,
0000
0000
0000
0000
,
0000
0000
0000
0000
,
0000
0000
0000
0000
,
2002
0000
0000
0000
0000
0000
0000
0000
0000
0000
0000
0000
3003
0000
0001
1000
,
0200
0000
0000
0000
0300
0000
1000
0001
,
0100
0000
0000
0000
0000
1000
0100
1000
,
0001
0010
0100
1000
0001
0100
0001
0010
,
0110
0000
0011
0000
,
1100
0000
1001
1010
,
1100
0000
0000
0000
0000
0000
0000
0000
0000
0000
0000
0000
0000
0000
1000
0100
,
1000
0000
1100
0000
0000
0001
1000
0100
1000
0000
1100
0000
0000
1000
0001
0010
,
0000
0001
0010
0100
1000
0001
0100
0010
1000
0000
0000
0000
0010
0000
1000
0000
,
0100
0000
1000
0000
0001
0010
0001
0100
,
0010
0000
1000
0000
0001
0000
0010
0001
,
0100
0000
0110
0000
0010
1000
0001
0010
,
0001
0000
0001
0010
0100
1000
0001
0100
,
0010
1000
0100
0000
1000
0001
0100
0001
,
0010
0001
0100
0010
1000
0100
1000
0001
,
0100
0000
0010
1000
0001
0010
0001
0100
,
0010
1000
0100
0000
1000
0001
0100
0000
,
0010
1000
0001
0010
0001
0100
0010
0100
,
0010
1000
0001
0010
0001
0010
0100
1000
,
0002
2003
3200
2300
,
3020
0000
0230
0000
0301
0100
0010
1000
,
0100
1000
0001
0100
0010
1000
0001
0010
,
0200
0000
0000
0000
,
0300
0000
0000
0000
1000
0001
0100
0010
,
0100
0001
0010
0100
1000
0001
0100
0010
,
2000
0000
0000
0000
,
3000
0000
0000
0000
0001
1000
0100
0010
,
0001
0000
0001
0010
0001
0010
0100
0000
,
0100
1000
0100
1000
0010
0000
0010
0100
,
0000
2002
0000
3003
0001
1000
0001
1000
,
0100
0000
0100
1000
0100
0010
0100
0000
,
0100
0010
0001
0100
0010
1000
0001
0010
,
0001
0100
0010
1000
0000
0000
0000
0000
,
0000
0000
0000
0000
,
0000
1000
0001
0010
,
0001
0000
0100
1000
0010
1000
0200
0000
,
0000
0000
0000
0300
,
0000
1000
0001
0010
,
0001
0100
0010
1000
0010
1000
0200
0000
,
0000
0000
0000
0300
,
0000
0000
1000
0001
0010
0000
0001
0010
,
0001
0000
1000
0100
1000
0000
0001
0100
,
0010
1000
0100
0010
0001
0100
0010
1000
,
0001
0000
1000
0000
0001
0000
0010
0001
,
0010
0000
1000
0100
1000
0000
0001
0100
,
0001
0000
0000
0001
1000
0001
0100
0010
,
1000
0001
0010
0001
0100
0010
1000
0001
,
0010
0000
1000
0100
1000
0000
0001
0100
,
0001
0000
1000
0001
1000
0000
0001
0000
,
0010
0100
0010
0001
,
0100
0000
0010
0000
1000
0000
0001
0010
,
0100
1000
0001
0000
0001
1000
0100
0010
,
0001
0000
0000
0001
1000
0001
0100
0010
,
1000
0100
1000
0010
0100
0010
1000
0001
,
0020
0031
0000
0000
,
1000
0101
0000
0000
,
0001
1100
0000
0000
,
0000
1001
0000
0110
,
0000
0000
1000
0001
0100
0000
0101
0000
0000
0000
0000
0000
0000
0000
0000
0000
,
0000
0000
0001
0100
0010
0000
1010
0000
0000
0000
0000
0000
0000
0000
0000
0000
,
1000
0001
0100
0010
1000
0000
0000
0000
0001
0000
0000
0000
0010
0000
0000
0000
,
0001
0000
0001
0100
0010
1000
0001
0010
,
0001
0100
0010
0100
0010
0100
0010
0000
,
0100
0001
0100
0001
0010
0000
0001
0010
,
0100
0010
0001
0100
0010
1000
0001
0010
,
0001
0100
0010
1000
0001
0010
0001
0100
,
0010
1000
0100
1000
0001
0100
0010
1000
,
0100
1000
0010
0100
0001
1000
0010
0100
,
0020
0000
0130
0010
1000
0001
0010
0000
,
0001
0010
0100
1000
0100
0000
1000
0100
,
0010
0001
0010
0001
0100
0010
0100
0010
,
1000
0001
0020
0000
0000
0000
0000
0000
,
0002
0000
0003
0000
0000
0000
0000
0001
,
1030
0010
0200
0000
0000
0000
0000
0000
,
0000
0000
0020
0000
0330
0001
1000
0100
,
1000
0001
0200
0000
0000
0000
0000
0000
,
0020
0000
0030
0000
0000
0000
0310
1000
,
0010
1000
0200
0000
0000
0000
0000
0000
,
0020
0030
0000
0000
,
0310
0100
0001
1000
0002
0000
0020
0000
,
0030
0000
0000
0003
,
1001
0000
0001
1000
0001
0100
0001
1000
,
0001
0010
0001
1000
0001
0100
0001
1000
,
0001
1000
0100
0010
0001
1000
0001
1000
,
0100
1000
0001
1000
0001
1000
0100
1000
,
0100
0010
0100
1000
0001
1000
0100
0010
,
0001
0010
0100
1000
0001
0100
0010
0100
,
0010
1000
0100
1000
0001
0010
0002
0103
,
0010
1000
0001
0010
0001
0100
0010
1000
,
0001
0010
0001
0100
0020
1030
0001
0010
,
0001
0010
0100
1000
0001
0100
0010
1000
,
0200
0310
0001
0010
0100
1000
2002
0000
,
0000
0000
0000
0000
,
0000
0000
0000
3003
;

//---------------dance-double - ----------------
#NOTES:
     dance-double:
     :
     Challenge:
     10:
     0.713,0.916,0.241,0.277,0.080:
00000000
00000000
00000000
00000000
,
00000000
00000000
00000000
00000000
,
00000000
00000000
00000000
00000000
,
00000000
00000000
00000000
00000000
,
00220000
00000000
00000000
00000000
00000000
00000000
00000000
00000000
00000000
00000000
00000000
00000000
00330000
00000000
00100000
00001000
,
00020000
00000000
00000000
00000000
00000000
00000000
00031000
00100000
,
00020000
00000000
00030000
00000000
00000000
00010000
00100000
00100000
,
00001000
00010000
00000100
00001000
00000010
00000100
00000001
00000010
,
00001100
00000000
00101000
00000000
,
01100000
00000000
00000000
10000000
11000000
00000000
00110000
00000000
,
00011000
00000000
00000000
00000000
00000000
00000000
00000000
00000000
00000000
00000000
00000000
00000000
00000000
00000000
00010000
00001000
,
00100000
00000000
00110000
00000000
00000000
00010000
01000000
00100000
10000000
00000000
11000000
00000000
00000000
10000000
00010000
00100000
,
00000000
00100000
00001000
00010000
00000100
00001000
00000001
00000100
00000010
00000000
00000100
00000000
00000010
00000000
00001000
00000000
,
00000100
00000000
00000100
00010000
00001000
00100000
00010000
01000000
,
00100000
10000000
01000000
00100000
00010000
00000000
00001000
00100000
,
00010000
01000000
00001000
00010000
00000010
00000100
00000001
00000010
,
00000001
00000010
00000100
00001000
00000001
00000100
00000001
00000010
,
00000100
00010000
00001000
00100000
00010000
01000000
00100000
10000000
,
00010000
00100000
00010000
00000000
00100000
01000000
10000000
00010000
,
01000000
00000000
00100000
10000000
00010000
00100000
00010000
00000100
,
00001000
00000010
00000100
00000001
00000010
00000000
00000001
00001000
,
00000100
00000000
00001100
00000000
00000100
00010000
00001000
00100000
,
00010000
01000000
00100000
10000000
01000000
10000000
00010000
00100000
,
00020000
00230000
00302000
00023000
,
00030020
00000000
00000230
00000000
00000310
00000100
00000010
00000100
,
00000010
00000100
00000010
00000100
00000010
00000100
00000010
00001000
,
00000200
00000000
00000000
00000000
,
00000300
00000000
00000000
00000000
00000100
00001000
00000100
00001000
,
00000100
00001000
00000100
00001000
00000100
00010000
00001000
01000000
,
00200000
00000000
00000000
00000000
,
00300000
00000000
00000000
00000000
10000000
00010000
00100000
00001000
,
00010000
00000000
00000100
00001000
00000010
00010000
00001000
00000000
,
00010000
00100000
00001000
00010000
00000100
00000000
00000100
00020000
,
00000000
00002000
00000000
00033000
00011000
00000000
00010000
01000000
,
00100000
00000000
10100000
00000000
10000000
00010000
00100000
00000000
,
00101000
00000000
00001000
00100000
00010000
00000000
00110000
00000000
,
00100000
00001000
00010000
00000000
00002020
00000000
00000000
00000000
,
00000000
00000000
00000000
00003030
,
00000000
00000000
00000001
00000100
00000010
00001000
00000100
00000010
,
00000001
00000100
00000010
00001000
00000100
00001000
00000200
00000000
,
00000000
00000000
00000000
00000300
,
00000000
00000000
00010000
00001000
00100000
01000000
00100000
00010000
,
01000000
00100000
10000000
01000000
00100000
00010000
00200000
00000000
,
00000000
00000000
00000000
00300000
,
00000000
10000000
00010000
00100000
,
00001000
00010000
00000100
00001000
,
00000010
00000000
00000100
00000000
00000001
00000000
00000001
00000010
,
00000100
00001000
00000100
00010000
00001000
00100000
00010000
00000000
,
10000000
00010000
01000000
00010000
,
10000000
01000000
00000000
00000000
10000000
00010000
01000000
00010000
,
00100000
00001000
01000000
00100000
10000000
01000000
00200000
00000000
,
00301000
00001000
00100000
01000000
,
10000000
00010000
01000000
00010000
,
00100000
00001000
00010000
00000100
,
00001000
00000010
00000100
00000001
,
00000010
00000001
00001000
00001000
,
00000010
00001000
00000000
00001000
00000100
00010000
00001000
00100000
,
00010000
01000000
00100000
10000000
01000000
00100000
00001000
00010000
,
00000100
00001000
00000010
00000000
00000000
00000000
00000000
00000000
,
00001010
00110000
00000000
00000000
,
10010000
00002002
00003003
00000000
,
00000000
00011000
00000000
00100020
,
00000000
00020030
00000000
00000000
,
00000000
00030200
00000000
00000000
,
00000300
00000000
00010000
00001000
00100000
00010000
01000000
00100000
,
10000000
00000000
00010000
00000000
00100000
00010000
00100000
00001000
00010000
00000010
00000100
00000001
00000010
00000100
00001000
00000100
,
00000010
00000001
00000100
00000010
00001000
00000000
00000100
00000000
00010000
00000000
00001000
00000000
00100000
00000000
00000000
00000000
,
00010000
00100000
00001000
00010000
00000100
00000000
00001000
00000001
,
00000100
00000001
00000100
00000010
00001000
00000100
00000010
00000100
,
00001000
00000001
00000100
00000010
00001000
00000100
00001000
00000001
,
00000010
00000001
00000100
00000010
00000100
00001000
00000001
00000010
,
00000001
00000100
00000010
00001000
00000001
00000100
00000010
00001000
,
00000200
00000000
00010300
00001000
00100000
00010000
01000000
00000000
,
00010000
10000000
01000000
10000000
00100000
00000000
01000000
00100000
,
10000000
00010000
00100000
00010000
01000000
00100000
10000000
01000000
,
10000000
00010000
02000000
00000000
03000000
00000000
00000000
00000000
,
00011000
00000000
00000000
00000000
00000000
00000000
00001000
00000100
,
00000010
00000001
00000200
00000000
00000000
00000000
00000300
00000000
,
00000000
00000000
00101000
00000000
00001000
01000000
00100000
10000000
,
01000000
00100000
00020000
00000000
00000000
00000000
00030000
00000000
,
00001010
00000000
00000000
00000000
00000000
00000000
00000001
00000100
,
00000010
00001000
00000200
00000000
00000000
00000000
00000300
00000000
,
01010000
00000000
00000000
00000000
,
10000000
00010000
00100000
00001000
00010000
00000000
00001100
00000000
,
00000000
00000000
00000000
00000000
,
00000010
00000000
00000100
00000010
00001000
00000100
00010000
00001000
,
00100000
00010000
01000000
00100000
10000000
01000000
00100000
00001000
,
00010000
00000010
00000100
00001000
00000001
00000010
00000001
00000100
,
00000010
00001000
00000100
00010000
00100000
00010000
01000000
00100000
,
10000000
01000000
00100000
01000000
10000000
00010000
00100000
00001000
,
00010000
00000010
00000100
00000001
00000010
00000100
00001000
00000001
,
00000100
00000010
00001000
00000100
00010000
00001000
01000000
00100000
,
10000000
01000000
10000000
00010000
00100000
00001000
00010000
00000100
,
00001000
00000001
00000100
00000010
00001000
00000100
00100000
00010000
,
00000100
00001000
00000001
00001000
00000100
00000010
00000001
00000010
,
00000100
00001000
00010000
00000100
00010000
00001000
00022000
00000000
,
00000000
00000000
00000000
00000000
,
00000000
00000000
00000000
00033000
;

//---------------dance-single - ----------------
#NOTES:
     dance-single:
     :
     Medium:
     8:
     0.436,0.605,0.232,0.259,0.000:
0000
0000
0000
0000
,
0000
0000
0000
0000
,
0000
0000
0000
0000
,
0000
0000
0000
0000
,
2002
0000
0000
0000
3003
0000
0000
0001
,
0200
0000
0000
0310
,
0100
0000
0000
0010
,
0010
1000
0010
0000
0001
0100
0001
0000
,
1001
0000
1100
0000
,
0011
0000
0101
1100
,
0101
0000
0000
0000
0000
0000
0000
0010
,
0100
0010
0000
0010
0100
0010
0000
0010
,
1000
0010
1000
0000
1000
0000
0100
0000
,
0010
0001
0010
0100
,
0001
0100
0010
0100
,
0010
1000
0010
0100
,
0010
1000
0001
1000
,
0001
0100
0001
0010
,
0001
0100
0010
0100
,
0010
1000
0100
1000
,
0100
0010
0001
0010
,
0100
1000
0001
0100
,
0001
0100
0010
1000
,
0002
0000
0000
0000
,
0003
0000
0010
0100
,
0001
1000
0001
0100
,
0001
0100
0001
0000
0000
0000
0000
0000
,
0000
0000
1000
0001
,
0010
0001
0100
0010
,
0010
1000
0001
0000
0000
0000
0000
0000
,
0000
0000
1100
0000
,
0001
0101
0000
0100
,
0110
0000
0000
0000
0010
0000
1000
0001
,
0000
0011
0000
0000
0011
0000
0000
0000
,
1000
0101
0000
0010
,
1001
0000
1000
0011
,
0000
0001
1010
0000
,
0000
0000
0000
0000
,
0000
1000
0001
0010
,
0001
0000
0100
0000
0010
0000
1000
0001
,
0020
0000
0000
0000
,
0030
0001
0010
0100
,
1000
0000
0001
0000
0100
0000
0010
1000
,
0002
0000
0000
0000
,
0000
2003
3000
1000
,
0200
0300
0100
0020
,
0030
0010
0002
0003
,
0001
1001
0000
0200
,
0300
0100
0002
0003
,
0001
2000
3000
1000
,
0020
0030
0010
0110
,
0000
0020
0030
0010
,
2000
3000
1000
0002
,
0003
0001
0200
0300
,
0100
0110
0000
0002
,
0003
0001
0020
0030
,
0020
0130
1000
0100
,
0010
0001
1000
0002
,
0000
0013
0000
0000
,
1010
0101
0000
0000
,
0101
1001
0000
0000
,
0000
1010
0000
1100
,
0000
1000
0100
1000
0000
0000
0000
0000
,
0000
0001
1000
0100
0000
0000
0000
0000
,
0000
1000
0100
0010
,
0001
0000
1000
0100
0010
0001
1000
0100
,
0010
0001
1000
0000
0001
0000
0100
0000
,
0001
0100
0010
0100
,
0010
1000
0001
0010
,
0001
0100
0010
1000
,
0001
0010
0001
0100
,
0010
1000
0100
1000
,
0020
1030
0001
0010
,
0001
1000
0100
0010
,
0100
1000
0001
0010
,
0001
0200
0000
0000
,
0300
0000
0000
0001
,
1000
0200
0000
0000
,
0000
0300
0000
1000
,
0010
0200
0000
0000
,
0300
0000
0000
0010
,
1000
0002
0000
0000
,
0003
0000
0000
0000
,
1000
0001
0200
0000
,
0300
0000
0000
0000
,
0001
1001
0001
0100
,
0010
1000
0100
1000
,
0001
0100
0010
1000
,
0100
1000
0001
0100
,
0010
1000
0001
0010
,
0001
0100
0010
1000
,
0001
0010
0001
0100
,
0010
1000
0001
0010
,
1000
0001
0100
0010
,
1000
0000
0001
1000
0001
1000
0001
1000
,
0001
0100
0010
1000
0100
0010
0002
0000
,
0000
0000
0000
0003
;

//---------------dance-single - ----------------
#NOTES:
     dance-single:
     :
     Easy:
     6:
     0.323,0.693,0.223,0.223,0.000: // measure 1
0000
0000
0000
0000
,  // measure 2
0000
0000
0000
0000
,  // measure 3
0000
0000
0000
0000
,  // measure 4
0000
0000
0000
0000
,  // measure 5
0101
0000
0000
0000
,  // measure 6
2000
0000
0000
0000
,  // measure 7
3010
0000
0000
0000
,  // measure 8
0010
1000
0100
0010
,  // measure 9
0011
0000
1100
0000
,  // measure 10
0101
0000
1010
0001
,  // measure 11
2002
0000
0000
0000
3003
0000
0000
1000
,  // measure 12
0000
0000
0000
1000
0000
0000
0000
1000
,  // measure 13
0000
0001
0100
0000
,  // measure 14
0001
0000
0010
0000
,  // measure 15
0001
0000
0100
0000
,  // measure 16
0010
1000
0001
0000
,  // measure 17
1000
0000
0001
0000
,  // measure 18
0100
0000
0010
0000
,  // measure 19
1000
0100
1000
0000
,  // measure 20
0100
0000
1000
0000
,  // measure 21
0100
0000
0010
0000
,  // measure 22
0001
0000
0100
0001
,  // measure 23
0100
0000
0000
0000
0001
0000
0000
2000
,  // measure 24
0002
0000
0000
0000
,  // measure 25
3003
0000
1000
0001
,  // measure 26
0100
0001
0010
0001
,  // measure 27
0200
0000
0000
0300
,  // measure 28
0000
0000
0001
1000
,  // measure 29
0100
1000
0010
1000
,  // measure 30
0200
0000
0000
0000
,  // measure 31
0300
0000
1000
0000
,  // measure 32
0000
0001
0000
0000
,  // measure 33
0101
0000
0000
0000
0000
0000
0001
1000
,  // measure 34
0000
0001
0000
0000
1000
0000
0000
0000
,  // measure 35
0000
0001
0000
0000
,  // measure 36
0100
0000
0000
0010
,  // measure 37
0000
0000
1001
0000
,  // measure 38
0000
0000
0000
0000
,  // measure 39
0000
1000
0001
0100
,  // measure 40
0001
0100
0001
0020
,  // measure 41
0000
0000
0030
0000
,  // measure 42
0000
0001
0100
0001
,  // measure 43
0100
0001
0100
0020
,  // measure 44
0000
0000
0000
0030
,  // measure 45
0000
0110
0000
1001
,  // measure 46
0000
0101
0000
0001
,  // measure 47
0000
0100
0000
0010
,  // measure 48
0000
0100
0010
1000
,  // measure 49
0000
1001
0000
1100
,  // measure 50
0000
0001
0000
1000
,  // measure 51
0000
0001
0000
0101
,  // measure 52
0100
0010
0000
0100
,  // measure 53
0000
0010
0000
0010
,  // measure 54
1000
0001
0000
1000
,  // measure 55
0000
0001
0100
0010
,  // measure 56
0000
0110
0000
0001
,  // measure 57
0000
1000
0000
0001
,  // measure 58
0000
0100
0010
1000
,  // measure 59
0000
1001
0000
0000
,  // measure 60
0001
0001
0000
0000
,  // measure 61
0010
0100
0000
0000
,  // measure 62
0000
1010
0000
0010
,  // measure 63
0000
0220
0000
0330
,  // measure 64
0000
0202
0000
0303
,  // measure 65
0000
2100
3100
0012
,  // measure 66
0013
0102
0103
1020
,  // measure 67
1030
0001
0000
1000
,  // measure 68
0000
0001
0000
0100
,  // measure 69
0000
0010
0000
1000
,  // measure 70
0000
0001
0000
0010
,  // measure 71
0000
0001
0000
0100
,  // measure 72
0000
0010
1000
0001
,  // measure 73
1000
0001
0000
0100
,  // measure 74
0000
0010
0000
0100
,  // measure 75
0000
0010
0000
1000
,  // measure 76
0000
2002
0000
0000
,  // measure 77
3003
0000
0000
0001
,  // measure 78
0100
0020
0000
0000
,  // measure 79
0000
0030
0000
0010
,  // measure 80
1000
0002
0000
0000
,  // measure 81
0003
0000
0000
0001
,  // measure 82
1000
0200
0000
0000
,  // measure 83
0300
0000
0000
0000
,  // measure 84
1000
0010
0200
0000
,  // measure 85
0300
0000
0000
0000
,  // measure 86
0010
0100
0010
1000
,  // measure 87
0000
0010
0100
0010
,  // measure 88
0000
0001
1000
0001
,  // measure 89
0000
0100
0001
0100
,  // measure 90
0000
0010
0100
0010
,  // measure 91
0000
1000
0001
1000
,  // measure 92
0000
0001
0100
0001
,  // measure 93
0100
0010
0100
0010
,  // measure 94
1000
0100
0010
0001
,  // measure 95
0010
0100
1000
0001
,  // measure 96
0100
0010
1000
2002
,  // measure 97
0000
0000
0000
0000
,  // measure 98
3003
0000
0000
0000
;

//---------------dance-single - ----------------
#NOTES:
     dance-single:
     :
     Beginner:
     3:
     0.198,0.346,0.089,0.045,0.000: // measure 1
0000
0000
0000
0000
,  // measure 2
0000
0000
0000
0000
,  // measure 3
0000
0000
0000
0000
,  // measure 4
0000
0000
0000
0000
,  // measure 5
1001
0000
0000
0000
,  // measure 6
0010
0000
0000
0000
,  // measure 7
0100
0000
0000
0000
,  // measure 8
0001
0000
1000
0000
,  // measure 9
0110
0000
0010
0000
,  // measure 10
0010
0000
0100
0100
,  // measure 11
1001
0000
0000
0000
,  // measure 12
0010
0000
0010
0000
,  // measure 13
0010
0000
0100
0000
,  // measure 14
0000
0000
0010
0000
,  // measure 15
0000
0000
1000
0000
,  // measure 16
0000
0000
0001
0000
,  // measure 17
0000
0000
1000
0000
,  // measure 18
0000
0000
0010
0000
,  // measure 19
0100
0000
0010
0000
,  // measure 20
0000
0000
1000
0000
,  // measure 21
0000
0000
0001
0000
,  // measure 22
0000
0000
0100
0000
,  // measure 23
0100
0000
0010
0000
,  // measure 24
2000
0000
0000
0000
,  // measure 25
3000
0000
0001
0000
,  // measure 26
1000
0000
0001
1000
,  // measure 27
0001
0000
0000
0000
,  // measure 28
0000
0000
0100
0000
,  // measure 29
0100
0000
0100
0010
,  // measure 30
0100
0000
0000
0000
,  // measure 31
0000
0000
0010
0000
,  // measure 32
0000
0100
0000
0000
,  // measure 33
0010
0000
0000
1001
,  // measure 34
0000
0000
0100
0000
,  // measure 35
0000
0010
0000
0000
,  // measure 36
1000
0000
0000
0001
,  // measure 37
0000
0000
1001
0000
,  // measure 38
0000
0000
0000
0000
,  // measure 39
0000
0100
0000
0100
,  // measure 40
0000
0100
0000
0100
,  // measure 41
0000
0000
0000
0000
,  // measure 42
0000
0010
0000
0010
,  // measure 43
0000
0010
0000
0010
,  // measure 44
0000
0000
0000
0000
,  // measure 45
0000
1000
0000
1000
,  // measure 46
0000
0001
0000
0000
,  // measure 47
0000
0001
0000
1000
,  // measure 48
0000
0001
0000
0100
,  // measure 49
0000
0100
0000
0010
,  // measure 50
0000
0000
0000
0010
,  // measure 51
0000
1000
0000
0100
,  // measure 52
0000
1000
0000
1000
,  // measure 53
0000
1000
0000
0000
,  // measure 54
0000
0001
0000
1000
,  // measure 55
0000
0001
0000
0100
,  // measure 56
0000
0100
0000
0100
,  // measure 57
0000
0000
0000
0010
,  // measure 58
0000
1000
0000
0010
,  // measure 59
0000
1001
0000
0000
,  // measure 60
0100
0100
0000
0000
,  // measure 61
0001
1001
0000
0000
,  // measure 62
0000
0110
0000
0000
,  // measure 63
0000
0020
0000
0030
,  // measure 64
0000
0020
0000
0030
,  // measure 65
0000
0100
0000
0010
,  // measure 66
0000
1000
0001
0010
,  // measure 67
0100
1000
0000
1000
,  // measure 68
0000
0001
0000
0001
,  // measure 69
0000
0100
0000
0010
,  // measure 70
0000
1000
0000
0010
,  // measure 71
0000
0100
0000
0001
,  // measure 72
0000
1000
0000
0001
,  // measure 73
0000
1000
0000
1000
,  // measure 74
0000
0001
0000
0100
,  // measure 75
0000
0010
0000
1000
,  // measure 76
0000
0100
0000
0000
,  // measure 77
0000
0000
0000
0000
,  // measure 78
0000
1000
0000
0000
,  // measure 79
0000
0000
0000
0010
,  // measure 80
0000
0010
0000
0000
,  // measure 81
0000
0000
0000
0100
,  // measure 82
0000
0100
0000
0000
,  // measure 83
0000
0000
0000
0000
,  // measure 84
0000
0001
0000
0000
,  // measure 85
0000
0000
0000
0000
,  // measure 86
0000
1001
0000
0010
,  // measure 87
0000
0010
0000
0010
,  // measure 88
0000
0010
0000
0010
,  // measure 89
0000
0100
0000
0010
,  // measure 90
0000
1000
0000
0001
,  // measure 91
0000
0010
0000
0001
,  // measure 92
0000
0100
0000
0010
,  // measure 93
0000
1000
0000
0001
,  // measure 94
0000
0100
0000
0010
,  // measure 95
0000
1000
0000
0001
,  // measure 96
0000
0100
0000
2002
,  // measure 97
0000
0000
0000
0000
,  // measure 98
3003
0000
0000
0000
;
