#TITLE:Troposphere;
#SUBTITLE:;
#ARTIST:kobo;
#TITLETRANSLIT:;
#SUBTITLETRANSLIT:;
#ARTISTTRANSLIT:;
#CREDIT:;
#BANNER:bn.png;
#BACKGROUND:bg.png;
#LYRICSPATH:;
#CDTITLE:;
#MUSIC:Troposphere.ogg;
#OFFSET:-0.207;
#SAMPLESTART:36.540;
#SAMPLELENGTH:12.000;
#SELECTABLE:YES;
#BPMS:0.000=165.000;
#STOPS:;
#BGCHANGES:;

//---------------dance-single - ----------------
#NOTES:
     dance-single:
     :
     Hard:
     7:
     0.379,0.535,0.083,0.281,0.000: // measure 1
0000
0000
0000
0000
,  // measure 2
0000
0000
0000
0000
,  // measure 3
0000
0000
0000
0000
,  // measure 4
0000
0000
0000
0000
,  // measure 5
0000
0000
0000
0000
,  // measure 6
0000
0000
0000
0000
,  // measure 7
0000
0000
0000
0000
,  // measure 8
0000
0000
0000
0000
,  // measure 9
0000
0000
0000
0000
,  // measure 10
1000
0000
0001
0010
0100
0000
0010
0001
,  // measure 11
0000
0001
0100
0000
1010
0000
1000
0001
,  // measure 12
0010
0000
0100
1000
0010
0000
0100
0001
,  // measure 13
0000
0001
0010
0000
0010
0100
1000
0010
,  // measure 14
0100
0000
0010
1000
0100
0000
1000
0001
,  // measure 15
0000
0001
0100
0000
0101
0000
0001
1000
,  // measure 16
0100
0000
1000
0100
1000
0000
1000
0010
,  // measure 17
0000
0100
0001
0000
1000
0000
0001
0000
,  // measure 18
0021
0000
0000
0230
0000
0000
2300
0000
,  // measure 19
0020
0000
0000
0000
3030
0000
0010
0100
,  // measure 20
0001
0001
0001
0001
,  // measure 21
0001
0000
0002
0200
0000
0000
0303
0000
,  // measure 22
0020
0000
0000
0230
0000
0000
2300
0000
,  // measure 23
0200
0000
0000
3300
0000
0100
0010
1000
,  // measure 24
0001
0001
0001
0001
,  // measure 25
0001
0000
1000
0010
0000
0000
0000
0000
,  // measure 26
1001
0001
0010
0000
0010
0100
0000
0100
,  // measure 27
0000
0100
1000
0010
0100
0000
0001
1000
,  // measure 28
0100
1000
0010
0000
0100
0001
0000
0010
,  // measure 29
0000
0100
1000
0010
0100
0001
0010
0001
,  // measure 30
1000
0001
0010
0000
0001
0000
0001
0100
,  // measure 31
0000
0100
0010
0100
0001
0000
0001
1000
,  // measure 32
0100
1000
0000
0010
0100
0000
0100
0001
,  // measure 33
0000
0001
1000
0100
0010
0100
1000
0001
,  // measure 34
0010
0100
0010
0001
0010
0100
0001
0001
,  // measure 35
0100
0010
0000
0100
0000
0100
0000
0010
,  // measure 36
1000
0001
0010
0100
0000
0100
1000
0010
,  // measure 37
0100
0001
1000
0001
0000
0001
1000
0010
,  // measure 38
1000
0100
1000
0000
1000
0100
0000
0100
,  // measure 39
0000
0100
0010
0001
1000
0001
0100
0001
,  // measure 40
0010
0000
0010
0100
0000
0100
0000
0100
,  // measure 41
1000
0010
0100
0001
0010
0000
0000
0000
,  // measure 42
2002
0000
0000
0000
,  // measure 43
0000
0000
0000
0000
,  // measure 44
0000
0000
0000
0000
,  // measure 45
0000
0000
0000
0000
,  // measure 46
3003
0000
0000
0000
,  // measure 47
0000
0000
0000
0000
,  // measure 48
0000
0000
0000
0000
,  // measure 49
0000
0000
0000
0000
,  // measure 50
0010
1000
0010
0010
,  // measure 51
0100
0001
0010
0010
,  // measure 52
0100
1000
0010
0100
,  // measure 53
0001
0001
1000
1000
,  // measure 54
0001
0100
0010
0010
,  // measure 55
1000
0010
0100
0100
,  // measure 56
0001
1000
0100
0010
,  // measure 57
0001
0010
0100
1000
,  // measure 58
1020
0000
0000
0230
0000
0000
0302
0000
,  // measure 59
2003
0000
3001
0000
0100
0001
0000
0100
,  // measure 60
0001
1000
0000
0010
0000
1010
0000
1010
,  // measure 61
0000
0101
0000
0101
0000
0001
1000
0000
,  // measure 62
0200
0000
0000
2300
0000
0000
3020
0000
,  // measure 63
0230
0000
0001
0000
0301
1000
0010
0100
,  // measure 64
0001
0100
0000
0010
0000
1000
0000
0001
,  // measure 65
0000
0100
0000
0010
0000
1000
0000
0100
,  // measure 66
2000
0000
0000
3020
0000
0000
0230
0000
,  // measure 67
0002
0000
0000
0303
,  // measure 68
0001
0100
0000
0010
0000
1000
0000
1000
,  // measure 69
0000
0001
0000
0001
0000
1000
0000
0001
,  // measure 70
0200
0000
0000
0320
0000
0000
2030
0000
,  // measure 71
3200
0000
1000
0000
1300
0100
0010
0001
,  // measure 72
0010
0100
0000
0001
0000
0100
0000
0010
,  // measure 73
0000
1000
0000
0001
0000
0100
0010
1000
,  // measure 74
0200
0000
0000
0000
,  // measure 75
0320
0000
0000
0000
,  // measure 76
0032
0000
0000
0000
,  // measure 77
0203
0000
0000
0000
,  // measure 78
0320
0000
0000
0000
,  // measure 79
0000
0000
0000
0000
,  // measure 80
2030
0000
0000
0000
,  // measure 81
0000
0000
0000
0000
0000
0000
0000
3000
;

//---------------dance-single - ----------------
#NOTES:
     dance-single:
     :
     Medium:
     6:
     0.301,0.369,0.091,0.198,0.000: // measure 1
0000
0000
0000
0000
,  // measure 2
0000
0000
0000
0000
,  // measure 3
0000
0000
0000
0000
,  // measure 4
0000
0000
0000
0000
,  // measure 5
0000
0000
0000
0000
,  // measure 6
0000
0000
0000
0000
,  // measure 7
0000
0000
0000
0000
,  // measure 8
0000
0000
0000
0000
,  // measure 9
0000
0000
0000
0000
,  // measure 10
0010
0010
0100
0010
,  // measure 11
1000
0001
0000
1000
,  // measure 12
0001
0001
0100
0010
,  // measure 13
1000
0010
0000
0000
,  // measure 14
0010
0100
0001
0100
,  // measure 15
0010
1000
1000
0000
,  // measure 16
1000
0001
0100
0001
,  // measure 17
0010
0000
0000
0000
,  // measure 18
1001
0000
0000
0001
0000
0000
0100
0000
,  // measure 19
0020
0000
0030
0100
,  // measure 20
0010
0010
0010
0010
,  // measure 21
0010
0000
0010
0200
0000
0000
0300
0000
,  // measure 22
0010
0000
0000
1000
0000
0000
0001
0000
,  // measure 23
2002
0000
3003
0001
,  // measure 24
0100
0100
0010
1000
,  // measure 25
0001
0000
0100
0020
0000
0000
0030
0000
,  // measure 26
0100
0000
0010
0000
0010
1000
0010
0000
,  // measure 27
1000
0000
0001
0000
0100
0001
0100
0000
,  // measure 28
0001
0000
0010
0000
0100
1000
0100
0000
,  // measure 29
1000
0000
0100
0000
0010
0100
0010
0000
,  // measure 30
0001
0000
0010
0000
0100
0000
0010
0100
,  // measure 31
0010
0000
0100
0000
0010
0000
0001
0100
,  // measure 32
0010
0000
0100
0000
0010
0000
0010
1000
,  // measure 33
0001
0000
1000
0000
0001
0000
0100
0001
,  // measure 34
0100
0010
0010
0100
,  // measure 35
0010
1000
0000
0001
0000
1000
0001
0100
,  // measure 36
0001
0010
0100
0010
,  // measure 37
0100
0010
0000
1000
0000
0010
0100
0010
,  // measure 38
0100
0010
1000
0001
,  // measure 39
1000
0001
0000
0001
0000
0001
1000
0001
,  // measure 40
1000
0001
0100
0010
,  // measure 41
1000
0100
0000
0100
0000
0100
1000
0010
,  // measure 42
0100
0020
0000
0000
,  // measure 43
0000
0230
0000
0000
,  // measure 44
0000
0320
0000
0000
,  // measure 45
0000
0230
0000
0000
,  // measure 46
0000
0002
0000
0000
,  // measure 47
0000
0000
0000
0000
,  // measure 48
0000
0000
0300
0003
0000
0000
0000
0000
,  // measure 49
0000
0000
0000
0000
,  // measure 50
0000
0001
0000
1000
,  // measure 51
0000
0100
0100
1000
,  // measure 52
0010
0100
0000
0010
,  // measure 53
0000
1000
0001
0100
,  // measure 54
0001
0010
1000
0010
,  // measure 55
0000
0010
0001
0100
,  // measure 56
1000
0100
0000
0001
,  // measure 57
0000
0001
0010
0100
,  // measure 58
0000
0000
1100
0000
0000
0110
0000
0000
,  // measure 59
0011
2200
0000
3300
,  // measure 60
0000
0000
0010
0000
0000
0100
0000
0010
,  // measure 61
0000
1000
0000
0001
0000
0010
0000
0001
,  // measure 62
0100
0000
0110
0000
0000
1010
0000
0000
,  // measure 63
0101
2002
0000
0000
,  // measure 64
3003
0000
0001
1000
0000
0100
0000
1000
,  // measure 65
0000
0010
0000
0100
0000
0100
0000
0100
,  // measure 66
0010
1000
0001
0000
1000
0001
0000
0001
,  // measure 67
0100
0220
0000
0000
,  // measure 68
0330
0000
0010
0000
0000
1000
0000
0001
,  // measure 69
0000
0100
0000
0010
0000
1000
0000
0100
,  // measure 70
1000
0010
0200
0000
0000
0010
0000
0000
,  // measure 71
0010
0020
0000
0000
,  // measure 72
0330
0000
0010
1000
0000
0010
0000
1000
,  // measure 73
0000
0100
0000
0010
0000
0001
0000
0010
,  // measure 74
0001
0100
0020
0000
0000
0000
0000
0000
,  // measure 75
0000
0230
0000
0000
,  // measure 76
0000
0302
0000
0000
,  // measure 77
0000
2003
0000
0000
,  // measure 78
0000
0200
0000
0000
,  // measure 79
0000
0000
0000
0000
,  // measure 80
3000
0020
0000
0000
,  // measure 81
0000
0000
0000
0000
,  // measure 82
0000
0330
0000
0000
;

//---------------dance-single - ----------------
#NOTES:
     dance-single:
     :
     Easy:
     4:
     0.196,0.301,0.066,0.091,0.000:
0000
0000
0000
0000
,
0000
0000
0000
0000
,
0000
0000
0000
0000
,
0000
0000
0000
0000
,
0000
0000
0000
0000
,
0000
0000
0000
0000
,
0000
0000
0000
0000
,
0000
0000
0000
0000
,
0000
0000
0000
0000
,
0010
1000
0100
0010
,
0000
0000
0000
0010
,
0100
1000
0010
0100
,
0001
0000
0000
0001
,
1000
1000
0001
0000
,
0000
0000
0000
0010
,
0100
0100
0010
0000
,
0000
0000
0000
0000
,
1001
0000
0000
0001
0000
0000
0100
0000
,
0010
0000
0000
0100
,
0010
0010
0010
0010
,
0010
0000
0010
0200
0000
0000
0300
0000
,
0010
0000
0000
1000
0000
0000
0100
0000
,
0020
0000
0030
0001
,
0010
0010
0010
0010
,
0010
0010
0011
0000
,
0001
0100
0010
0010
,
1000
0010
0100
0100
,
0010
1000
0001
0010
,
0100
0010
0001
0000
,
1001
0000
0010
0000
,
1001
0000
0100
0000
,
0010
0000
1000
0000
,
0001
1000
0100
0000
,
0100
1000
1000
0010
,
0000
0000
0000
0000
,
0100
0001
0001
0010
,
0100
0000
0000
0000
,
0100
1000
0010
0100
,
0010
0000
0000
0000
,
0010
1000
0001
0100
,
0100
0000
0000
0000
,
2002
0000
0000
0000
,
0000
0000
0000
0000
,
0000
0000
0000
0000
,
0000
0000
0000
0000
,
3003
0000
0000
0000
,
0000
0000
0000
0000
,
0000
0000
0000
0000
,
0000
0000
0000
0000
,
0101
0000
0100
0000
,
0100
0000
0100
0000
,
0010
0000
1000
0000
,
0100
0000
0010
0000
,
0010
0000
0100
0000
,
1000
0000
0001
0000
,
0010
0000
0001
0000
,
0100
0000
0010
0000
,
0110
0000
0000
0100
0000
0000
0020
0000
,
2000
0000
3030
0000
,
1000
0000
0000
0100
0000
1000
0000
0010
,
0000
0100
0000
0001
0000
1000
0000
0000
,
0001
0000
0000
0100
0000
0000
0010
0000
,
0200
0000
0000
0000
0000
0300
0000
0000
,
0010
0000
0000
1000
0000
0001
0000
0100
,
0000
0100
0000
0001
0000
1000
0000
0000
,
1100
0000
0000
0010
0000
0000
0001
0000
,
0200
0000
0000
0300
,
0010
0000
0000
0010
0000
1000
0000
0001
,
0000
0010
0000
0001
0000
0100
0000
0000
,
0010
0000
0000
0010
0000
0000
0010
0000
,
0020
0000
0000
0030
,
0100
0000
0010
0000
,
1000
0001
0010
0100
,
0020
0000
0000
0000
,
0000
0000
0000
0000
,
0000
0000
0000
0000
,
0000
0000
0000
0000
,
0002
0000
0000
0000
,
0000
0000
0000
0000
,
0000
0000
0000
0000
,
0000
0000
0000
0000
,
0033
0000
0000
0000
;

//---------------dance-single - ----------------
#NOTES:
     dance-single:
     :
     Beginner:
     1:
     0.070,0.134,0.033,0.008,0.000:
0000
0000
0000
0000
,
0000
0000
0000
0000
,
0000
0000
0000
0000
,
0000
0000
0000
0000
,
0000
0000
0000
0000
,
0000
0000
0000
0000
,
0000
0000
0000
0000
,
0000
0000
0000
0000
,
0000
0000
0000
0000
,
0010
0000
0000
0000
,
0000
0000
0000
0000
,
1000
0000
0000
0000
,
0000
0000
0000
0000
,
0001
0000
0000
0000
,
0000
0000
0000
0000
,
1000
0000
0000
0000
,
0000
0000
0000
0000
,
0110
0000
0000
0000
,
0000
0000
0000
0000
,
0010
0000
0010
0000
,
1000
0000
0001
0000
,
0100
0000
0000
0000
,
0000
0000
0000
0000
,
0010
0000
0010
0000
,
1000
0000
0000
0000
,
1001
0000
0000
0000
,
0001
0000
0000
0000
,
1000
0000
0000
0000
,
0010
0000
0010
0000
,
0100
0000
0000
0000
,
0000
0000
0000
0000
,
0010
0000
0000
0000
,
1000
0000
0000
0000
,
0001
0000
0000
0000
,
0000
0000
0000
0000
,
1000
0000
0000
0000
,
0010
0000
0010
0000
,
0100
0000
0000
0000
,
0000
0000
0000
0000
,
0010
0000
0000
0000
,
1000
0000
1000
0000
,
1001
0000
0000
0000
,
0000
0000
0000
0000
,
0000
0000
0000
0000
,
0000
0000
0000
0000
,
0000
0000
0000
0000
,
0000
0000
0000
0000
,
0000
0000
0000
0000
,
0000
0000
0000
0000
,
0001
0000
0000
0000
,
0000
0000
0000
0000
,
1000
0000
0000
0000
,
1000
0000
0000
0000
,
0010
0000
0000
0000
,
0000
0000
0000
0000
,
0100
0000
0000
0000
,
0001
0000
0000
0000
,
1001
0000
0000
0000
,
0010
0000
0000
0000
,
0100
0000
0000
0000
,
0000
0010
0000
0000
,
0010
0000
0000
0000
,
1000
0000
0000
0000
,
0001
0000
0000
0000
,
0000
0000
0000
0000
,
0001
0000
0000
0000
,
1000
0000
0000
0000
,
0010
0000
0000
0000
,
0100
0000
0100
0000
,
0100
0000
0000
0000
,
0010
0000
0000
0000
,
1000
0000
0000
0000
,
0001
0000
1000
0000
,
0002
0000
0000
0000
,
0000
0000
0000
0000
,
0000
0000
0000
0000
,
0000
0000
0000
0000
,
0000
0000
0000
0000
,
0000
0000
0000
0000
,
0000
0000
0000
0000
,
0000
0000
0000
0000
0000
0000
0000
0003
;
