#TITLE:Time To Empress;
#SUBTITLE:;
#ARTIST:dj TAKA feat. wac & secret K;
#TITLETRANSLIT:;
#SUBTITLETRANSLIT:;
#ARTISTTRANSLIT:;
#CREDIT:;
#BANNER:bn.png;
#BACKGROUND:bg.png;
#LYRICSPATH:;
#CDTITLE:;
#MUSIC:Time To Empress.mp3;
#OFFSET:0.080;
#SAMPLESTART:12.160;
#SAMPLELENGTH:12.000;
#SELECTABLE:YES;
#BPMS:0.000=148.000;
#STOPS:134.000=1.216
,195.000=1.216
;
#BGCHANGES:;

//---------------dance-single - ----------------
#NOTES:
     dance-single:
     :
     Hard:
     7:
     0.428,0.444,0.075,0.306,0.004:
0000
0000
0000
0000
,
0000
0000
0000
0000
,
0000
0000
0000
0000
,
0000
0000
0000
0000
,
0000
0000
0000
0000
0001
0100
1000
0000
,
1000
0010
0001
0000
0001
0010
0001
0100
,
0020
0000
0130
0000
0010
1000
0100
0000
,
0010
0100
1000
0001
0000
0000
0000
0000
,
0000
0000
0002
0103
,
0200
0000
0310
0000
0010
1000
0100
0000
,
2000
0000
3010
0000
0100
0010
1000
0002
,
0000
0000
0013
0000
0001
0100
0010
1000
,
0001
0010
0100
0000
0010
0010
0010
0001
,
0100
0010
0000
0100
0000
0010
1000
0000
,
0001
0001
0000
1000
0000
1000
0000
0001
,
0000
0001
0100
0010
0000
0000
0000
0020
,
0130
0010
1000
0001
0020
0000
0031
0000
,
2000
0000
3100
0000
1000
0100
0010
0002
,
0000
0010
0013
0000
0002
0000
0100
0000
,
0013
0000
0001
0000
1000
0001
0100
0010
,
1000
0100
0010
0000
0002
0010
0013
0000
,
0001
0000
0100
0000
0010
1000
0100
0000
,
1000
0100
0000
1000
0000
1000
0000
0001
,
0000
0001
0100
0010
0000
0100
0000
0020
,
0130
0010
1000
0001
0010
0000
0001
0000
,
0100
0000
0010
0000
0010
1000
0001
0020
,
0000
0001
0031
0010
0001
0100
0000
0101
,
0000
0100
0000
0010
1000
0010
0000
0200
,
1000
0310
0000
0000
0010
0010
1000
0001
,
0010
0001
0100
0010
1000
0000
0001
0100
,
0000
0010
1000
0001
0100
0020
0000
0130
,
0000
0010
1000
0001
0010
0020
0000
0031
,
0000
0001
0100
0010
2000
0000
3002
0000
,
0023
0230
0300
1001
,
0110
0000
1001
0000
0110
0000
0010
1000
,
0100
2000
0000
0100
3100
0000
1000
0010
,
0100
0010
0000
0100
0001
0000
0001
0000
,
1000
0000
0001
0100
0010
0000
0010
0010
,
1000
0001
0010
0002
0000
0013
0000
0001
,
0100
0000
0100
0100
0000
0010
0000
1000
,
0000
0001
0000
0001
0100
0010
0000
0100
,
0000
0020
1030
0001
0010
0001
0200
0000
,
0310
0020
0130
0200
,
0301
0000
0001
0010
0001
0000
0002
0000
,
0103
0200
0310
0010
,
1000
0200
0002
0000
0303
0000
1100
0000
,
0100
0000
0101
0000
0100
0000
0010
1000
,
0001
0010
0001
0000
0100
0000
0020
0000
,
1030
2000
3001
0000
,
0001
0001
1000
1000
,
0001
0100
0000
0010
0000
0010
0100
0000
,
0010
1000
0001
0020
0000
0000
0031
0000
,
0001
0000
0100
0000
1000
0100
0001
0010
,
0001
0001
0010
0000
0010
0100
0000
0100
,
0000
0010
0100
0000
0010
0100
0000
0010
,
0000
1000
0000
0010
0001
1000
0001
0100
,
0000
0100
0000
0020
0130
0010
1000
0001
,
0100
0101
0100
0110
,
0010
1000
0000
0001
0000
0001
1000
0000
,
0100
1000
0010
0200
0000
0000
0310
0000
,
0010
0000
0000
0000
0100
0000
0000
0000
0010
0000
1000
0000
0001
1000
0001
0000
,
1000
0000
0100
0000
1000
0010
0000
0100
,
0000
0010
1000
0000
0001
0010
0000
1000
,
0000
0100
0000
0001
0000
1000
0010
0100
,
0000
0001
0000
0001
0100
0010
2000
0200
,
0000
0000
0000
0000
,
0000
0000
0000
0000
,
3300
0000
0000
0000
;

//---------------dance-single - ----------------
#NOTES:
     dance-single:
     :
     Medium:
     5:
     0.329,0.333,0.108,0.075,0.000:
0000
0000
0000
0000
,
0000
0000
0000
0000
,
0000
0000
0000
0000
,
0000
0000
0000
0000
,
0000
0000
0001
0001
,
1000
0000
1000
0000
0001
1000
0010
0000
,
0202
0303
0001
1000
,
0100
0000
1000
0100
0000
0000
0000
0000
,
0000
0000
0101
0010
,
0101
0010
0001
1000
,
0100
0000
1000
0000
0010
0100
0010
0000
,
0100
0010
1000
1000
,
0001
1000
0001
0100
0001
0000
0001
0000
,
0001
0010
0000
0100
0000
0000
1000
0000
,
0100
1000
0000
0001
0000
0001
0000
1000
,
0000
1000
0001
1000
0000
0000
0000
0001
,
0001
0000
1001
0000
,
0110
0000
0010
1000
,
0100
1000
0010
0000
0100
0000
0010
1000
,
0000
1001
0001
0100
,
0100
0010
1000
0000
1000
0001
0001
0000
,
0100
0010
1000
0100
,
1000
0010
0000
0100
0000
0100
0000
0010
,
0000
0100
0010
1000
0000
0001
0000
1000
,
0100
0000
1000
1000
,
0001
0000
0001
0000
1000
0100
0010
0001
,
0000
0000
0001
0000
0100
0010
0000
0100
,
0000
0010
0000
0010
1000
0001
0000
1000
,
0001
0100
0000
0000
0001
0000
0001
0000
,
1000
0000
1000
0000
0010
0000
1000
0100
,
0000
0000
1000
0000
0100
1000
0000
0011
,
0000
0000
0000
0000
0001
0100
0000
1010
,
0000
0000
1000
0001
,
0100
0010
1001
0200
,
0301
0200
0310
0010
,
0100
0010
1000
0000
0001
0000
1000
0100
,
0010
0002
0000
0000
0013
0000
0001
0000
,
0100
0000
0010
0100
0010
0000
0100
0000
,
0100
0000
0010
1000
0000
0100
0000
0000
,
1000
0000
0010
0010
0000
1000
0000
1000
,
0000
0001
0000
1000
0001
1000
0000
0001
,
0000
0100
0010
0000
1000
0000
0001
0000
,
0000
1000
0000
0010
,
1000
0100
1000
0010
,
0000
0100
0000
0001
,
0010
2200
3300
1000
,
0000
1000
0000
1000
,
0001
0000
0100
0010
1000
0001
0010
0000
,
0010
0000
0001
0100
0010
1000
0100
0000
,
1000
0100
0001
0100
,
1000
0100
0001
0100
,
1000
0010
0100
0010
0000
0000
0100
0000
,
0010
0000
0010
0000
0100
0000
0010
0100
,
0010
0000
1000
0000
0001
1000
0000
0001
,
0000
0000
0100
0000
0010
0100
0000
0010
,
0000
0010
0000
0010
0000
0010
0100
0010
,
0000
0000
0000
1001
1001
0000
0000
0000
,
0001
0010
1000
0010
,
0001
0010
1000
0010
,
0001
0010
0001
0100
0000
0000
0101
0000
,
0100
0000
0010
0000
1000
0100
0010
0001
,
0010
0000
0010
0000
0100
0010
0000
0100
,
0000
0100
1000
0000
1000
0010
0000
1000
,
0000
0001
0000
0100
0000
0100
0010
1000
,
0000
0000
0000
0001
0010
0100
2000
0020
,
0000
0000
0000
0000
,
0000
0000
0000
0000
,
3030
0000
0000
0000
;

//---------------dance-single - ----------------
#NOTES:
     dance-single:
     :
     Easy:
     3:
     0.270,0.305,0.091,0.166,0.000: // measure 1
0000
0000
0000
0000
,  // measure 2
0000
0000
0000
0000
,  // measure 3
0000
0000
0000
0000
,  // measure 4
0000
0000
0000
0000
,  // measure 5
0000
0000
0001
1000
,  // measure 6
0001
0100
0010
2000
,  // measure 7
0200
3300
1000
0010
,  // measure 8
0100
0001
0000
0000
,  // measure 9
0000
0000
0010
0000
,  // measure 10
0010
0000
0010
0100
,  // measure 11
0001
0100
0010
1000
,  // measure 12
0200
1300
0100
1000
,  // measure 13
0010
0110
0010
1000
,  // measure 14
0002
0003
1000
0001
,  // measure 15
0200
0300
0010
0100
,  // measure 16
0010
1000
0001
0000
,  // measure 17
1001
0000
0001
0001
,  // measure 18
1000
1000
0001
0100
,  // measure 19
1000
0100
0001
0010
,  // measure 20
0200
1300
0100
1000
,  // measure 21
0010
0100
0001
1000
,  // measure 22
1001
0000
0010
0100
,  // measure 23
0101
0000
0010
1000
,  // measure 24
0001
0010
0100
1000
,  // measure 25
0100
1000
0010
0010
,  // measure 26
0100
0100
0010
1000
,  // measure 27
0001
0010
0100
0010
,  // measure 28
0001
1000
0001
0000
,  // measure 29
1000
0000
0100
0100
,  // measure 30
1000
0010
0100
0001
,  // measure 31
0010
0100
1000
0000
,  // measure 32
0000
0100
0010
0000
,  // measure 33
0000
0000
0100
0010
,  // measure 34
1000
0001
0110
0010
,  // measure 35
0000
1000
0000
1000
,  // measure 36
0010
0001
0010
1000
,  // measure 37
0100
0100
1000
0100
,  // measure 38
1000
0100
0010
0001
,  // measure 39
0001
0001
0000
1000
,  // measure 40
1000
1000
0000
0001
,  // measure 41
0100
1000
0100
0001
,  // measure 42
0010
0001
0010
0002
,  // measure 43
0000
1000
0000
1000
,  // measure 44
1000
2000
3003
2000
,  // measure 45
0000
0001
0000
0001
,  // measure 46
0001
0002
3003
0020
,  // measure 47
0000
0230
0000
0320
,  // measure 48
0000
2030
0000
3200
,  // measure 49
2300
3020
0230
0301
,  // measure 50
0001
0000
1010
0000
,  // measure 51
0100
0010
1000
0000
,  // measure 52
0001
1000
0100
1000
,  // measure 53
0010
0100
0001
1001
,  // measure 54
0010
0010
0010
0000
,  // measure 55
0100
0100
0010
0000
,  // measure 56
1000
0000
0001
0000
,  // measure 57
0010
0000
0011
1100
,  // measure 58
1001
0000
1000
0000
,  // measure 59
0010
0100
0010
1000
,  // measure 60
0001
0100
0001
1000
,  // measure 61
0010
0010
0010
0110
,  // measure 62
0100
0010
1000
0000
,  // measure 63
0001
1000
0100
0000
,  // measure 64
0100
1000
0010
0100
,  // measure 65
0001
0100
0010
2000
,  // measure 66
0200
0000
0000
0000
,  // measure 67
0000
0000
0000
0000
,  // measure 68
3300
0000
0000
0000
;

//---------------dance-single - ----------------
#NOTES:
     dance-single:
     :
     Beginner:
     1:
     0.117,0.188,0.058,0.000,0.000:
0000
0000
0000
0000
,
0000
0000
0000
0000
,
0000
0000
0000
0000
,
0000
0000
0000
0000
,
0000
0000
0001
0000
,
0001
0000
1000
1000
,
1000
0000
0010
0000
,
0100
0000
0000
0000
,
0000
0000
0010
0000
,
0000
0000
1000
0000
,
0000
0000
0001
0000
,
1000
0000
0010
0010
,
0010
0000
0100
0000
,
0000
0000
0010
0000
,
0000
0000
1000
0000
,
1000
0000
0000
0000
,
1001
0000
0010
0000
,
0000
0000
1000
0000
,
0000
0000
0100
0000
,
0000
0000
0010
0000
,
0001
0000
0100
0000
,
0000
0000
0010
0000
,
0000
0000
1000
0000
,
0001
0000
0000
0000
,
0110
0000
0010
0010
,
0010
0000
1000
0000
,
0001
0000
0100
0000
,
0001
0000
0010
0000
,
0110
0000
0100
0100
,
0100
0000
1000
0000
,
0010
0000
0100
0000
,
0000
0000
0100
0000
,
0000
0000
0010
0000
,
1000
0000
1001
0001
,
0000
0001
0000
0100
,
0000
0000
0000
0010
,
0000
0000
0000
1000
,
1000
1000
0000
0001
,
0000
0000
0000
1000
,
0000
0000
0000
0100
,
0000
0100
0000
0000
,
0000
0110
0000
0010
,
0000
0000
0000
0001
,
0000
0000
0000
1000
,
0000
0000
0000
0100
,
0000
0100
0000
0100
,
0000
0000
0000
1000
,
0000
0000
0000
0010
,
0000
0100
0000
1001
,
0001
0000
1000
0000
,
0010
0000
0000
0000
,
0100
0000
0000
0000
,
0010
0000
1000
0000
,
0100
0000
0000
0000
,
0010
0000
0000
0000
,
0001
0000
1000
0000
,
0000
0000
0110
0000
,
0010
0000
1000
0000
,
0001
0000
0000
0000
,
1000
0000
0000
0000
,
0001
0000
0000
0000
,
1000
0000
0000
0000
,
0010
0000
0000
0000
,
0100
0000
0001
0000
,
0000
0000
0010
0010
;
