#TITLE:The World's Smallest Giant;
#SUBTITLE:;
#ARTIST:Another Soundscape;
#TITLETRANSLIT:;
#SUBTITLETRANSLIT:;
#ARTISTTRANSLIT:;
#CREDIT:Pandemonium X;
#BANNER:bn.png;
#BACKGROUND:bg.png;
#LYRICSPATH:;
#CDTITLE:PandemiXium-cdtitle.png;
#MUSIC:The World's Smallest Giant.mp3;
#OFFSET:-0.069;
#SAMPLESTART:30.660;
#SAMPLELENGTH:12.000;
#SELECTABLE:YES;
#BPMS:0.000=95.000;
#STOPS:;
#BGCHANGES:;

//---------------dance-single - ----------------
#NOTES:
     dance-single:
     :
     Hard:
     6:
     0.317,0.352,0.194,0.154,0.016:
0000
0000
0000
0000
,
0000
0000
0000
0000
,
0000
0000
0000
0000
,
1000
1000
0001
0001
,
0100
0001
0010
0001
,
0100
0000
0000
0000
0010
0000
0000
0100
0010
0000
0000
0000
1000
0001
0010
0001
,
0100
0001
0100
0010
1000
0100
2000
0000
,
0000
0100
0000
3010
0000
0010
1000
0010
,
0100
0010
2000
0000
0000
0001
0001
3001
,
0000
0001
0010
0001
0100
0010
2000
0000
,
0000
0100
0000
3010
0000
0010
0100
0010
,
1000
0001
0020
0000
0000
0001
0001
0031
,
0000
0011
0100
0101
0010
1010
1001
0000
,
0000
0001
0000
0001
0000
0100
0110
0010
,
1010
0010
0011
0000
0000
0002
0100
0013
,
0000
0010
0110
1000
1100
0010
0012
0000
,
0000
0100
0000
0013
0000
0001
0100
0010
,
1000
0100
1000
0000
0000
1000
0001
0100
,
0011
0000
0001
0000
0100
0010
1000
0000
,
0100
0000
0010
0000
0100
0010
0001
1000
,
0010
0100
0010
0000
0000
0000
0000
0000
,
0000
0100
0001
0100
0010
0100
0010
0000
,
0000
0010
0000
1010
0000
1000
1000
0001
,
0100
0000
0001
0000
0010
0000
0000
0000
0001
0000
0000
0000
0010
0001
0010
0000
,
0002
0100
0000
0010
,
0000
0000
1003
1000
2000
0000
0100
0000
,
0000
0000
0100
0000
0000
0100
0000
3100
,
2000
0010
0000
0010
,
0000
0000
3010
0100
0002
0000
0100
0000
,
0000
0010
0000
0100
,
0103
0001
0100
0010
1000
0100
2000
0000
,
0000
0100
0000
0010
0000
3010
1000
0010
,
0100
0001
0020
0000
0000
0001
0001
0001
,
0000
0031
0010
0001
0100
0010
0200
0000
,
0000
0010
0000
0001
0000
0301
1000
0010
,
1000
0100
1000
0000
0000
1000
0001
0100
,
0000
0001
0100
0010
0100
0100
0020
0000
,
0000
1000
0000
0001
0000
1030
0010
0100
,
0010
1000
0002
0000
0000
0100
0100
0013
,
0000
0010
0001
0100
0010
0010
0200
0000
,
0000
1000
0000
0001
0000
1300
0100
0001
,
0010
1000
0020
0000
0000
0001
0001
0001
,
0031
0101
0010
1001
,
0001
0011
1000
1010
,
0100
0000
0110
0000
0000
0010
1000
0001
,
1000
1001
0001
0011
,
1000
1100
0001
0110
,
0100
1001
0100
0110
,
2002
3003
0000
0000
;

//---------------dance-single - ----------------
#NOTES:
     dance-single:
     :
     Medium:
     5:
     0.225,0.254,0.065,0.170,0.000:
0000
0000
0000
0000
,
0000
0000
0000
0000
,
0000
0000
0000
0000
,
1000
1000
1000
0001
,
0001
0001
0100
0100
,
0100
0000
0010
0000
1001
0000
0001
1000
,
0100
0000
1100
0000
0010
0001
0200
0000
,
0000
0300
0010
0110
,
0010
1000
0200
0000
1000
0000
1300
0000
,
1000
0000
1010
0000
0010
1000
0002
0000
,
1000
1003
0001
0110
,
0010
1000
0200
0000
1000
0000
1300
0000
,
0000
1000
0001
0000
0100
0001
0200
0000
,
0300
0000
0000
0000
0000
0010
0010
0000
,
0100
0010
2000
0000
3000
0000
1001
0000
,
0000
0001
0100
0000
0010
1000
0002
0000
,
0003
0000
0000
0000
0000
0010
0010
0000
,
0100
0010
1000
0000
0000
0001
0100
0010
,
2020
0000
0000
0000
,
0000
0000
0000
3030
0000
0000
0010
0000
,
0100
1000
0000
0000
,
0000
0001
0100
0010
,
0000
0100
0000
0100
0000
0010
1000
0001
,
1000
0001
0100
0000
0000
0000
0000
0000
,
0002
0100
0000
0010
,
0000
0000
0013
0001
0200
0000
0010
0000
,
0000
0000
0010
0000
0000
0010
0000
0310
,
2000
0100
0000
0100
,
0000
0000
3100
1000
0020
0000
0100
0000
,
0000
0000
0100
0000
0000
0000
0100
0130
,
0100
0010
2000
0002
,
0000
0000
0000
3003
0000
0000
0001
0000
,
1000
0000
0100
0000
0000
1000
0001
0100
,
0000
0001
0100
0010
,
0000
0100
0000
0100
0000
0000
0010
0000
,
1000
0000
0001
0000
0000
1000
0001
1000
,
0000
0001
0100
0020
,
0000
0100
0000
0130
0000
0000
0100
0000
,
0010
0000
2000
0000
0000
0100
0100
3100
,
0000
1000
0001
0200
,
0000
0001
0000
0301
0000
0000
0001
0000
,
0100
0020
0000
0130
,
0010
0100
0010
0100
,
0010
0100
0010
1000
,
0010
0000
1000
0000
0000
1000
0100
0010
,
0001
0001
0010
0010
,
0100
0100
1000
1000
,
0001
0100
0010
1000
,
2002
3003
0000
0000
;

//---------------dance-single - ----------------
#NOTES:
     dance-single:
     :
     Challenge:
     9:
     0.595,1.000,0.365,1.000,0.150:
0000
0000
0000
0000
,
0000
0000
0000
0000
,
0000
0000
0000
0000
0000
0000
0000
0000
0000
0000
0000
0000
0000
0000
0000
1000
,
1100
1000
1001
0001
0011
0001
0101
0010
,
0110
0000
1000
0000
1001
0000
0001
1000
0100
0000
1000
0000
0101
0000
0010
0000
,
1001
0000
0100
0000
0110
0000
0010
1000
0001
0000
0010
1000
0001
0001
1000
1000
,
1001
0100
0010
0100
0001
0010
0002
0000
,
0000
0100
0000
0013
0000
0001
1000
0100
,
1000
0010
0002
0000
0000
1000
1000
1003
,
0000
0010
0100
0001
0001
0010
0200
0000
,
0000
1000
0000
1300
0000
1000
0100
0001
,
0100
1000
0020
0000
0000
1000
0001
1030
,
0000
0000
0000
0000
0000
0000
0000
0000
1002
0000
0000
0000
0000
0000
0000
0000
0100
0000
0000
0000
0000
0000
0000
0003
1002
0000
0000
0000
0000
0000
0000
0000
0010
0000
0000
0000
0000
0000
0000
0003
0102
0000
0000
0000
0000
0000
0000
0000
0200
0000
0000
0000
0000
0000
0000
0000
0000
0000
0000
0000
0000
0000
0000
0000
,
0000
0000
0000
0000
0003
0000
0000
0000
0020
0000
0000
0000
0000
0000
0000
0000
0000
0000
0000
0000
0030
0000
0000
0000
0020
0000
0000
0000
0000
0000
0000
0000
0030
0000
0000
0000
0000
0000
0000
0000
0320
0000
0000
0000
0000
0000
0000
0000
0100
0000
0000
0000
0000
0000
0000
0030
0020
0000
0000
0000
0000
0000
0000
0000
,
1000
0000
0000
0000
0000
0000
0000
0030
0020
0000
0000
0000
0000
0000
0000
0000
0130
0000
0000
0000
0000
0000
0000
0000
0000
0000
0000
0000
0000
0000
0000
0000
0000
0000
0000
0000
0000
0000
0000
0000
0020
0000
0000
0000
0000
0000
0000
0000
0002
0000
0000
0000
0000
0000
0000
0030
2000
0000
0000
0000
0000
0000
0000
0000
,
3003
0000
0000
0000
0000
0000
0000
0000
0120
0000
0000
0000
0000
0000
0000
0000
0001
0000
0000
0000
0000
0000
0000
0030
0120
0000
0000
0000
0000
0000
0000
0000
1000
0000
0000
0000
0000
0000
0000
0030
0120
0000
0000
0000
0000
0000
0000
0000
0002
0000
0000
0000
0000
0000
0000
0000
0000
0000
0000
0000
0000
0000
0000
0000
,
0000
0000
0000
0000
0030
0000
0000
0000
0020
0000
0000
0000
0000
0000
0000
0000
0030
0000
0000
0000
0000
0000
0000
0000
0020
0000
0000
0000
0000
0000
0000
0000
0030
0000
0000
0000
0000
0000
0000
0000
2003
0000
0000
0000
0000
0000
0000
0000
0001
0000
0000
0000
0000
0000
0000
3000
2000
0000
0000
0000
0000
0000
0000
0000
,
0100
0000
0000
0000
0000
0000
0000
3000
2000
0000
0000
0000
0000
0000
0000
0000
3001
0000
0000
0000
0000
0000
0000
0000
0000
0000
0000
0000
0000
0000
0000
0000
0000
0000
0000
0000
0000
0000
0000
0000
2000
0000
0000
0000
0000
0000
0000
0000
0200
0000
0000
0000
0000
0000
0000
3000
0020
0000
0000
0000
0300
0000
0000
0000
,
0230
0320
0230
0320
0230
0320
0230
0320
0230
0320
0230
0320
0230
0320
0230
0320
0230
0320
0230
0320
0230
0320
0230
0320
,
0200
0000
0000
0000
0000
0000
0000
0000
0000
0000
0000
0000
0000
0000
0000
0000
0000
0000
0000
0000
0000
0000
0030
0000
0020
0000
0000
0030
0300
0000
1002
0000
0000
0000
0000
0000
0100
0000
0000
0003
0000
0000
2010
0000
0000
0000
0000
0000
,
0002
3000
0200
0003
0320
0000
0030
0100
0000
0000
0010
0000
0010
0010
1000
0001
,
0010
0002
2003
3200
0320
0230
2300
3000
,
0000
0000
0000
0000
0000
0000
0000
0000
2020
0000
0000
0000
0000
0000
0000
0000
0000
0000
0000
0000
0000
0000
0000
3030
2020
0000
0000
0000
0000
0000
0000
0000
3030
0000
0000
0000
0000
0000
0000
0000
2200
0000
0000
0000
0300
0000
0000
3000
2020
0000
0000
0000
0030
0000
0000
3000
2002
0000
0000
0000
3000
0000
0000
0003
,
0022
0000
0000
0000
0030
0000
0000
0003
0202
0000
0000
0000
0300
0000
0000
0003
2002
0000
0000
0000
0000
0000
0000
0000
0000
0000
0000
0000
0000
0000
0000
0000
0000
0000
0000
0000
0000
0000
0000
0000
3003
0000
0000
0000
0000
0000
0000
0000
0001
0000
0000
0000
0100
0000
0000
0000
0010
0000
0000
0000
1000
0000
0000
0000
,
0200
1000
1000
0000
0010
0010
0010
0000
,
0001
0001
0001
1300
0020
0100
0100
0000
,
1000
1000
1000
0000
0000
0001
0000
0001
,
2030
0100
0200
0300
0010
0010
0020
0000
,
0030
0000
3010
0100
0002
0010
0010
0000
,
0010
0000
0010
0000
0010
0000
0000
0000
0013
0000
0101
0000
0001
0100
0001
0010
,
0002
0000
2003
0000
0200
3000
0320
0030
0020
0000
0200
0030
2300
0000
0000
0000
,
0000
3000
2200
0000
0000
3300
0022
0000
0000
0003
0002
0030
0200
0003
0020
0300
,
2000
0030
0200
3000
2000
0000
0000
0000
0000
3300
2020
3030
0202
0303
0220
0000
,
0000
0030
0002
0300
0200
0003
0020
0300
2000
0030
3200
0000
2000
0000
0000
0000
,
0000
3300
2002
0000
0000
3003
2020
0000
0000
0030
0020
3000
2000
0030
0200
3000
,
0020
0000
0000
0000
0300
0000
0000
0000
0002
0000
0000
0000
0030
0000
0000
0000
0020
0000
0000
0000
0000
0000
0000
0000
0000
0000
0000
0000
0000
0000
0000
0000
0000
0000
0000
0000
0003
0000
0000
0000
0002
0000
0000
0000
0030
0000
0000
0000
0203
0000
0000
0000
0000
0000
0000
0300
2002
0000
0000
0000
0000
0000
0000
0000
,
0000
3003
0000
0000
0000
0000
0000
0000
0000
0000
0000
0000
0000
0000
0000
0000
0000
0000
0000
0000
0000
0000
0000
0000
0002
0000
0000
0000
0000
0000
0000
0000
0000
0000
0000
0000
0000
0000
0000
0000
0000
0000
0000
0000
0000
0000
0000
0000
0203
0000
0000
0000
0000
0000
0000
0000
0000
0000
0000
0000
0000
0000
0000
0000
0000
0000
0000
0000
0000
0000
0000
0000
2300
0000
0000
0000
0000
0000
0000
0000
0000
0000
0000
0000
0000
0000
0000
0000
0000
0000
0000
0000
0000
0000
0000
0000
3020
0000
0000
0000
0000
0000
0000
0000
0000
0000
0000
0000
0000
0000
0000
0000
0000
0000
0000
0000
0000
0000
0000
0000
0032
0000
0000
0000
0000
0000
0000
0000
0000
0000
0000
0000
0000
0000
0000
0000
0000
0000
0000
0000
0000
0000
0000
0000
2000
0000
0000
0000
0000
0000
0000
0000
0000
0000
0000
0000
0000
0000
0000
0000
0000
0000
0000
0000
0000
0000
0000
0000
3003
0000
0000
0000
0000
0000
0000
0000
0000
0000
0000
0000
0000
0000
0000
0000
0000
0000
0000
0000
0000
0000
0000
0000
,
0000
0110
0000
1001
0000
2000
3020
0032
,
0203
2300
0002
3003
0000
0020
2030
3002
,
0003
0020
0032
0203
2300
3020
0200
0330
,
0000
1001
0000
0110
0000
0200
2300
3020
,
0032
0203
0020
0330
0000
0001
1000
0010
,
0100
0000
0001
1000
0100
0000
0000
0000
1100
0000
0000
0000
0011
0000
0000
0000
,
0001
0000
0100
0000
0010
0000
0100
0000
0001
0000
0001
1000
0010
0000
0000
0000
,
1000
0000
0101
0000
0000
0001
0100
0010
,
1000
0000
0100
1000
0100
0000
1000
0100
1000
0000
1000
0100
0010
0000
0000
0000
,
0000
0000
0011
0000
0000
0000
0011
0000
0000
0000
0001
0100
0001
0000
0100
0010
,
0100
0000
0010
1000
0001
0000
1000
0000
0001
0000
0100
0000
0010
0000
2200
3000
,
0002
0303
0000
0000
;

//---------------dance-single - ----------------
#NOTES:
     dance-single:
     :
     Easy:
     2:
     0.147,0.176,0.057,0.097,0.000:
0000
0000
0000
0000
,
0000
0000
0000
0000
,
0000
0000
0000
0000
,
0001
0001
1000
0001
,
0100
0100
0010
1000
,
0001
0010
0110
0010
,
0000
0001
0100
1000
,
0000
0000
0000
1000
,
0100
0001
0000
0110
,
0000
0010
1000
0001
,
0000
0000
0000
0100
,
0001
0010
0000
1100
,
0000
1000
0001
0200
,
0300
0000
0000
0010
,
1000
0002
0000
1000
,
0003
0100
0010
2000
,
3000
0000
0000
0100
,
1000
0010
0000
0100
,
2002
0000
0000
0000
,
0000
0000
0000
3003
0000
0000
0001
0000
,
1000
0100
0000
0000
,
0000
0100
1000
0010
,
0000
0100
0000
0001
,
0100
1000
0000
0000
,
0200
0001
0000
0001
,
0000
0001
0000
0001
,
0000
0001
0000
0001
,
0302
1000
0000
1000
,
0000
1000
0000
1000
,
0000
1000
0000
1003
,
0220
0000
0000
0000
,
0000
0000
0000
0330
0000
0000
0010
0000
,
0010
0010
0000
0110
,
0000
1000
1000
0001
,
0000
0100
0000
0010
,
1000
0100
0000
0011
,
0000
0001
0100
0020
,
0030
0000
0000
0100
,
0010
2000
3000
0001
,
0000
0100
0010
1000
,
0000
0000
0000
0001
,
1000
0100
0000
0100
,
1000
0000
0010
0000
,
0100
0000
0001
0010
,
0001
0100
0000
0010
,
0000
0100
0000
0010
,
0000
1000
0000
0100
,
1000
0010
0000
0100
,
0002
0003
0000
0000
;

//---------------dance-single - ----------------
#NOTES:
     dance-single:
     :
     Beginner:
     1:
     0.094,0.117,0.008,0.000,0.000: // measure 1
0000
0000
0000
0000
,  // measure 2
0000
0000
0000
0000
,  // measure 3
0000
0000
0000
0000
,  // measure 4
0001
0000
0000
1000
,  // measure 5
0000
0000
0010
0000
,  // measure 6
0000
0100
0000
0000
,  // measure 7
0000
0001
0001
0001
,  // measure 8
0000
0000
0000
1000
,  // measure 9
1000
1000
0000
0000
,  // measure 10
0000
0010
0010
0010
,  // measure 11
0000
0000
0000
0100
,  // measure 12
0100
0100
0000
0000
,  // measure 13
0000
0001
1000
0001
,  // measure 14
0000
0000
0000
0010
,  // measure 15
0100
0010
0000
0000
,  // measure 16
0000
0001
0100
0001
,  // measure 17
0000
0000
0000
1000
,  // measure 18
0010
1000
0000
0000
,  // measure 19
1001
0000
0000
0000
,  // measure 20
0000
0000
0000
0010
,  // measure 21
0010
0010
0000
0000
,  // measure 22
0000
1000
0100
0100
,  // measure 23
0000
0000
0000
1000
,  // measure 24
0001
0010
0000
0000
,  // measure 25
0100
0000
0000
0000
,  // measure 26
0000
0000
0010
0000
,  // measure 27
0000
0000
0000
0000
,  // measure 28
1000
0000
0000
0000
,  // measure 29
0000
0001
0001
0000
,  // measure 30
0000
0000
0000
0000
,  // measure 31
1000
0000
0000
0000
,  // measure 32
0000
0000
0000
0010
,  // measure 33
0010
0010
0000
0100
,  // measure 34
0000
0100
0100
0100
,  // measure 35
0000
0000
0000
0001
,  // measure 36
1000
0001
0000
0000
,  // measure 37
0000
0010
0010
0010
,  // measure 38
0000
0000
0000
1000
,  // measure 39
1000
1000
0000
0000
,  // measure 40
0000
0001
0001
0001
,  // measure 41
0000
0000
0000
0100
,  // measure 42
0100
0100
0000
0000
,  // measure 43
0010
0000
0010
0000
,  // measure 44
1000
0000
0001
0000
,  // measure 45
1000
0000
0100
0000
,  // measure 46
1000
0000
0010
0000
,  // measure 47
0100
0000
0001
0000
,  // measure 48
1000
0000
0010
0010
,  // measure 49
0100
0000
0000
0000
;
