#TITLE:TRIP MACHINE;
#SUBTITLE:(Resuscitation MIX);
#ARTIST:EBB;
#TITLETRANSLIT:;
#SUBTITLETRANSLIT:;
#ARTISTTRANSLIT:;
#GENRE:;
#CREDIT:DDR SPECIAL mix;
#BANNER:TRIP MACHINE (Resuscitation MIX).png;
#BACKGROUND:TRIP MACHINE (Resuscitation MIX)-bg.png;
#LYRICSPATH:;
#CDTITLE:cdtitle.png;
#MUSIC:TRIP MACHINE (Resuscitation MIX).mp3;
#OFFSET:-0.035000;
#SAMPLESTART:90.070000;
#SAMPLELENGTH:12.000000;
#SELECTABLE:YES;
#BPMS:0.000000=160.000000
,109.000000=80.000000
,157.000000=160.000000
;
#STOPS:32.000000=1.125000,
253.000000=1.313000
;
#BGCHANGES:;
#KEYSOUNDS:;
#ATTACKS:;

//---------------dance-single - ----------------
#NOTES:
     dance-single:
     :
     Hard:
     9:
     0.312903,0.417362,0.117077,0.063417,0.190250,449.000000,425.000000,24.000000,13.000000,0.000000,0.000000,0.312903,0.417362,0.117077,0.063417,0.190250,449.000000,425.000000,24.000000,13.000000,0.000000,0.000000:
0000
0000
0000
0000
,
0000
0000
0000
0000
,
0000
0000
0000
0000
,
0000
0000
0000
0000
0000
0000
0000
1000
,
0100
1000
0010
0100
,
0001
0010
0001
0100
,
1000
0010
0100
0010
,
1000
0001
0010
0100
0010
0100
1000
0001
,
0100
0010
0010
0010
,
0010
0000
1001
0010
0100
0000
0010
1000
,
0100
0001
0000
0001
0100
1000
0010
0100
,
0100
0010
1000
0100
0010
0000
0001
0010
,
0100
0001
0000
0001
0100
0010
0001
0000
,
1010
0000
1000
0100
0010
0000
0010
0100
,
0001
0100
0000
0100
0010
0001
0100
1000
,
0100
0010
1000
0001
0011
0000
0001
1000
,
0100
1000
0000
1000
0100
0001
0100
0010
,
1001
0000
0000
0000
0001
0000
0000
0001
0100
0000
0000
1000
0100
0000
0000
0001
,
0100
0000
0000
1000
0100
0000
0000
0001
0100
0000
0000
1000
0100
0000
0000
0001
,
0100
0000
0000
0001
0010
0000
0000
0010
1000
0000
0000
1000
0010
0000
0000
0010
,
0001
0000
0000
0001
0010
0000
0000
0010
1000
0000
0000
1000
0001
0000
0000
0001
,
0010
0001
0100
1000
,
0010
0001
0100
1000
,
0010
0000
0001
0100
1000
0100
0010
0100
,
0001
0100
1000
0010
0001
0010
1000
0100
,
0001
0010
0001
0100
0010
0000
0000
0000
0100
0000
0000
0000
0000
0000
0000
0000
,
0000
0000
0000
0001
0100
1000
0100
0001
,
0010
0000
0000
0000
0100
0001
0100
1000
0001
0000
0000
0000
0001
0010
1000
1010
,
0000
0000
0000
0000
1000
0001
0010
0001
0100
0000
0000
0000
0010
1000
0100
0010
,
0000
0010
0100
1000
0001
0100
1000
0000
0110
0000
0000
0000
0010
0100
1000
0100
,
0000
1000
0010
0100
0001
0010
1000
0000
1100
0000
0000
0000
1000
1000
0001
0010
,
0000
0010
0100
1000
0001
0100
0000
0000
0000
0000
0000
0000
0100
0010
0010
0100
,
0000
1000
0100
0010
0100
1001
0000
0000
0000
0000
0000
0000
0102
0000
0000
0010
,
0000
0013
0000
0000
0010
0100
1000
0100
0010
0000
0010
0001
0100
0010
0100
1000
,
0000
0000
0000
0000
1010
0000
0000
0000
0000
0000
0000
0000
0011
0000
0000
0110
,
0000
1000
0010
1000
0100
0001
0000
0000
0000
0000
0000
0000
0000
0001
0100
1000
,
0100
0001
0010
1000
0100
0010
0000
0000
0000
0000
0000
0000
0000
0001
0100
0010
,
0000
0000
1010
0000
0000
0000
0000
0000
0000
0000
1000
0100
1000
0000
0000
0000
0000
0000
0000
0000
0000
0000
0000
0000
0000
0000
0001
0100
0010
0000
0100
0000
,
1000
0100
0010
0001
0100
0010
1000
0100
0100
0010
0010
0001
0001
0220
0000
0000
,
0000
0000
0000
0330
0001
0000
0001
0000
0001
0000
0001
0000
0100
0000
1000
0000
,
0001
1000
1000
0010
0001
0010
0100
0001
,
1000
0010
1000
0001
0001
1000
0010
0001
,
1000
0000
0001
0000
1001
0000
0000
0000
0011
0000
0000
0010
0001
0000
0000
1000
,
0100
0000
0100
0100
1000
0001
1000
1000
,
0001
1000
0001
0010
0100
0010
0010
0100
,
1000
1000
1000
0001
0010
0100
0010
0010
,
0010
0000
0100
0000
1001
0000
0000
0011
0000
0000
1010
0000
0101
0000
0000
1010
,
0000
0101
1010
1000
0100
0000
1000
0100
,
0001
0100
0000
1000
0010
1000
0010
0010
,
0001
0001
0100
0010
1000
0000
1000
0100
,
0010
0001
0000
0001
0100
0100
0010
0010
,
1000
1000
0001
0100
0010
0000
0010
1000
,
0100
1000
0000
1000
0010
0100
0001
0010
,
0100
0010
0001
0010
0100
0000
0010
1000
,
0001
0100
0000
0100
0010
1000
0100
0010
,
0001
0000
0001
0002
0200
0003
0301
0100
,
0010
2000
0000
3001
0100
0010
0001
0010
,
0100
0001
0100
0010
2000
0000
3100
0100
,
0010
0001
0000
0001
0100
0010
1000
0100
,
0020
0000
0031
0001
0010
0100
0001
1000
,
0010
0200
0000
0310
1000
0001
0010
0010
,
0010
0000
0001
0010
0200
0000
1300
0010
,
0100
0002
0000
0103
0001
1000
0100
0010
,
0001
0010
2002
3003
0000
0000
0000
0000
;

//---------------dance-single - ----------------
#NOTES:
     dance-single:
     :
     Medium:
     7:
     0.232761,0.262265,0.141468,0.034148,0.000000,334.000000,305.000000,29.000000,7.000000,0.000000,0.000000,0.232761,0.262265,0.141468,0.034148,0.000000,334.000000,305.000000,29.000000,7.000000,0.000000,0.000000:
// measure 0
0000
0000
0000
0000
,  // measure 1
0000
0000
0000
0000
,  // measure 2
0000
0000
0000
0000
,  // measure 3
0000
0000
0000
0000
,  // measure 4
0001
0001
1000
1000
,  // measure 5
0001
0100
1000
0100
,  // measure 6
0001
0010
0001
0000
0010
0100
0010
0100
,  // measure 7
0000
0010
1000
0001
0010
0100
1000
0100
,  // measure 8
0010
0100
0100
0100
,  // measure 9
0100
0000
0100
1000
0010
0000
0100
0000
,  // measure 10
0010
1000
0000
0010
0100
0000
0010
0000
,  // measure 11
0010
0000
0010
1000
0010
0000
0010
1000
,  // measure 12
0001
0010
0000
0001
0010
0000
0011
0000
,  // measure 13
1100
0000
0001
0100
0010
0000
0100
0010
,  // measure 14
1000
0010
0000
1000
0100
0010
0001
0000
,  // measure 15
0011
0000
0001
0100
0010
0000
0010
1000
,  // measure 16
0001
1000
0000
0001
0100
0000
0110
0000
,  // measure 17
1001
0001
0001
0001
,  // measure 18
0001
1001
0110
1001
,  // measure 19
0110
0100
0100
0100
,  // measure 20
0100
0110
1001
0110
,  // measure 21
1001
1000
1000
0001
,  // measure 22
0001
1000
1000
0001
,  // measure 23
0001
1000
0001
1000
,  // measure 24
0001
0000
1000
0001
1000
0001
1000
0001
,  // measure 25
1000
0001
1000
0000
0000
0000
0000
0000
,  // measure 26
0000
0000
0000
1000
0100
0001
0100
1000
,  // measure 27
0000
0000
1000
0000
0100
0000
0010
0001
,  // measure 28
0100
0000
0110
0000
0010
0000
0010
1000
,  // measure 29
0010
0100
0010
1000
0001
0000
0001
0010
,  // measure 30
1000
0010
0001
0100
1000
0000
1000
0100
,  // measure 31
0001
0010
0100
0000
0000
0000
0010
0000
,  // measure 32
0000
0110
0000
1002
,  // measure 33
1000
0200
0003
0010
,  // measure 34
1000
0002
0300
0010
,  // measure 35
0100
0000
0020
0000
0000
0033
0001
0100
,  // measure 36
0010
1000
0200
0000
0000
0000
1300
0000
,  // measure 37
1000
0000
0110
0000
0000
0000
0000
1001
,  // measure 38
0000
0000
0010
0000
0010
0000
0010
1000
,  // measure 39
0001
0100
0010
0000
0001
0000
0010
0000
,  // measure 40
0001
0000
0100
0000
0010
0000
1000
0010
,  // measure 41
0100
0000
0010
0100
0010
0000
0010
1000
,  // measure 42
0010
0101
1100
0101
,  // measure 43
1100
0000
0001
0100
0001
0000
0010
1000
,  // measure 44
0010
0000
0010
1000
0010
0100
0010
1000
,  // measure 45
0010
0001
0010
0100
0010
0001
0010
0100
,  // measure 46
1000
0100
0020
0000
0031
0000
0200
0000
,  // measure 47
0310
0000
0010
0100
0010
0000
0100
0010
,  // measure 48
0001
0010
0000
0001
0010
0000
1100
0000
,  // measure 49
0011
0000
0001
0100
0010
0000
0010
1000
,  // measure 50
0010
1000
0000
1000
0001
0000
0101
0000
,  // measure 51
1100
0000
0001
1000
0001
0000
0001
0001
,  // measure 52
0100
0010
0000
0010
1000
0000
1010
0000
,  // measure 53
0101
0000
0001
0001
0100
0000
0010
1000
,  // measure 54
0010
0100
0000
0100
0010
0000
1000
0000
,  // measure 55
0001
0000
1000
0100
1000
0000
1000
0100
,  // measure 56
0010
0001
0000
0010
0001
0100
0010
1000
,  // measure 57
0001
0000
0010
0100
0010
0000
0010
0010
,  // measure 58
1000
0001
0000
1000
0001
0100
0001
0000
,  // measure 59
0101
0000
0001
0100
0010
0000
1000
0100
,  // measure 60
1000
0100
0000
1000
0100
0000
0010
0000
,  // measure 61
0001
0000
0001
0100
0010
0000
0010
1000
,  // measure 62
0100
0000
1000
0100
0001
0100
1000
0010
,  // measure 63
0001
0010
1000
0000
0000
0000
0000
0000
;

//---------------dance-single - ----------------
#NOTES:
     dance-single:
     :
     Easy:
     4:
     0.183978,0.277692,0.258545,0.039026,0.000000,264.000000,211.000000,53.000000,8.000000,0.000000,0.000000,0.183978,0.277692,0.258545,0.039026,0.000000,264.000000,211.000000,53.000000,8.000000,0.000000,0.000000:
// measure 0
0000
0000
0000
0000
,  // measure 1
0000
0000
0000
0000
,  // measure 2
0000
0000
0000
0000
,  // measure 3
0000
0000
0000
0000
,  // measure 4
0001
1000
0001
0100
,  // measure 5
0001
1000
0001
0010
,  // measure 6
0001
0001
0100
0100
,  // measure 7
0010
1000
0010
0100
,  // measure 8
0101
0100
0100
0100
,  // measure 9
0100
0110
1001
0001
,  // measure 10
0100
0010
1000
1100
,  // measure 11
0011
0100
0010
1000
,  // measure 12
0001
0100
0010
1010
,  // measure 13
1010
1000
0010
0100
,  // measure 14
0001
0010
0100
1100
,  // measure 15
1100
1000
0010
0100
,  // measure 16
0100
0010
1000
1010
,  // measure 17
0101
0002
0200
0000
,  // measure 18
0303
0000
0000
0001
0100
0001
0000
0100
,  // measure 19
0000
2000
0200
3300
,  // measure 20
0000
0000
0000
1000
0100
1000
0000
0100
,  // measure 21
0000
1000
1000
0001
,  // measure 22
0001
1000
0001
1000
,  // measure 23
0001
1001
1001
1001
,  // measure 24
1001
0101
1100
0101
,  // measure 25
1100
0101
0000
0000
,  // measure 26
0000
0000
0000
0001
0100
0010
1000
0100
,  // measure 27
0000
1000
0001
0100
,  // measure 28
0010
1000
0100
1000
,  // measure 29
0000
0100
0010
0001
,  // measure 30
0000
0100
0010
1000
,  // measure 31
0000
1001
0000
0010
,  // measure 32
0000
0110
0000
0100
,  // measure 33
0000
0101
0000
0010
,  // measure 34
0000
1100
0000
0100
,  // measure 35
0000
0000
0011
0000
0000
0000
0000
0001
,  // measure 36
0100
0010
1000
0100
0000
0000
0000
0100
,  // measure 37
1000
0010
0000
0010
0000
0000
0000
0010
,  // measure 38
0000
0000
0000
0010
0000
0000
0000
0000
,  // measure 39
0000
1001
1001
1001
,  // measure 40
1001
1001
1001
1001
,  // measure 41
1001
1001
1001
1001
,  // measure 42
1001
2002
0000
0000
,  // measure 43
3003
0110
0110
0110
,  // measure 44
0110
0110
0110
0110
,  // measure 45
0110
0110
0110
0110
,  // measure 46
0110
0220
0000
0000
,  // measure 47
0330
0010
1000
0010
,  // measure 48
0001
0010
1000
0010
,  // measure 49
0001
0010
1000
0010
,  // measure 50
0001
0010
1000
0100
,  // measure 51
0001
0100
1000
0100
,  // measure 52
0001
0100
1000
0100
,  // measure 53
0001
0100
1000
0100
,  // measure 54
0001
0100
1000
1100
,  // measure 55
1100
1000
0010
0100
,  // measure 56
0001
0001
0100
1000
,  // measure 57
0100
0001
0010
0010
,  // measure 58
0001
0010
1000
0010
,  // measure 59
0001
0010
1000
0100
,  // measure 60
0001
0100
1000
0010
,  // measure 61
0001
0010
1000
0100
,  // measure 62
0001
0100
1000
0010
,  // measure 63
0100
0001
0000
0000
;

//---------------dance-single - ----------------
#NOTES:
     dance-single:
     :
     Beginner:
     2:
     0.098958,0.138846,0.034148,0.014635,0.000000,142.000000,135.000000,7.000000,3.000000,0.000000,0.000000,0.098958,0.138846,0.034148,0.014635,0.000000,142.000000,135.000000,7.000000,3.000000,0.000000,0.000000:
// measure 0
0000
0000
0000
0000
,  // measure 1
0000
0000
0000
0000
,  // measure 2
0000
0000
0000
0000
,  // measure 3
0000
0000
0000
0000
,  // measure 4
0010
0000
0000
0000
,  // measure 5
1000
0000
0000
0000
,  // measure 6
0001
0000
0000
0000
,  // measure 7
0100
0100
0100
0100
,  // measure 8
0110
0000
0000
0000
,  // measure 9
0000
0010
0000
0000
,  // measure 10
0000
1000
0000
1000
,  // measure 11
0000
0001
0000
0000
,  // measure 12
0000
0100
0000
0100
,  // measure 13
0000
0010
0000
0000
,  // measure 14
0000
1000
0000
1000
,  // measure 15
0000
0001
0000
0000
,  // measure 16
0000
0100
0000
0100
,  // measure 17
0000
0010
0010
0010
,  // measure 18
0010
0010
0010
0010
,  // measure 19
0010
0010
0010
0010
,  // measure 20
0010
0010
0010
0010
,  // measure 21
0010
0100
0100
0100
,  // measure 22
0100
0100
0100
0100
,  // measure 23
0100
0100
0100
0100
,  // measure 24
0100
0100
0100
0100
,  // measure 25
0100
0100
0000
0000
,  // measure 26
0000
0000
0000
0000
,  // measure 27
0000
1001
0000
0010
,  // measure 28
0000
0010
0000
1000
,  // measure 29
0000
0001
0000
0100
,  // measure 30
0000
0010
0000
1000
,  // measure 31
0000
0001
0000
1000
,  // measure 32
0000
0010
0000
0100
,  // measure 33
0000
0010
0000
1000
,  // measure 34
0000
0001
0000
0100
,  // measure 35
0000
0010
0000
1000
,  // measure 36
0000
0000
0000
0001
,  // measure 37
0000
0001
0000
1000
,  // measure 38
0000
0000
0010
0000
0000
0000
1000
2000
,  // measure 39
0000
3001
0001
0001
,  // measure 40
0001
1000
1000
1000
,  // measure 41
1000
0001
0000
1000
,  // measure 42
0000
0110
0000
0110
,  // measure 43
0000
0010
0000
0010
,  // measure 44
0000
1000
0000
0001
,  // measure 45
0000
0100
0000
0010
,  // measure 46
0000
0220
0000
0000
,  // measure 47
0330
0010
0010
1000
,  // measure 48
0000
0010
0000
1000
,  // measure 49
0000
0001
0001
0100
,  // measure 50
0000
1001
0000
0000
,  // measure 51
0000
0010
0010
0010
,  // measure 52
0000
0100
0000
0010
,  // measure 53
0000
1000
1000
0001
,  // measure 54
0000
1000
0000
0010
,  // measure 55
0000
0100
0100
0001
,  // measure 56
0000
1000
0000
0010
,  // measure 57
0000
0100
0100
0001
,  // measure 58
1000
0100
0000
0100
,  // measure 59
0000
1000
0000
0010
,  // measure 60
0000
0100
0000
0001
,  // measure 61
0000
1000
0000
0010
,  // measure 62
0000
0100
0000
0001
,  // measure 63
0000
1001
0000
0000
;
