#TITLE:TRINITY ARROW;
#SUBTITLE:;
#ARTIST:TAG;
#TITLETRANSLIT:;
#SUBTITLETRANSLIT:;
#ARTISTTRANSLIT:;
#CREDIT:;
#BANNER:bn.png;
#BACKGROUND:bg.png;
#LYRICSPATH:;
#CDTITLE:;
#MUSIC:TRINITY ARROW.mp3;
#OFFSET:-0.703;
#SAMPLESTART:23.260;
#SAMPLELENGTH:12.000;
#SELECTABLE:YES;
#BPMS:0.000=222.001,336.000=210.001,337.000=200.001,338.000=190.001,339.000=180.001,340.000=170.001,341.000=165.001,342.000=160.001,343.000=155.000,344.000=150.001,345.000=145.001,346.000=140.001,347.000=120.000,348.000=90.000;
#STOPS:;
#BGCHANGES:;

//---------------dance-single - ----------------
#NOTES:
     dance-single:
     :
     Hard:
     9:
     0.582,0.728,0.222,0.212,0.048:
0000
0000
0000
0000
,
0000
0000
0000
0000
,
0000
0000
0000
0000
,
0000
0000
0000
0000
,
0000
0000
0000
0000
,
0000
0000
0000
0000
,
0000
0000
0000
0000
,
0000
0000
0000
0000
,
0000
0000
0000
0000
0001
0010
0200
0000
,
0000
0000
0000
0000
0300
0010
0001
0000
,
0100
0000
1000
0000
1000
0100
0002
0000
,
0000
0000
0000
0023
0000
0000
0000
0100
,
0030
0100
0010
0000
0010
0000
1001
0000
,
0001
0100
0010
1000
0100
0000
1100
0000
,
1000
0100
0010
0100
1000
0010
0200
0000
,
0000
0000
0000
0000
0310
1000
1100
0000
,
1100
0000
0011
0000
0011
0000
0000
2002
,
0000
0000
0000
0000
,
0000
0000
0000
0000
0000
0000
0000
3003
,
0000
0000
0000
0000
,
0000
0000
0000
0000
0000
0000
0000
0001
,
0010
0000
0100
0010
0000
0001
0100
0000
,
0010
1000
0000
1000
0100
0000
0010
0001
,
0000
0100
0000
0010
0100
0000
0010
0000
,
0010
1000
0000
0001
0000
0010
0000
0100
,
1000
0100
0000
0001
0010
0001
0000
0100
,
0001
0100
0000
0010
0100
0010
0000
0010
,
1000
0001
0000
0001
0010
0100
1000
0000
,
1000
0001
0010
0000
0000
0000
0000
0000
,
0000
0001
0000
0100
0000
0010
0000
1000
,
0100
0000
0010
0000
0100
1000
0010
0000
,
0000
1000
0000
0001
0000
0100
0000
0010
,
0000
0001
0000
0010
1000
0100
0010
0000
,
0001
0020
0000
0000
0000
0000
0000
0030
,
0000
0000
0000
0010
0000
0001
0000
0101
,
0000
0000
0100
0000
0000
0010
0000
0101
,
0000
0000
0010
0000
0000
1000
0000
1000
,
0100
1000
0000
0100
1000
0010
0000
0100
,
0001
0010
0000
0010
0100
1000
0000
1000
,
0010
0100
0000
0010
1000
0001
0000
0010
,
0001
0100
0000
0010
1000
0001
0000
1000
,
0100
0010
0000
0001
0010
0100
0000
0010
,
0001
0100
0000
0010
1000
0001
0000
0001
,
1000
0100
0000
0100
1000
0010
0000
0100
,
0010
1000
0001
0010
0100
0010
0001
0200
,
0000
0000
1000
0000
0000
0301
0000
0220
,
0000
0330
0000
0010
0100
0010
0000
0100
,
0000
0010
0000
1000
0000
0001
0000
0010
,
0000
0100
0000
0100
1000
0000
1000
0001
,
0100
0000
0100
0010
0100
0000
0001
0100
,
0001
0000
0010
1000
0010
0000
1000
0100
,
1000
0000
0001
0010
0001
0000
0001
1000
,
0001
0000
0100
0001
0100
0000
0001
0010
,
0000
0100
1000
0000
0001
0010
0000
0001
,
0100
0000
0010
1000
0001
1000
0010
0100
,
0000
0100
0000
0000
0000
0010
0000
0000
0000
1000
0000
0000
0000
0001
0000
0000
0000
0010
0000
0000
0000
0100
0000
0000
,
0000
1000
0000
0000
0000
0010
0000
0000
0000
0100
0000
0000
0010
0000
0000
1000
0000
0000
0002
0000
0000
0000
0000
0000
,
0000
0000
0000
0000
0003
1000
0001
0000
,
0011
0000
1100
0000
1000
0010
0200
0000
,
0000
0000
0000
0000
0000
0010
0300
0010
,
0000
0010
1000
0000
0001
0000
1100
0000
,
1000
0001
0010
0100
0010
0001
0101
0000
,
1000
0001
0100
0010
1000
0100
0020
0000
,
0000
0001
0230
0000
0310
0000
0010
0200
,
0000
0020
0330
0000
0001
1000
0200
0000
,
0000
0000
0000
0000
0300
1000
0100
0000
,
0010
0000
0100
0000
0100
1000
0020
0000
,
0000
0000
0000
0230
0000
0000
0300
0001
,
0000
0001
0001
0000
0100
0000
0110
0000
,
0001
0100
0010
1000
0100
0010
0001
0000
,
0001
0100
0010
1000
0100
0010
0002
0000
,
0000
0000
0000
0000
1003
0001
0011
0000
,
1100
0000
0101
0000
1010
0000
0000
1001
,
0000
1000
0000
0001
0000
0010
0001
0000
,
0010
0001
0000
0001
0100
0000
0100
0010
,
0000
1000
0000
0001
0000
0001
0010
0000
,
1000
0100
0000
0100
0010
0000
0010
0100
,
0000
1000
0000
0010
0000
0100
0010
0000
,
0100
0010
0000
0010
1000
0000
1000
0001
,
0000
0010
0000
0100
0000
0100
1000
0000
,
1000
0010
0000
0100
0001
0000
0001
1000
,
0001
0010
0001
0100
0010
1000
0100
1000
,
0010
0100
0001
0010
0100
0010
0001
0100
,
0010
0100
0010
1000
0001
0010
0100
1000
,
0100
0000
0000
0010
0000
0000
0000
0000
0000
0001
0000
0000
0000
0100
0000
0000
0000
0010
0000
0000
0000
0110
0000
0000
,
0000
0010
1000
0001
0010
0110
0000
1000
,
0001
0010
0100
1100
1000
0100
0010
0001
,
0000
0000
0000
2000
0000
0000
0000
0000
0000
0000
0000
0000
0000
0000
0002
0000
0000
0000
0000
0000
0000
0000
0000
0000
0000
0000
0000
0000
0000
0000
0000
0000
0000
0000
0000
0000
0000
0000
0000
0000
0000
0000
0000
0000
0000
0000
0000
0000
,
0000
0000
0000
3003
;

//---------------dance-single - ----------------
#NOTES:
     dance-single:
     :
     Medium:
     7:
     0.463,0.643,0.299,0.222,0.063:
0000
0000
0000
0000
,
0000
0000
0000
0000
,
0000
0000
0000
0000
,
0000
0000
0000
0000
,
0000
0000
0000
0000
,
0000
0000
0000
0000
,
0000
0000
0000
0000
,
0000
0000
0000
0000
,
0000
0000
0001
0020
,
0000
0000
0030
0000
0000
0001
0000
1000
,
0000
0100
0000
0010
0000
0001
0000
0200
,
0000
0000
0000
0310
0000
0000
0000
0010
,
0000
0100
0010
0000
1000
0000
1001
0000
,
1000
0001
0010
0011
,
0001
0100
0010
2020
,
0000
0000
3030
0000
1000
0001
0011
0000
,
0011
0000
1100
0000
1100
0000
0000
2002
,
0000
0000
0000
0000
,
0000
0000
0000
0000
0000
0000
0000
3003
,
0000
0000
0000
0000
,
0000
0000
0000
0000
0000
0000
0000
0001
,
0000
0100
0000
0010
0000
1000
0000
0100
,
0000
0010
0000
0001
0000
0100
0000
0010
,
0000
0000
0000
0010
0000
0000
0000
0100
,
0010
1000
0001
0000
0000
0000
0000
1000
,
0000
0001
0000
0010
0000
0001
0000
1000
,
0000
0100
0000
1000
0000
0010
0000
0100
,
0000
0001
0000
0010
0000
0100
1000
0000
,
1000
0001
0010
0000
0000
0000
0000
0000
,
0000
0001
0000
0100
0000
0010
0000
1000
,
0010
0100
0010
0000
,
0000
0100
0000
0010
0000
1000
0000
0001
,
0000
0000
0000
0011
0000
0000
0001
0000
,
0002
0200
0000
0000
0000
0000
0000
0000
,
0000
0303
0000
0010
0000
1000
0000
0100
,
0000
0000
1000
0000
0000
0010
0000
0100
,
0000
0000
0001
0000
0000
1000
0000
1100
,
0000
1000
0000
0001
0000
0010
0000
0001
,
0000
0100
0000
0010
0000
1000
0000
0001
,
0000
0010
0000
0100
0000
0010
0000
0001
,
0000
0100
0000
0010
0000
1000
0000
1001
,
0000
0001
0000
0100
0000
0010
0000
0110
,
0000
0010
0000
1000
0000
0001
0000
0011
,
0000
0001
0000
0100
0000
0010
0100
0000
,
0010
0100
0000
0010
0000
1000
0000
1002
,
0000
0000
0103
0000
0000
0020
0000
0130
,
0000
0000
0000
0100
0000
1000
0000
0010
,
0000
0100
0000
0001
0000
1000
0000
0100
,
0000
0010
0000
0010
0100
0000
1000
0100
,
0000
0001
0010
0000
0001
0100
0000
0010
,
1000
0000
1000
0001
0000
0001
0010
0000
,
0010
0100
0000
0100
1000
0000
1000
0001
,
0000
0100
0010
0000
1000
0100
0000
0001
,
0010
0000
0100
1000
0000
1000
0001
0000
,
0001
0010
0000
0100
1000
0000
0001
1000
,
0000
0100
0000
0000
0000
1000
0000
0000
0000
0100
0000
0000
0000
1000
0000
0000
0000
0100
0000
0000
0000
1000
0000
0000
,
0000
0001
0000
0000
0000
0010
0000
0000
0000
0100
0000
0000
0000
0010
0000
0000
0000
0000
0002
0000
0000
0000
0000
0000
,
0000
0000
0000
0000
0003
1000
0001
0000
,
0001
0000
0001
0000
0001
0100
0020
0000
,
0000
0000
0000
0000
0000
0100
0030
0100
,
0000
0100
0010
0000
1000
0000
1001
0000
,
1000
0001
0010
1100
,
1000
0010
0100
0001
,
0000
0010
0001
0000
0001
0100
0010
1000
,
0000
1001
0000
0000
0001
1000
0200
0000
,
0000
0000
0000
0300
0000
0100
1000
0000
,
0010
0000
0100
0000
0100
0002
2000
0000
,
0000
0000
3003
2002
0000
0000
3003
2002
,
3003
0001
1000
0000
0100
0000
0011
0000
,
0001
0010
0100
0010
,
0001
0000
0100
0000
0010
1000
0001
0000
,
0000
0000
0000
0000
0001
0100
1010
0000
,
1010
0000
0101
0000
0101
0000
0000
2002
,
0000
0000
0000
0000
,
0000
0000
0000
0000
0000
0000
3003
0001
,
0000
1000
0000
0100
0000
0010
0000
0100
,
0000
1000
0000
0001
0000
0010
0000
0001
,
0000
0100
0000
0010
0000
1000
0000
0001
,
0000
0010
0000
0001
0000
0100
0000
0010
,
0000
1000
0000
0001
0000
0010
0000
0100
,
0000
1000
0000
0001
0000
0010
0000
0011
,
0000
0001
0000
0100
0000
0010
0000
1010
,
0000
1000
0000
0100
0000
0010
0000
0011
,
0000
0001
0000
0100
0000
0010
0000
1001
,
0000
0000
0000
1000
0000
0000
0001
0000
0000
1000
0000
0000
0000
0100
0000
0000
0000
0100
0000
0000
0000
0010
0000
0000
,
0000
0000
0000
0000
0000
1100
0000
0000
,
0000
0000
0000
0000
0000
0000
0000
0101
0000
0000
0000
0000
0000
0000
0000
0010
,
0000
2000
0000
0000
0000
0200
0000
0000
0000
0000
0000
0000
0000
0000
0000
0000
,
0000
0000
0000
0000
0000
0000
0000
0000
0000
0000
0000
0000
0000
3300
0000
0000
;

//---------------dance-single - ----------------
#NOTES:
     dance-single:
     :
     Easy:
     5:
     0.276,0.426,0.164,0.116,0.000:
0000
0000
0000
0000
,
0000
0000
0000
0000
,
0000
0000
0000
0000
,
0000
0000
0000
0000
,
0000
0000
0000
0000
,
0000
0000
0000
0000
,
0000
0000
0000
0000
,
0000
0000
0000
0000
,
0000
0000
0001
0200
,
0000
0000
0300
0010
,
1000
0100
0010
0002
,
0000
0000
0000
0010
0003
0000
0010
0000
,
0000
0001
0000
1000
0000
0000
1001
0000
,
0001
0100
0010
1000
,
0100
0010
0100
2000
,
0000
3000
0010
1010
,
1010
0000
0101
0000
0101
0000
0000
2002
,
0000
0000
0000
0000
,
0000
0000
0000
3003
,
0000
0000
0000
0000
,
0000
0000
0000
0000
0000
0000
0000
0010
,
0000
0000
0000
0010
0000
0000
0000
1000
,
0000
0000
0000
0001
0000
0000
0000
1000
,
0000
0000
0000
1000
0000
0000
0000
0001
,
0000
1000
0000
0100
0000
0000
0000
1000
,
0000
0000
0000
0010
0000
0000
0000
0100
,
0000
0000
0000
0010
0000
0000
0000
1000
,
0000
0000
0000
0001
0000
0000
0000
1000
,
0000
1000
0000
0000
0000
0000
0001
0000
,
0000
0000
0000
0001
0000
0000
0000
1000
,
0000
0001
0001
0001
,
0000
0000
0000
0100
0000
0000
0000
0010
,
0000
0000
0000
1000
0000
0000
0001
0000
,
0000
0001
0000
0000
0000
0000
0000
0000
,
0000
0000
0000
1000
0000
1000
0000
0001
,
0000
0100
0000
0010
,
0000
0000
1000
0000
0000
0001
0000
0000
,
0000
1000
0000
0001
0000
0100
0000
0001
,
0000
1000
0000
0100
0000
1000
0000
0000
,
0000
0100
0000
1000
0000
0010
0000
0100
,
0000
0000
0000
0010
0000
0000
0000
1000
,
0000
0000
0000
1000
0000
0000
0000
0001
,
0000
0000
0000
0100
0000
0000
0000
0010
,
0000
1000
0000
0100
0000
0000
0000
1000
,
0000
0000
0000
0000
0000
0000
0000
1001
,
0000
0000
0000
0001
0000
0000
0000
0100
,
0000
0100
0000
0100
0000
0000
0000
0010
,
0000
0000
0000
1000
0000
0000
0000
0100
,
0000
0100
0000
0100
0000
0000
0000
1000
,
0000
0000
0000
0000
0000
0001
0000
0000
,
0000
1000
0000
0000
0000
0010
0000
0000
,
0000
0100
0000
0000
0000
0010
0000
0000
,
0000
1000
0000
0000
0000
0001
0000
0000
,
0000
1000
0000
0000
0000
0001
0000
0000
,
0000
0100
0000
0000
0000
0010
0000
0110
,
0000
0000
0000
1010
0000
0000
0000
1010
,
0000
0000
0000
1010
0000
0000
0010
0000
,
0000
0000
0000
1000
,
0001
0100
0001
0010
,
0000
0000
0000
0001
,
0000
1000
0000
0001
,
0000
0000
0000
0100
0000
0000
0010
0000
,
0000
1000
0001
1000
,
0000
0000
0001
0000
0000
0000
1000
0001
,
0000
1001
0000
0000
0001
0000
0200
0000
,
0000
0300
0000
0010
,
1000
0010
0100
0002
,
0000
0003
0000
0000
,
0000
0000
0000
1000
,
0000
0001
0000
0100
,
0000
0010
1000
0200
,
0000
0000
0300
1000
,
0010
0000
0100
0000
0010
0000
0000
2020
,
0000
0000
0000
0000
,
0000
0000
0000
3030
0000
0000
0000
0001
,
0000
0000
0000
1000
0000
0000
0000
0001
,
0000
1000
0000
0001
0000
0000
0000
0100
,
0000
0000
0000
0010
0000
0000
0000
1000
,
0000
1000
0000
1000
0000
0000
0000
0001
,
0000
0000
0000
0100
0000
0000
0000
0010
,
0000
1000
0000
0100
0000
0000
0000
1000
,
0000
0000
1000
0000
0000
0001
0000
0000
,
0100
0000
0000
0010
0000
0000
0000
1000
,
0000
0000
0010
0000
0000
0100
0000
0000
,
0000
0000
0000
0010
0000
0000
0000
1001
,
0000
0000
0000
0000
0000
0101
0000
0000
,
0000
0000
0000
1010
0000
0000
0000
0000
,
0000
2002
0000
0000
,
0000
3003
0000
0000
;

//---------------dance-single - ----------------
#NOTES:
     dance-single:
     :
     Beginner:
     2:
     0.108,0.256,0.058,0.010,0.000: // measure 1
0000
0000
0000
0000
,  // measure 2
0000
0000
0000
0000
,  // measure 3
0000
0000
0000
0000
,  // measure 4
0000
0000
0000
0000
,  // measure 5
0000
0000
0000
0000
,  // measure 6
0000
0000
0000
0000
,  // measure 7
0000
0000
0000
0000
,  // measure 8
0000
0000
0000
0000
,  // measure 9
0000
0000
0000
0010
,  // measure 10
0000
0000
0000
0000
,  // measure 11
0000
0000
0000
1000
,  // measure 12
0000
0000
0000
0000
,  // measure 13
0000
0000
0000
0001
,  // measure 14
0000
0000
0000
1000
,  // measure 15
0000
0000
0000
0010
,  // measure 16
0000
0000
0000
0100
,  // measure 17
0100
0000
0100
0000
0100
0000
0000
0110
,  // measure 18
0000
0000
0000
0000
,  // measure 19
0000
0000
0000
0000
,  // measure 20
0000
0000
0000
0000
,  // measure 21
0000
0000
0000
0000
0000
0000
0000
0010
,  // measure 22
0000
0000
0000
0000
,  // measure 23
0000
0000
0000
0000
0000
0000
0000
1000
,  // measure 24
0000
0000
0000
1000
0000
0000
0000
1000
,  // measure 25
0000
0000
0000
0000
0000
0000
0000
0001
,  // measure 26
0000
0000
0000
0000
,  // measure 27
0000
0000
0000
0000
0000
0000
0000
0100
,  // measure 28
0000
0000
0000
0000
,  // measure 29
0000
0000
0000
0010
,  // measure 30
0000
0000
0000
0000
,  // measure 31
0000
0000
0000
0100
,  // measure 32
0000
0000
0000
0000
,  // measure 33
0000
0000
0000
0010
,  // measure 34
0000
0000
0000
0000
,  // measure 35
0000
0000
0000
1000
,  // measure 36
0000
0000
0000
1000
,  // measure 37
0000
0000
0000
0000
0000
0000
0000
0001
,  // measure 38
0000
0000
0000
0000
,  // measure 39
0000
0000
0000
0000
0000
0000
0000
1000
,  // measure 40
0000
0000
0000
0000
,  // measure 41
0000
0000
0000
0000
0000
0000
0000
0010
,  // measure 42
0000
0000
0000
0000
0000
0000
0000
0100
,  // measure 43
0000
0000
0000
0000
0000
0000
0000
0010
,  // measure 44
0000
0000
0000
0000
,  // measure 45
0000
0000
0000
0000
0000
0000
0000
1000
,  // measure 46
0000
0000
0000
0000
,  // measure 47
0000
0000
0000
0001
0000
0000
0000
0001
,  // measure 48
0000
0000
0000
0000
0000
0000
0000
0100
,  // measure 49
0000
0000
0000
0010
,  // measure 50
0000
0000
0000
0000
,  // measure 51
0000
0000
0000
0000
0000
0000
0000
1000
,  // measure 52
0000
0000
0000
0000
,  // measure 53
0000
0000
0000
0000
0000
0000
0000
0001
,  // measure 54
0000
0000
0000
0000
,  // measure 55
0000
0000
0000
0000
0000
0000
0000
1001
,  // measure 56
0000
0000
0000
1001
0000
0000
0000
1001
,  // measure 57
0000
0000
0000
1001
0000
0000
0010
0000
,  // measure 58
0000
0000
0000
0010
,  // measure 59
0000
0000
0000
0100
,  // measure 60
0000
0000
0000
0000
,  // measure 61
0000
0000
0000
0010
,  // measure 62
0000
0000
0000
1000
,  // measure 63
0000
0000
0000
0001
,  // measure 64
0000
0000
0000
0001
,  // measure 65
0000
0000
1000
1000
,  // measure 66
0000
0000
0000
0010
,  // measure 67
0000
0000
0000
0100
,  // measure 68
0000
0000
0000
0001
,  // measure 69
0000
0000
0000
0001
,  // measure 70
0000
0000
0000
1000
,  // measure 71
0000
0000
0000
0010
,  // measure 72
0000
0000
0000
0100
,  // measure 73
0100
0000
0100
0000
0100
0000
0000
0110
,  // measure 74
0000
0000
0000
0000
,  // measure 75
0000
0000
0000
0000
0000
0000
0000
0010
,  // measure 76
0000
0000
0000
0000
,  // measure 77
0000
0000
0000
0000
0000
0000
0000
1000
,  // measure 78
0000
0000
0000
0000
,  // measure 79
0000
0000
0000
0000
0000
0000
0000
0001
,  // measure 80
0000
0000
0000
0000
,  // measure 81
0000
0000
0000
0000
0000
0000
0000
0010
,  // measure 82
0000
0000
0000
0010
0000
0000
0000
0100
,  // measure 83
0000
0000
0000
0100
0000
0000
0000
1000
,  // measure 84
0000
0000
0000
1000
0000
0000
0000
0001
,  // measure 85
0000
0000
0000
0000
0000
0000
0000
1000
,  // measure 86
0000
0000
0000
0000
0000
0001
0000
0000
,  // measure 87
0000
0000
1000
0000
,  // measure 88
0000
0020
0000
0000
,  // measure 89
0000
0030
0000
0000
;
