#TITLE:Szamar Madar;
#SUBTITLE:;
#ARTIST:Venetian Snares;
#TITLETRANSLIT:;
#SUBTITLETRANSLIT:;
#ARTISTTRANSLIT:;
#CREDIT:;
#BANNER:bn.png;
#BACKGROUND:bg.png;
#LYRICSPATH:;
#CDTITLE:;
#MUSIC:Szamár Madár.mp3;
#OFFSET:-0.018;
#SAMPLESTART:38.600;
#SAMPLELENGTH:12.000;
#SELECTABLE:YES;
#BPMS:0.000=87.000,28.000=174.000,81.000=87.000,82.000=174.000,149.000=21.750,151.875=1392.000,267.875=696.000,269.000=174.006,274.000=87.003,291.500=174.006,347.500=87.006;
#STOPS:148.000=1.724
,156.000=0.020
;
#BGCHANGES:0.000=bga.avi=1.000=1=0=1,
347.500=bg.png=1.000=1=0=1,
99999=-nosongbg-=1.000=0=0=0 // don't automatically add -songbackground-
;

//---------------dance-single - ----------------
#NOTES:
     dance-single:
     :
     Hard:
     9:
     0.439,0.738,0.295,0.303,0.038: // measure 1
0000
0000
0000
0000
,  // measure 2
0000
0000
0000
0000
,  // measure 3
0000
0000
0000
0000
,  // measure 4
0000
0000
0000
0000
0000
0000
0000
1000
0200
0000
2000
0000
0000
0000
0000
0000
,  // measure 5
0000
0000
0000
0000
3300
0001
0010
0000
0002
0000
0000
0000
0000
0000
0000
0000
,  // measure 6
0000
0003
1000
0020
0000
0000
0000
0030
,  // measure 7
0000
0200
0000
0310
0000
2000
0000
3001
,  // measure 8
0010
0000
1001
0000
0010
0010
0000
0100
,  // measure 9
0010
0000
0000
0010
1000
0001
0010
0001
,  // measure 10
0100
0000
0010
1000
0000
1000
0001
0000
,  // measure 11
0001
0100
0010
0000
0200
0000
0310
0000
,  // measure 12
0010
0100
0001
0000
1000
0001
0100
0000
,  // measure 13
0011
0000
0000
0000
0001
0000
0000
0100
0000
0000
0010
0000
0100
0000
0000
0000
,  // measure 14
1001
0000
0001
0100
0010
1000
0100
0010
,  // measure 15
0001
0000
0200
0000
0010
0000
0310
1000
,  // measure 16
1001
0011
0110
0010
,  // measure 17
0010
0001
1000
0010
0000
0010
1000
0100
,  // measure 18
1000
1000
0010
0000
0200
0000
0010
0000
,  // measure 19
0310
1000
0001
0010
0000
1010
0000
0100
,  // measure 20
0101
0000
0000
0000
0001
0000
0000
1000
0000
0000
0010
0000
0100
0000
0000
0000
,  // measure 21
0110
1001
0000
1002
,  // measure 22
0013
0000
0001
0100
0020
0000
0130
0000
,  // measure 23
0010
1000
0200
0000
1300
0000
1000
0010
,  // measure 24
0200
0301
0011
1100
,  // measure 25
1000
0100
0120
0000
0130
0000
0010
0001
,  // measure 26
0200
0000
0310
0000
0010
0100
0020
0000
,  // measure 27
0130
0000
0010
1000
0002
0000
0013
0001
,  // measure 28
0010
0010
0001
0000
0001
0101
0002
0000
,  // measure 29
0013
0000
0010
0001
0200
0000
0310
0000
,  // measure 30
0010
0100
0020
0000
0130
0000
0010
1000
,  // measure 31
0200
0000
1300
0100
1000
0010
0100
0100
,  // measure 32
0010
0100
0001
0010
0001
0000
0001
0100
,  // measure 33
0020
0000
0130
0000
0110
0000
0010
1000
,  // measure 34
0001
0000
0001
0010
0001
0000
1001
0000
,  // measure 35
1001
0000
0000
0000
1001
0000
0000
0000
0000
0000
0000
0100
0010
0000
0100
0000
,  // measure 36
0010
1000
0001
0010
0001
1000
0100
0000
,  // measure 37
1100
0000
1000
1000
0020
0030
0100
0001
,  // measure 38
0010
0000
0000
0000
0000
0000
0000
0000
2000
0000
3000
0000
0000
0000
0000
0000
0000
0000
0000
0000
0000
0000
0000
0000
0000
0000
0000
0000
0000
0000
0000
2002
,  // measure 39
0000
0000
0000
0000
,  // measure 40
0000
0000
0000
0000
,  // measure 41
0000
0000
0000
0000
,  // measure 42
0000
0000
0000
0000
,  // measure 43
0000
0000
0000
0000
,  // measure 44
0000
0000
0000
0000
,  // measure 45
0000
0000
0000
0000
,  // measure 46
0000
0000
0000
0000
,  // measure 47
0000
0000
0000
0000
,  // measure 48
0000
0000
0000
0000
,  // measure 49
0000
0000
0000
0000
,  // measure 50
0000
0000
0000
0000
,  // measure 51
0000
0000
0000
0000
,  // measure 52
0000
0000
0000
0000
,  // measure 53
0000
0000
0000
0000
,  // measure 54
0000
0000
0000
0000
,  // measure 55
0000
0000
0000
0000
,  // measure 56
0000
0000
0000
0000
,  // measure 57
0000
0000
0000
0000
,  // measure 58
0000
0000
0000
0000
,  // measure 59
0000
0000
0000
0000
,  // measure 60
0000
0000
0000
0000
,  // measure 61
0000
0000
0000
0000
,  // measure 62
0000
0000
0000
0000
,  // measure 63
0000
0000
0000
0000
,  // measure 64
0000
0000
0000
0000
,  // measure 65
0000
0000
0000
0000
,  // measure 66
0000
0000
0000
0000
,  // measure 67
0000
0000
0000
0000
,  // measure 68
0000
0000
0000
0000
3003
0000
0001
0001
,  // measure 69
0100
0010
0010
0000
2010
0000
0010
0000
,  // measure 70
0100
0000
3001
0100
0020
0000
0000
0000
,  // measure 71
0000
0000
0230
0010
0000
0000
0000
0000
,  // measure 72
0000
0320
0100
0000
0000
0000
0000
0000
,  // measure 73
0230
0002
0000
0000
0000
0000
0300
1003
,  // measure 74
0100
1100
0000
0001
0100
0101
0000
0001
,  // measure 75
1000
1001
1000
0100
1100
1000
1000
0010
,  // measure 76
0100
0000
0010
0010
1000
0000
0001
0010
,  // measure 77
0000
0100
1000
0000
1000
0002
0000
0010
,  // measure 78
0000
0013
0000
0011
0000
1100
0000
0011
,  // measure 79
0010
0001
0100
0100
0010
1000
0001
0100
,  // measure 80
0001
0000
0001
0011
0011
0000
0001
0100
,  // measure 81
0010
1000
0200
1300
0000
1100
0000
1000
,  // measure 82
0010
0100
0000
0010
0100
0000
0010
1000
,  // measure 83
0001
0100
0010
1000
0001
0010
0001
0100
,  // measure 84
0010
1000
0100
1100
0000
1000
1000
0000
,  // measure 85
0001
0000
0001
0000
0000
0000
0001
0000
0100
0000
0010
0100
0010
0100
0010
0000
,  // measure 86
0100
0110
0100
1001
0100
0100
0010
1000
,  // measure 87
0001
0000
0001
0000
0010
0000
0100
0000
1000
0000
0001
1000
0100
0000
2000
0000
,  // measure 88
0002
0000
0000
0000
0000
3003
0000
0000
;

//---------------dance-single - ----------------
#NOTES:
     dance-single:
     :
     Medium:
     6:
     0.309,0.480,0.227,0.261,0.004:
0000
0000
0000
0000
,
0000
0000
0000
0000
,
0000
0000
0000
0000
,
0000
0000
0000
0000
0001
0200
0000
0000
,
0300
0000
0000
0010
0200
0000
0000
0000
,
0300
0000
0020
2000
0000
0000
0000
3030
,
0000
1000
0000
0001
0000
0100
0000
0010
,
0100
0000
0010
0000
1000
0010
0000
0100
,
0010
0000
0000
0010
0100
0000
0010
0000
,
1000
0000
0001
1000
0000
0001
0100
0000
,
0001
0100
0001
0000
0100
0000
0020
0000
,
0000
0100
0030
0010
1000
0000
0001
0000
,
1100
1000
0001
0100
,
0010
0000
0100
0000
0010
1000
0001
0000
,
1001
0000
0101
0000
0001
0100
0000
0100
,
0010
0000
0010
0010
0010
0000
0010
0000
,
0010
0000
1000
0001
0000
0001
1000
0000
,
1000
0100
0010
0000
0011
0000
0011
0000
,
0001
0100
0010
0100
0010
0000
0010
0000
,
1000
0001
0000
1000
,
0000
1001
0000
0002
,
0000
0100
0200
0303
,
0010
0020
0000
1000
,
1000
0000
0100
0200
,
0330
0120
0000
1000
,
2000
3030
1000
2000
,
0000
0100
0200
3300
,
1000
0000
1010
0000
0000
0001
0200
0000
,
0000
0010
0020
0330
,
0010
0020
0000
1000
,
2000
0000
3030
0000
0010
0000
0010
1000
,
0001
1000
0002
0000
0000
0000
0100
0000
,
0200
0303
0001
0020
,
0000
0000
0001
0030
0011
0000
0011
0000
,
1100
1100
0000
0220
,
0000
0000
0000
0330
,
0000
0010
1000
0001
,
0100
0000
0000
0000
0000
0000
0000
0000
0000
0000
0000
0000
0000
0000
0000
0000
0000
0000
0000
0000
0000
0000
0000
0000
0000
0000
0000
0000
0000
0000
0000
0000
0000
0000
0000
0000
0000
0000
0000
0000
0000
0000
0000
0000
0000
0000
0000
0000
0020
0000
0000
0000
0000
0000
0000
0000
0030
0000
0000
0000
0000
0000
0000
0000
0000
0000
0000
0000
0000
0000
0000
0000
0000
0000
0000
0000
0000
0000
0000
0000
0000
0000
0000
0000
0000
0000
0000
0000
0000
0000
0000
0000
0000
0000
0000
0000
0000
0000
0000
0000
0000
0000
0000
0000
0000
0000
0000
0000
0000
0000
0000
0000
0000
0000
0000
0000
0000
0000
0000
0000
0000
0000
0000
0000
0000
0000
0000
0000
0000
0000
0000
0000
0000
0000
0000
0000
0000
0000
0000
0000
0000
0000
0000
0000
0000
0000
0000
0000
0000
0000
0000
0000
0000
0000
0000
0000
0000
0000
0000
0000
0000
0000
0000
0000
0000
0000
0000
0000
0000
0000
0000
0000
0000
0000
0000
0000
0000
0000
0000
0000
0000
0000
0000
0000
0000
0000
2002
0000
0000
0000
0000
0000
,
0000
0000
0000
0000
,
0000
0000
0000
0000
,
0000
0000
0000
0000
,
0000
0000
0000
0000
,
0000
0000
0000
0000
,
0000
0000
0000
0000
,
0000
0000
0000
0000
,
0000
0000
0000
0000
,
0000
0000
0000
0000
,
0000
0000
0000
0000
,
0000
0000
0000
0000
,
0000
0000
0000
0000
,
0000
0000
0000
0000
,
0000
0000
0000
0000
,
0000
0000
0000
0000
,
0000
0000
0000
0000
,
0000
0000
0000
0000
,
0000
0000
0000
0000
,
0000
0000
0000
0000
,
0000
0000
0000
0000
,
0000
0000
0000
0000
,
0000
0000
0000
0000
,
0000
0000
0000
0000
,
0000
0000
0000
0000
,
0000
0000
0000
0000
,
0000
0000
0000
0000
,
0000
0000
0000
0000
,
0000
0000
0000
0000
,
0000
0000
0000
0000
,
0000
0000
0000
0000
0000
0000
0000
0000
0000
0000
0000
0000
0000
0000
0000
0000
0000
0000
0000
3003
0000
0000
0000
0000
0000
0000
0000
0000
0001
0000
0000
0000
,
0100
0010
0011
0010
,
0100
1000
0020
0000
,
0030
0000
0000
0020
0000
0000
0000
0030
,
0000
0020
0000
0030
,
0000
0020
0000
0000
0000
0030
0000
0110
,
0000
0010
0000
1001
0000
0010
0000
1001
,
0000
0101
0000
1100
0000
1000
0000
0100
,
1000
0000
0010
0100
0000
0010
0000
0100
,
0000
0010
0000
1000
0000
0010
1000
0010
,
0000
1000
0000
1100
0000
0101
0000
1100
,
0000
0101
0000
0001
1000
0001
1000
0001
,
0000
0001
0000
0100
0000
0010
0000
0100
,
0000
0110
0000
0010
1000
0010
0000
1000
,
0000
0100
1000
0100
1000
0100
0000
0010
,
0000
0011
0001
0100
0010
0000
0010
0100
,
0000
0010
0000
1000
0000
0010
0100
0010
,
0000
0010
0000
1000
0001
1000
0001
0000
,
0000
0100
0010
1000
,
0001
0000
0100
0000
0010
0000
1000
2002
,
0000
0000
0000
0000
0000
3003
0000
0000
;

//---------------dance-single - ----------------
#NOTES:
     dance-single:
     :
     Easy:
     5:
     0.268,0.517,0.185,0.388,0.004:
0000
0000
0000
0000
,
0000
0000
0000
0000
,
0000
0000
0000
0000
,
0000
0000
0020
0000
,
0000
0030
0020
0000
,
0000
0030
0000
0020
0000
0000
0000
0000
,
0030
0000
0000
0000
,
0001
0100
0010
0000
,
0010
0000
0100
0010
,
1000
0001
0100
0001
,
0100
0010
1000
1000
,
0000
0001
1000
0001
,
0100
0010
0000
1000
,
0000
0100
0000
0010
,
0011
0001
0010
0100
,
0010
0001
0001
0001
,
0100
0000
0010
1000
,
0001
0100
0010
2000
,
0000
0000
0000
3000
,
0010
0100
0010
1000
,
0001
0101
0000
0001
,
0000
0200
0002
0303
,
2000
0200
3300
0020
,
0200
0330
0002
2000
,
3003
0202
0303
0002
,
0200
0303
0020
2000
,
3030
2000
0200
3300
,
0020
0002
0033
0202
,
0303
0002
0200
0303
,
0020
0200
0330
0020
,
2000
3030
2000
0200
,
3300
2200
3300
2000
,
0200
3300
0020
0002
,
0033
0001
0101
1100
,
0011
2002
3003
0202
,
0000
0000
0000
0000
,
0303
0001
0100
0010
,
0000
0000
0000
0000
0000
0000
0000
0000
0000
0000
0000
0000
0000
0000
0000
0000
0000
0000
0000
0000
0000
0000
0000
0000
0000
0000
0000
0000
0000
0000
0000
2002
,
0000
0000
0000
0000
,
0000
0000
0000
0000
,
0000
0000
0000
0000
,
0000
0000
0000
0000
,
0000
0000
0000
0000
,
0000
0000
0000
0000
,
0000
0000
0000
0000
,
0000
0000
0000
0000
,
0000
0000
0000
0000
,
0000
0000
0000
0000
,
0000
0000
0000
0000
,
0000
0000
0000
0000
,
0000
0000
0000
0000
,
0000
0000
0000
0000
,
0000
0000
0000
0000
,
0000
0000
0000
0000
,
0000
0000
0000
0000
,
0000
0000
0000
0000
,
0000
0000
0000
0000
,
0000
0000
0000
0000
,
0000
0000
0000
0000
,
0000
0000
0000
0000
,
0000
0000
0000
0000
,
0000
0000
0000
0000
,
0000
0000
0000
0000
,
0000
0000
0000
0000
,
0000
0000
0000
0000
,
0000
0000
0000
0000
,
0000
0000
0000
0000
,
0000
0000
0000
0000
0000
0000
0000
0000
0000
0000
0000
0000
0000
0000
0000
0000
0000
0000
0000
0000
0000
0000
0000
0000
0000
0000
0000
0000
0000
0000
0000
3003
,
0000
0010
0010
0000
1001
0000
0001
0000
,
0100
0000
1000
0100
0000
0000
0000
0000
,
0000
0100
0000
0000
,
0000
0100
0000
0000
0000
0000
0000
0000
,
0100
0000
0000
0000
0000
0000
0000
0100
,
0000
0110
0000
0010
0000
0110
0000
0010
,
0000
0010
0000
0010
0000
1000
0000
0001
,
0000
0100
0000
0100
0000
0001
0000
1000
,
0000
1100
0000
0100
0000
1100
0000
0010
,
0000
0011
0000
0011
0000
1100
0000
0011
,
0000
0101
0000
0010
0000
0100
0000
1000
,
0000
0001
0000
0100
0000
0010
0000
1000
,
0000
1000
0000
0001
0000
0001
0000
1000
,
0000
0001
0000
0100
0000
1000
0000
0100
,
0000
0001
0000
0010
0000
1000
0000
0010
,
0000
0001
0000
0100
0000
0100
0000
0010
,
0000
0010
0000
1000
0000
0001
0000
0100
,
0000
0010
0000
1000
0000
0100
0000
0010
,
0000
0001
0000
0100
0000
0010
0000
2002
,
0000
0000
0000
0000
0000
3003
0000
0000
;

//---------------dance-single - ----------------
#NOTES:
     dance-single:
     :
     Beginner:
     2:
     0.149,0.256,0.067,0.000,0.000:
0000
0000
0000
0000
,
0000
0000
0000
0000
,
0000
0000
0000
0000
,
0000
0000
0010
0000
,
0000
0000
0000
0010
0000
0000
0000
0000
,
0000
1000
0000
0000
,
0000
0000
0000
0000
,
0001
0000
0000
0000
,
1000
0000
0010
0010
,
0000
0000
0000
0100
,
0100
0100
0010
0000
,
0010
0000
1000
0000
,
0001
0001
0000
1000
,
0000
0100
0000
0000
,
0110
0000
0000
0000
,
0010
0000
0010
1000
,
0000
0000
0000
1000
,
1000
1000
0001
0000
,
1000
0000
0010
0000
,
0100
0100
0000
0010
,
0000
1001
0000
0100
,
0000
0010
0010
0000
,
0010
0010
0000
0010
,
0010
0000
0010
0010
,
0000
1001
0000
1000
,
1000
0000
1000
1000
,
0000
1000
1000
0000
,
1000
1000
0000
1001
,
0000
0001
0001
0000
,
0001
0001
0000
0001
,
0001
0000
0001
0001
,
0000
0100
0000
0010
,
1000
0000
0010
0100
,
0000
0010
1000
1000
,
1000
1001
0000
1001
,
0000
0000
0000
0000
,
0010
0000
0010
0000
,
0000
0100
0000
0000
,
0000
0000
0000
0000
,
0000
0000
0000
0000
,
0000
0000
0000
0000
,
0000
0000
0000
0000
,
0000
0000
0000
0000
,
0000
0000
0000
0000
,
0000
0000
0000
0000
,
0000
0000
0000
0000
,
0000
0000
0000
0000
,
0000
0000
0000
0000
,
0000
0000
0000
0000
,
0000
0000
0000
0000
,
0000
0000
0000
0000
,
0000
0000
0000
0000
,
0000
0000
0000
0000
,
0000
0000
0000
0000
,
0000
0000
0000
0000
,
0000
0000
0000
0000
,
0000
0000
0000
0000
,
0000
0000
0000
0000
,
0000
0000
0000
0000
,
0000
0000
0000
0000
,
0000
0000
0000
0000
,
0000
0000
0000
0000
,
0000
0000
0000
0000
,
0000
0000
0000
0000
,
0000
0000
0000
0000
,
0000
0000
0000
0000
,
0000
0000
0000
0000
,
0000
0000
0000
0000
,
0000
0000
0010
0000
,
0010
0000
0000
1000
0000
0000
0000
0000
,
0000
1000
0000
0000
,
0000
0001
0000
0000
0000
0000
0000
0000
,
0001
0000
0000
0000
0000
0000
0000
0001
,
0000
0000
0000
0001
0000
0000
0000
1000
,
0000
1000
0000
1000
0000
0010
0000
0000
,
0000
0100
0000
0000
0000
0010
0000
0000
,
0000
1000
0000
0001
0000
0000
0000
0001
,
0000
0000
0000
1000
0000
1000
0000
1000
,
0000
1001
0000
0000
0000
0010
0000
0000
,
0000
0100
0000
0000
0000
0010
0000
0010
,
0000
0000
0000
1000
0000
0000
0000
0010
,
0000
0010
0000
0100
0000
0010
0000
0000
,
0000
1000
0000
0000
0000
0001
0000
0000
,
0000
0001
0000
1000
0000
1000
0000
0001
,
0000
0000
0000
1000
0000
0000
0000
0001
,
0000
0000
0000
0100
0000
0000
0000
0010
,
0000
1000
0000
0010
0000
0100
0000
1001
;
