#TITLE:Stomp;
#SUBTITLE:;
#ARTIST:Dougal & Gammer;
#TITLETRANSLIT:;
#SUBTITLETRANSLIT:;
#ARTISTTRANSLIT:;
#CREDIT:;
#BANNER:bnstomp.png;
#BACKGROUND:bgstomp.png;
#LYRICSPATH:;
#CDTITLE:;
#MUSIC:Stomp.mp3;
#OFFSET:-0.060;
#SAMPLESTART:77.340;
#SAMPLELENGTH:12.000;
#SELECTABLE:YES;
#DISPLAYBPM:87.000:174.000;
#BPMS:0.000=86.880,16.000=347.521,52.000=173.900;
#STOPS:16.000=0.173
,17.000=0.173
,18.000=0.173
,19.000=0.173
,20.000=0.173
,21.000=0.173
,22.000=0.173
,23.000=0.173
,24.000=0.173
,25.000=0.173
,26.000=0.173
,27.000=0.173
,28.000=0.173
,29.000=0.173
,30.000=0.173
,31.000=0.173
,32.000=0.173
,33.000=0.173
,34.000=0.173
,35.000=0.173
,36.000=0.173
,37.000=0.173
,38.000=0.173
,39.000=0.173
,40.000=0.086
,40.500=0.086
,41.000=0.086
,41.500=0.086
,42.000=0.086
,42.500=0.086
,43.000=0.086
,43.500=0.086
,148.000=8.287
,188.000=0.863
,188.250=0.173
;
#BGCHANGES:;

//---------------dance-double - xRGTMx----------------
#NOTES:
     dance-double:
     xRGTMx:
     Hard:
     9:
     0.590,0.662,0.612,0.191,0.036:
00000000
00000000
00000000
00000000
,
00000000
00000000
00000000
00000000
,
00000000
00000000
00000000
00000000
,
00000000
00000000
00000000
00000000
,
01000000
01000000
01000000
01000000
,
00010000
00010000
00010000
00010000
,
00100000
00100000
00100000
00100000
,
00002000
00000000
00000000
00003000
,
00110000
01010000
00101000
00011000
,
00010100
00001010
00000101
00001001
,
00000001
00001000
00000100
00010000
00001000
00100000
00010000
10000000
,
20020000
00000000
00000000
00000000
,
30030000
00000000
00000000
00000000
,
10000000
00010000
01000000
00010000
00100000
00000000
11000000
00000000
,
00100000
00010000
01000000
00001000
00010000
00000000
00011000
00000000
,
00010000
00000100
00000010
00000001
00000100
00000000
00001010
00000000
,
00000100
00000001
00001000
00000100
00011000
00000000
10010000
00000000
,
01000000
00001000
00100000
01000000
10000000
00000000
00011000
00000000
,
00100000
00001000
00010000
00000010
00000100
00000000
00000011
00000000
,
00001000
00010000
01000000
10000000
00100000
00000000
01010000
00000000
,
10000000
00100000
00010000
00001000
00000110
00000000
00001001
00000000
,
00001000
00010000
01000000
00010000
00011000
00000000
00011000
00000000
,
00010000
00001000
00000100
00001000
00011000
00000000
00011000
00000000
,
00010000
01000000
00100000
10000000
10010000
00000000
00011000
00000000
,
00001000
00000100
00000010
00000001
00001001
00000000
00011000
00000000
,
00001000
00010000
00100000
00010000
00011000
00000000
00011000
00000000
,
00010000
00001000
00000010
00001000
00011000
00000000
00011000
00000000
,
00010000
00100000
01000000
10000000
10010000
00000000
00011000
00000000
,
00001000
00000010
00000100
00000001
00001001
00000000
00011000
00000000
,
20010000
00000000
00000000
00000000
,
00100000
00000000
00000000
00100000
00000000
00000000
00010000
00000000
00000000
00010000
00000000
00000000
30002000
00000000
00000000
00000000
,
00000000
00000000
00000000
00000000
,
00000000
00000000
00000000
00000000
,
00010000
00000000
00000000
00010000
00000000
00000000
00010000
00000000
00000000
00010000
00000000
00000000
00023000
00000000
00000000
00000000
,
00000100
00000000
00000000
00000100
00000000
00000000
00000100
00000000
00000000
00000100
00000000
00000000
00030200
00000000
00000000
00000000
,
00000010
00000000
00000000
00000010
00000000
00000000
00001000
00000000
00000000
00001000
00000000
00000000
00000301
00000000
00000000
00000000
,
00000000
00000000
00000000
00000000
,
22000000
33000000
00000000
00000000
00000000
00000000
00000000
00000000
00000000
00000000
00000000
00000000
00000000
00000000
00000000
00000000
,
00000000
00000000
00000000
00000000
,
00011000
00000000
00110000
00000000
,
00011000
00000000
00001010
00000000
,
00011000
00000000
01010000
00000000
,
00011000
00000000
00001100
00000000
,
00011000
00110000
00011000
00001010
,
00011000
01010000
00011000
00010100
,
00011000
00010000
00100000
00010000
00011000
00001000
00000010
00001000
,
00011000
00010000
00000100
00001000
00000010
00000100
00000001
00000010
,
00001100
00010000
00010000
00000000
10000000
00000000
00010000
00000000
01000000
00000000
00100000
00000000
01000000
00000000
00001000
00000000
,
00011000
00000000
00010000
00000010
00001000
00000001
00000100
00000010
,
00001001
00000000
00000100
00010000
00001000
00100000
00001000
00010000
,
00011000
00000000
01000000
00001000
00010000
00000010
00010000
00001000
,
00011000
00000000
10000000
01000000
00100000
00001000
00010000
00000100
,
00000110
00000000
00000001
00000100
00000010
00010000
00001000
01000000
,
01100000
00000000
10000000
00010000
01000000
00001000
00010000
00000100
,
00011000
00000000
00000001
00001000
00000100
00010000
00001000
01000000
,
10010000
00000000
10000000
00100000
00010000
00100000
01000000
00001000
,
00011000
00000000
00000001
00000010
00001000
00000010
00000100
00001000
,
00011000
00000000
10000000
01000000
00100000
00010000
00000100
00000010
,
00001000
00000001
00000010
00000100
00001000
01000000
00100000
00010000
,
10010000
00000000
10000000
01000000
00010000
01000000
00100000
00001000
,
00011000
00000000
00000001
00000100
00001000
00000100
00000010
00001000
,
00011000
00000000
10000000
00100000
01000000
00010000
00000010
00000100
,
00001000
00000001
00000100
00000010
00001000
00100000
01000000
00010000
,
10010000
00000000
10000000
01000000
00100000
00020000
01000000
01000000
,
01030000
00000000
01000000
00001000
00010000
00000200
00001000
00001000
,
00001300
00000000
00001000
00000010
00000100
00000002
00000010
00000010
,
00000013
00000000
00000010
00000100
00001000
00010000
00002000
00100000
,
00103000
00000000
00100000
01000000
10000000
00010000
02010000
00010000
,
03010000
00000000
01000000
00001000
00010000
00000100
00000210
00000010
,
00000310
00000000
00000010
00000001
00000100
00000010
00002010
00000100
,
00003100
00000000
00000100
00010000
00001000
00100000
00110000
00010000
,
10020000
00000000
10030000
01000000
00100000
00010000
01000000
00001000
,
00020000
00001000
00031000
00010000
00000100
00000010
00000001
00000100
,
00000020
00001000
00001030
00000100
00010000
00001000
00100000
00010000
,
02000000
00100000
03100000
10000000
01000000
00100000
00010000
00100000
,
00002000
00010000
00013000
00001000
00010000
00000100
00000010
00000001
,
00000200
00000010
00000310
00000100
00000001
00001000
00000100
00010000
,
00002000
00100000
00103000
01000000
10000000
00010000
01000000
00100000
,
20000000
00010000
30010000
01000000
00001000
00010000
00000010
00000100
,
00000010
00001000
00011000
00000000
00000000
00000000
00000000
00000000
;

//---------------dance-double - xRGTMx----------------
#NOTES:
     dance-double:
     xRGTMx:
     Medium:
     7:
     0.452,0.536,0.819,0.056,0.000:
00000000
00000000
00000000
00000000
,
00000000
00000000
00000000
00000000
,
00000000
00000000
00000000
00000000
,
00000000
00000000
00000000
00000000
,
00010000
00010000
00010000
00010000
,
00001000
00001000
00001000
00001000
,
00010000
00010000
00010000
00010000
,
00002000
00000000
00000000
00000000
,
00103000
00100000
01000000
10000000
,
01000000
00100000
00010000
00000010
,
00000001
00000000
00000010
00000100
00000010
00000100
00000010
00000000
,
00000220
00000000
00000000
00000000
,
00000330
00000000
00000000
00000000
,
00000010
00000100
00001100
00011000
,
00010000
00100000
01100000
11000000
,
10000000
00010000
01010000
00101000
,
00010000
00000100
00000011
00001100
,
00000001
00000010
00001100
00011000
,
00010000
00100000
11000000
01010000
,
10000000
00100000
01010000
00110000
,
00101000
00000000
00011000
00000000
00010000
00100000
00010000
10000000
,
01000000
00100000
00110000
00011000
,
00001000
00000100
00000110
00000011
,
00000001
00001000
00001010
00010100
,
00001000
00100000
11000000
00110000
,
10000000
01000000
00110000
00011000
,
00001000
00000100
00000011
00001010
,
00000001
00000100
00001010
00001100
,
00010100
00000000
00011000
00000000
00001000
00000100
00001000
00000000
,
00012000
00000000
00000000
00000000
,
00013000
00000000
00000000
00100000
00000000
00000000
02000000
00000000
,
00000000
00000000
00000000
03000000
,
00000000
00000000
00000000
00000000
,
10000000
00000000
00000000
01000000
00000000
00000000
00100000
00000000
,
00001000
00000000
00000000
00010000
00000000
00000000
00000100
00000000
,
00000010
00000000
00000000
00000001
00000000
00000000
00002000
00000000
,
00000000
00000000
00000000
00003000
,
00011000
00000000
00000000
00000000
,
00000000
00000000
00000000
00000000
,
10000000
00000000
00010000
00000000
,
01000000
00000000
00001000
00000000
,
00010000
00000000
00000100
00000000
,
00001000
00000000
00000001
00000000
,
00001000
00000001
00001000
00000100
,
00010000
00001000
01000000
00010000
,
10000000
10000000
00010000
00010000
,
10000000
01000000
10000000
01000000
00100000
01000000
00100000
00010000
,
00200000
00301000
00110000
00011000
,
00001010
00010000
01100000
10010000
,
01100000
00010000
10000000
01100000
,
00110000
00001000
00010100
00001010
,
00001100
00010000
00001100
00011000
,
01010000
00001000
00000110
00001001
,
00000110
00001000
00000001
00000110
,
00001100
00010000
00101000
01010000
,
00110000
10000000
01000000
00110000
,
00011000
00000100
00000010
00000101
,
00001100
00010000
00110000
11000000
,
00110000
00000000
10000000
00000000
00010000
01000000
00001000
00010000
,
00000100
00001000
00000001
00000000
00000010
00000000
00001100
00000000
,
00011000
00100000
01000000
10100000
,
00110000
00001000
00001100
00000011
,
00001100
00000000
00000001
00000000
00001000
00000010
00010000
00001000
,
00100000
00000000
01000000
10000000
01000000
10000000
01000000
00000000
,
10000000
11000000
01100000
00110000
,
00011000
00000000
00000100
00001000
00000100
00001000
00000100
00000000
,
00001000
00000011
00000110
00001100
,
00011000
00000000
00100000
00010000
00100000
00010000
00100000
00000000
,
00010000
11000000
00110000
00011000
,
00001001
00000000
00000010
00000001
00000010
00000001
00000010
00000000
,
00000001
00001100
00110000
01100000
,
11000000
00000000
00100000
10000000
00100000
10000000
00100000
00000000
,
10000000
10100000
01100000
01010000
,
00011000
00000000
00000010
00001000
00000010
00001000
00000010
00000000
,
00001000
00000101
00000110
00001010
,
00011000
00000000
01000000
00010000
01000000
00010000
01000000
00000000
,
00010000
10100000
01010000
00011000
,
00001001
00000000
00000100
00000001
00000100
00000001
00000100
00000000
,
00000001
00001100
00110000
01100000
,
11000000
00010000
00000000
00000000
;

//---------------dance-double - xRGTMx----------------
#NOTES:
     dance-double:
     xRGTMx:
     Easy:
     3:
     0.167,0.189,0.040,0.008,0.000:
00000000
00000000
00000000
00000000
,
00000000
00000000
00000000
00000000
,
00000000
00000000
00000000
00000000
,
00000000
00000000
00000000
00000000
,
10000000
00000000
10000000
00000000
,
10000000
00000000
10000000
00000000
,
10000000
00000000
10000000
00000000
,
00020000
00000000
00000000
00000000
,
01030000
00000000
01000000
00000000
,
00010000
00000000
00010000
00000000
,
00100000
00000000
00001000
00000000
,
00011000
00000000
00000000
00000000
,
00000000
00000000
00000000
00000000
,
10000000
10000000
10000000
00000000
,
00010000
00000000
00010000
00000000
,
01000000
01000000
01000000
00000000
,
00010000
00000000
00100000
00000000
,
00001000
00001000
00001000
00000000
,
00010000
00000000
00000100
00000000
,
00000010
00000000
00000001
00000000
,
00001001
00000000
00000000
00000000
,
00000001
00000001
00000001
00000000
,
00001000
00000000
00000100
00000000
,
00010000
00010000
00010000
00000000
,
00001000
00000000
01000000
00000000
,
00100000
00100000
00100000
00000000
,
01000000
00000000
00010000
00000000
,
10000000
00000000
00010000
00000000
,
01000000
00000000
00000000
00000000
,
00011000
00000000
00000000
00000000
,
00010000
00000000
00000000
00000000
,
00000000
00000000
00000000
00000000
,
00000000
00000000
00000000
00000000
,
00010000
00000000
00000000
00000000
,
00000100
00000000
00000000
00000000
,
00000010
00000000
00000000
00000000
,
00000000
00000000
00000000
00000000
,
00011000
00000000
00000000
00000000
,
00000000
00000000
00000000
00000000
,
10000000
00000000
00000000
00000000
,
01000000
00000000
00000000
00000000
,
00100000
00000000
00000000
00000000
,
00010000
00000000
00000000
00000000
,
00000100
00000000
00000100
00000000
,
00001000
00000000
00001000
00000000
,
00000001
00000000
00000001
00000000
,
00000010
00000000
00000000
00000000
,
00011000
10000000
00000000
10000000
,
00000000
10000000
00000000
00000000
,
00000000
00010000
00000000
00010000
,
00000000
00010000
00000000
00000000
,
00000000
01000000
00000000
01000000
,
00000000
01000000
00000000
00000000
,
00000000
00001000
00000000
00001000
,
00000000
00001000
00000000
00000000
,
00000000
00010000
00000000
00010000
,
00000000
00010000
00000000
00000000
,
00000000
00000100
00000000
00000100
,
00000000
00000100
00000000
00000000
,
00000000
00000010
00000000
00000010
,
00000000
00000010
00000000
00000000
,
00000000
00000001
00000000
00000001
,
00000000
00000001
00000000
00000000
,
00000000
00001000
00000100
00001000
,
00000000
00001000
00001000
00001000
,
00000000
00000100
00001000
00000100
,
00000000
00000100
00000100
00000100
,
00000000
00010000
00001000
00010000
,
00000000
00010000
00010000
00010000
,
00000000
00001000
00010000
00001000
,
00000000
00001000
00001000
00001000
,
00000000
00010000
00100000
00010000
,
00000000
10000000
10000000
10000000
,
00000000
01000000
10000000
01000000
,
00000000
01000000
01000000
01000000
,
00000000
00100000
00010000
00100000
,
00000000
00001000
00001000
00001000
,
00000000
00010000
00000100
00010000
,
00000000
00000010
00000010
00000010
,
00000000
00001000
00000000
00000000
;

//---------------dance-single - ----------------
#NOTES:
     dance-single:
     :
     Hard:
     9:
     0.544,0.709,1.000,0.127,0.000:
0000
0000
0000
0000
,
0000
0000
0000
0000
,
0000
0000
0000
0000
,
0000
0000
0000
0000
,
0001
1000
0001
1000
,
0001
1000
0001
1000
,
0001
0100
0010
1000
,
0200
1000
1000
1300
,
1100
0100
0010
0001
,
0100
0010
1000
0001
,
0001
0100
0010
1000
0100
0010
0001
1000
,
0202
0000
0000
0000
,
0000
0000
0000
0303
,
0001
0101
0100
0101
,
0001
0101
0100
0101
,
0001
0101
0100
0101
,
0001
0000
0101
0000
0100
0000
0001
1000
,
0010
1010
1000
1010
,
0010
1010
1000
1010
,
0010
1010
1000
1010
,
0010
0000
1010
0000
1100
0000
1000
0001
,
0100
0110
0010
1001
,
0100
1100
0010
0011
,
0100
1001
1000
1010
,
0001
0000
0101
0000
1000
0000
0001
0100
,
0110
0110
0110
0110
,
0101
1010
0101
1010
,
1100
0011
1100
0011
,
1100
0110
0011
0110
,
1002
0000
0000
0000
,
2000
0000
0000
3000
,
0000
0000
0000
0000
,
0000
0000
0000
0003
,
0200
0000
0000
0000
,
0320
0000
0000
0000
,
2000
0000
0000
3030
,
0000
0000
0000
0000
,
2002
3003
0000
0000
0000
0000
0000
0000
0000
0000
0000
0000
0000
0000
0000
0000
0000
0000
0000
0000
0000
0000
0000
0000
0000
0000
0000
0000
0000
0000
0000
0000
0000
0000
0000
0000
0000
0000
0000
0000
0000
0000
0000
0000
0000
0000
0000
0000
0000
0000
0000
0000
0000
0000
0000
0000
0000
0000
0000
0000
0000
0000
0000
0000
0000
0000
0000
0000
0000
0000
0000
0000
0000
0000
0000
0000
0000
0000
0000
0000
0000
0000
0000
0000
0000
0000
0000
0000
0000
0000
0000
0000
0000
0000
0000
0000
0000
0000
0000
0000
0000
0000
0000
0000
0000
0000
0000
0000
0000
0000
0000
0000
0000
0000
0000
0000
0000
0000
0000
0000
0000
0000
0000
0000
0000
0000
0000
0000
0000
0000
0000
0000
0000
0000
0000
0000
0000
0000
0000
0000
0000
0000
0000
0000
0000
0000
0000
0000
0000
0000
0000
0000
0000
0000
0000
0000
0000
0000
0000
0000
0000
0000
0000
0000
0000
0000
0000
0000
0000
0000
0000
0000
0000
0000
0000
0000
0000
0000
0000
0000
0000
0000
0000
0000
0000
0000
0000
0000
0000
0000
0000
0000
,
0000
0000
0000
0000
,
1100
1000
0110
0010
,
0011
0100
0110
1000
,
1001
0100
0101
0010
,
1100
0010
0101
0010
,
0110
1010
1100
0011
,
0101
1010
0101
1100
,
1000
0001
0100
0010
0001
0010
0100
1000
,
0100
0100
1000
0010
0100
0001
1000
0001
,
0100
0000
0010
1000
0001
0100
0101
0000
,
1010
0000
1000
0100
0010
0100
1000
0000
,
1100
0000
1000
0100
1100
0000
0010
0001
,
0011
0000
0001
0100
0010
1000
1010
0000
,
0101
0000
0001
0100
0010
1000
1100
0000
,
1100
0000
1000
0100
0010
0001
0011
0000
,
0011
0000
0001
0100
0110
0000
0010
1000
,
1010
0000
0010
1000
0001
0100
0101
0000
,
1010
0000
0001
0100
0010
1000
1100
0000
,
1100
0000
1000
0100
0010
0001
0011
0000
,
0011
0000
0001
0100
0010
1000
0100
1000
,
0100
0010
0100
0001
1000
0010
1010
0000
,
1010
0000
1000
0100
0010
0001
0010
0000
,
0011
0000
0001
0100
0010
1000
1001
0000
,
1001
0000
0001
0100
0110
0000
0010
1000
,
1010
0000
1000
0100
0010
0001
0011
0000
,
0011
0000
0001
0100
0000
0101
0000
1000
,
0000
1100
0000
0010
0000
0110
0000
0001
,
0000
1001
0000
1100
0000
0101
0000
1100
,
0000
0101
0000
0110
0000
0110
0000
0110
,
0000
0010
1000
0001
0000
1001
0000
1000
,
0000
1100
0000
0010
0000
0011
0000
0001
,
0000
0101
0000
1100
0000
0011
0000
0110
,
0000
1001
0000
0110
0000
1100
0000
0011
,
0000
1000
0001
0101
0000
0101
0000
0011
,
0000
1010
0000
1100
0000
1010
0000
0101
,
0000
0011
0000
1100
0000
0011
0000
1010
,
0000
0101
0000
1010
0000
1100
0000
1010
,
0000
0001
0100
0010
0101
0001
0100
0010
,
1010
1000
0100
0010
0011
0001
0100
0010
,
1001
0001
0100
0010
1010
1000
0100
1000
,
1010
0100
0010
1000
0010
0001
0010
1000
,
0100
0001
0220
0030
0020
0030
0020
0030
,
0020
0030
0020
0000
0000
0000
0000
0000
,
0330
0000
0000
0000
;

//---------------dance-single - ----------------
#NOTES:
     dance-single:
     :
     Medium:
     7:
     0.446,0.574,0.795,0.143,0.000:
0000
0000
0000
0000
,
0000
0000
0000
0000
,
0000
0000
0000
0000
,
0000
0000
0000
0000
,
1000
0001
1000
0001
,
1000
0001
1000
0001
,
1000
0001
1000
0001
,
1000
0001
1000
0001
,
1001
1001
1001
1001
,
1001
1001
1001
1001
,
1001
1100
0110
0011
,
0202
0000
0000
0000
,
0000
0000
0000
0303
,
0001
1000
1001
1001
,
0001
0010
0011
0011
,
0010
0100
0110
0110
,
0100
1000
1100
1100
,
1000
0010
1010
1010
,
0010
0100
0110
0110
,
0100
0001
0101
0101
,
0001
1000
1001
1001
,
0001
0100
0110
1001
,
1000
0100
0110
0011
,
0001
0100
1010
0101
,
1000
0001
1001
1010
,
1000
0100
0011
0011
,
0001
0100
1010
1010
,
1000
0001
1001
0110
,
0010
0100
1000
0100
,
0002
0000
0000
0000
,
2000
0000
0000
0000
,
3000
0000
0000
0000
,
0000
0000
0000
0000
,
2000
0000
0000
3000
,
2000
0000
0000
3000
,
2000
0000
0000
0000
,
3003
0000
0000
0000
,
0110
0000
0000
0000
,
0000
0000
0000
0000
,
0110
0000
0001
0000
,
1000
0000
0001
0000
,
1100
0000
0110
0000
,
0011
0000
0001
0000
,
0100
0100
0010
0010
,
0100
0010
1000
0001
,
1000
0001
0100
0010
1000
0100
0010
0001
,
0020
0000
0000
0000
,
0000
0030
0000
0000
0001
0000
0000
0000
0100
0000
0000
0000
0101
0000
0000
0000
,
0101
0100
0010
1001
,
0101
0002
0100
0203
,
0310
0100
0010
1001
,
0101
0001
0100
1100
,
0101
1000
0001
0110
,
1001
0200
0310
0020
,
0130
0000
0001
1000
0100
1000
0020
0000
,
0130
0101
0101
0011
,
0011
0101
1001
1100
,
1100
1002
1003
2001
,
3001
0110
0110
0110
,
0110
1001
0101
0021
,
0031
0110
1100
1020
,
1030
1100
1100
0101
,
0101
1001
1001
0110
,
0110
0000
1000
0001
0000
0001
0000
0001
,
0000
0010
0000
0001
0000
0100
0000
0010
,
0000
1000
0000
0011
0000
1001
0000
1100
,
0000
1001
0000
0101
0000
1001
0000
0110
,
0000
1000
0001
0100
0000
0010
0000
1000
,
0000
0001
0000
0010
0000
0001
0000
0100
,
0000
0010
0000
1001
0000
1100
0000
0011
,
0000
0101
0000
1010
0000
1001
0000
0011
,
0000
1000
0001
0010
0001
0000
0100
0010
,
1000
0000
0001
0010
0001
0000
0001
0100
,
0010
0000
0010
1000
0100
1000
0010
0100
,
0010
0000
0010
1000
0001
0010
0001
0100
,
0010
0000
0010
1000
0100
0000
0100
1000
,
0010
0000
0100
0010
1000
0000
1000
0001
,
0010
0000
0001
1000
0001
0000
1000
0001
,
0100
0000
0001
0100
0010
0000
0010
1000
,
0100
0020
0000
0000
,
0000
0030
0000
0000
;

//---------------dance-single - ----------------
#NOTES:
     dance-single:
     :
     Easy:
     4:
     0.319,0.451,0.477,0.064,0.000:
0000
0000
0000
0000
,
0000
0000
0000
0000
,
0000
0000
0000
0000
,
0000
0000
0000
0000
,
0000
0000
0000
0000
,
0000
0000
0000
0000
,
0000
0000
0000
0000
,
0002
0000
0000
0000
,
1003
0000
0000
0000
,
0000
0000
0000
0000
,
0000
0000
0000
0000
,
0000
0000
0000
0000
,
0000
0000
0000
0000
,
0010
0010
0110
0110
,
0100
0100
0110
0110
,
0010
0010
0110
0110
,
0100
0100
0110
0110
,
0001
0001
1001
1001
,
1000
1000
1001
1001
,
0001
0001
1001
1001
,
1000
1000
1001
1001
,
1000
1000
0100
0100
,
1100
1100
1100
1100
,
0010
0010
0001
0001
,
0011
0011
0011
0011
,
0100
0100
0001
0001
,
0101
0101
0101
0101
,
0010
0010
1000
1000
,
1010
1010
1010
1010
,
1001
0000
0000
0000
,
0000
0000
0000
0000
,
0000
0000
0000
0000
,
0000
0000
0000
0000
,
0010
0000
0000
0000
,
1000
0000
0000
0000
,
0100
0000
0000
0000
,
0000
0000
0000
0000
,
0110
0000
0000
0000
,
0000
0000
0000
0000
,
0010
0000
1000
0000
,
0001
0000
0010
0000
,
0100
0000
0010
0000
,
0001
0000
0100
0000
,
0010
0000
1000
0000
,
0010
0000
0100
0000
,
0010
1000
0001
0010
,
0100
0010
0100
0010
,
0011
0001
0100
0110
,
0110
0010
1000
1001
,
1001
0101
0000
1100
,
0000
1000
0010
0110
,
0110
0010
1000
1001
,
1001
0001
0100
0110
,
0101
0100
0000
0010
,
0000
1000
0001
0101
,
0101
0100
0010
2000
,
3100
1000
0010
0200
,
0301
1001
0000
0110
,
0000
0010
1000
0200
,
1300
0100
1000
0020
,
0130
0010
1000
0002
,
0013
0011
0000
1100
,
0000
0001
0100
0010
,
1000
0001
0001
1000
,
1000
0001
0100
0010
,
1000
0100
0001
0100
,
1000
0100
0001
0100
,
1000
0010
0010
0100
,
0100
0010
1000
0010
,
0100
0001
0010
0001
,
0100
0010
1000
0001
,
0010
0100
0100
0010
,
0010
0001
0100
0010
,
1000
1001
0010
1001
,
0100
1001
0010
1001
,
0100
0001
0100
0010
,
1000
0100
0010
0001
,
0100
1000
0110
0001
,
0110
1000
0100
0010
,
0001
0202
0000
0000
,
0000
0000
0000
0000
,
0303
0000
0000
0000
;

//---------------dance-single - ----------------
#NOTES:
     dance-single:
     :
     Beginner:
     2:
     0.143,0.221,0.040,0.000,0.000: // measure 1
0000
0000
0000
0000
,  // measure 2
0000
0000
0000
0000
,  // measure 3
0000
0000
0000
0000
,  // measure 4
0000
0000
0000
0000
,  // measure 5
0000
0000
0000
0000
,  // measure 6
0000
0000
0000
0000
,  // measure 7
0000
0000
0000
0000
,  // measure 8
0010
0000
0000
0000
,  // measure 9
1001
0000
0000
0000
,  // measure 10
0000
0000
0000
0000
,  // measure 11
0010
0000
0000
0000
,  // measure 12
1001
0000
0000
0000
,  // measure 13
0000
0000
0000
0000
,  // measure 14
0010
0000
0000
0000
,  // measure 15
1000
0000
0000
0000
,  // measure 16
0001
0000
0000
0000
,  // measure 17
0100
0000
0000
0000
,  // measure 18
0010
0000
0000
0000
,  // measure 19
1000
0000
0000
0000
,  // measure 20
0100
0000
0000
0000
,  // measure 21
0010
0000
0010
0000
,  // measure 22
0100
0000
0000
0000
,  // measure 23
0001
0000
0000
0000
,  // measure 24
1000
0000
0000
0000
,  // measure 25
0010
0000
0000
0000
,  // measure 26
0100
0000
0000
0000
,  // measure 27
0010
0000
0000
0000
,  // measure 28
1000
0000
0000
0000
,  // measure 29
0001
0000
0001
0000
,  // measure 30
1001
0000
0000
0000
,  // measure 31
0010
0000
0000
0000
,  // measure 32
0000
0000
0000
0000
,  // measure 33
0000
0000
0000
0000
,  // measure 34
0010
0000
0000
0000
,  // measure 35
0010
0000
0000
0000
,  // measure 36
0010
0000
0000
0000
,  // measure 37
0000
0000
0000
0000
,  // measure 38
0110
0000
0000
0000
,  // measure 39
0000
0000
0000
0000
,  // measure 40
0010
0000
1000
0000
,  // measure 41
0001
0000
0100
0000
,  // measure 42
0010
0000
0010
0000
,  // measure 43
1000
0000
0001
0000
,  // measure 44
1000
0000
1000
0000
,  // measure 45
0001
0000
0001
0000
,  // measure 46
0010
0010
0010
0010
,  // measure 47
0100
0100
0100
0100
,  // measure 48
0000
0100
0000
0010
,  // measure 49
0000
0010
0000
1000
,  // measure 50
0000
0001
0000
0001
,  // measure 51
0000
1000
1000
1000
,  // measure 52
0000
1000
1000
1000
,  // measure 53
0000
0001
0000
0100
,  // measure 54
0000
0010
0000
0100
,  // measure 55
0000
0010
0010
0010
,  // measure 56
0000
0010
0010
0010
,  // measure 57
0000
0100
0000
0010
,  // measure 58
0000
1000
0000
1000
,  // measure 59
0000
0001
0001
0001
,  // measure 60
0000
1000
1000
1000
,  // measure 61
0000
0010
0000
0100
,  // measure 62
0000
0010
0000
1000
,  // measure 63
0000
0001
0001
0001
,  // measure 64
0000
1000
0000
0000
,  // measure 65
0000
0010
0000
0100
,  // measure 66
0000
0010
0000
1000
,  // measure 67
0000
0001
0001
0001
,  // measure 68
0000
1000
0000
0000
,  // measure 69
0000
0010
0000
0000
,  // measure 70
0000
0100
0000
0010
,  // measure 71
0000
1000
1000
1000
,  // measure 72
0000
0001
0000
0001
,  // measure 73
0000
1000
0000
1000
,  // measure 74
0000
0010
0000
0010
,  // measure 75
0000
0100
0000
0100
,  // measure 76
0000
0010
0000
1000
,  // measure 77
0000
0001
0000
0100
,  // measure 78
0000
0010
0000
0010
,  // measure 79
0000
0100
0100
0100
,  // measure 80
0100
0110
0000
0000
;
