#TITLE:So Fabulous!!;
#SUBTITLE:;
#ARTIST:HHH (Ryu☆ & Dai);
#TITLETRANSLIT:;
#SUBTITLETRANSLIT:;
#ARTISTTRANSLIT:HHH (Ryu* & Dai);
#CREDIT:DMAxel;
#BANNER:bn.png;
#BACKGROUND:bg.png;
#LYRICSPATH:;
#CDTITLE:PandemiXium-cdtitle.png;
#MUSIC:So Fabulous!!.mp3;
#OFFSET:1.155;
#SAMPLESTART:42.268;
#SAMPLELENGTH:12.000;
#SELECTABLE:YES;
#BPMS:0.000=149.000,52.000=74.500,54.000=149.000,170.000=74.500,174.500=149.000;
#STOPS:174.500=2.220
;
#BGCHANGES:0.000=So Fabulous!!.avi=1.000=1=0=0,
279.000=bg.png=1.000=1=0=0,
99999=-nosongbg-=1.000=0=0=0 // don't automatically add -songbackground-
;

//---------------dance-single - ----------------
#NOTES:
     dance-single:
     :
     Hard:
     7:
     0.377,0.433,0.190,0.149,0.140:
0000
0000
0000
0000
,
0000
0000
0000
0000
,
0000
0000
0000
0000
,
0000
0000
0000
0000
,
0000
0000
0000
0000
,
1000
0001
0100
0001
,
1000
0001
0010
0200
0000
0000
0300
0000
,
1000
0010
0100
0010
,
1000
0001
0010
0200
0000
0000
0300
0000
,
1000
0001
0010
0001
,
0100
0010
1000
0200
0000
0000
0300
0000
,
1100
0001
0011
0100
,
0110
0000
0000
1001
0000
0000
1000
0001
0100
0010
0000
0000
,
0200
0000
0301
0000
,
0001
0000
0001
1000
,
0000
0000
1000
0000
,
0010
0000
0100
0010
,
0000
0010
0010
0000
,
1000
0000
1000
0001
,
0100
0001
0010
0000
,
0001
0000
1000
0000
,
0001
1000
0001
1000
0000
0000
1001
0000
0000
0000
0000
0000
,
0100
0001
0100
0001
0000
0000
1010
0000
0000
0000
0000
0000
,
0101
0000
1100
0011
,
0001
0000
0010
0000
0100
0000
1000
0000
0000
0001
0000
0000
0200
0000
0000
0000
0000
0000
0000
0000
0000
0000
0000
0000
,
0000
0000
0000
0000
,
0300
0000
0110
0010
,
0100
0000
0010
1000
0001
0010
0001
0200
,
0000
0000
0000
0300
0001
0000
1000
0000
,
0100
0000
1000
0100
0010
0001
0100
0020
,
0000
0100
0130
0000
0110
0000
0001
0000
,
1000
0000
1100
0000
1000
0001
0100
0010
,
2000
0000
3100
0000
1000
0001
0010
0000
,
0010
0001
0100
0000
0001
0100
0010
1000
,
0001
1000
0001
0010
0000
0000
0001
0000
0000
0100
0000
0000
,
0001
0010
0001
0100
,
0001
0100
0010
1000
0100
0000
1000
0000
,
0010
1000
0100
1000
,
0010
1000
2002
3003
0001
0000
0100
0000
,
0001
0010
0001
0100
,
0010
1000
0001
0010
0100
0000
0110
0000
,
0010
0110
1100
0011
,
0001
1000
0100
0010
0000
0000
2002
0000
0000
0000
0000
0000
,
0000
0000
0000
0000
0000
3003
0000
0000
,
1000
0000
0001
0000
,
1000
0000
0001
1000
,
0010
0000
0100
0000
,
0010
0000
0100
0010
,
1000
0000
0001
0000
,
1000
0000
0001
0100
,
0010
0000
0100
0000
,
0110
0000
0000
1001
0000
0000
0001
0010
0100
1000
0000
0000
,
1000
0100
0010
0001
0000
0000
0001
0100
0010
1000
0000
0000
,
1000
0000
0001
0000
0001
1000
0200
0000
0000
0300
0000
0000
,
1000
0001
0100
0010
,
1000
0000
0001
0000
0001
0010
0100
0010
,
0001
1000
0001
0010
,
0001
0000
0100
0000
0010
1000
0200
0000
,
1300
1000
0001
0001
,
1000
0000
0001
0000
0001
0010
0100
1000
,
0100
1000
0010
0100
,
0001
0000
0010
0000
0001
1000
2200
3300
,
1000
0000
0000
0001
0000
0000
0100
0000
0001
0000
0000
0100
0000
0000
0001
0000
,
0010
0000
0000
0001
0000
0000
0100
0000
0001
0000
0100
0000
0010
0000
0000
0000
,
0010
0000
0000
0100
0000
0000
0010
0000
1000
0000
0000
0010
0000
0000
0100
0000
,
0010
0000
0000
1000
0000
0000
0001
0000
1000
0000
0001
0000
0200
0000
0000
0000
,
0301
0000
0000
0100
0000
0000
0001
0000
0100
0000
0000
0010
0000
0000
0100
0000
,
0010
0000
0000
1000
0000
0000
0010
0000
1000
0000
0100
0000
0010
0000
0001
0000
,
0010
0000
0000
0001
0000
0000
0010
0000
0001
0000
0000
0100
0000
0000
0010
0000
,
0110
0000
0000
1001
0000
0000
0001
1000
0100
0020
0000
0000
,
0030
0000
0000
0000
;

//---------------dance-single - ----------------
#NOTES:
     dance-single:
     :
     Medium:
     5:
     0.271,0.375,0.215,0.074,0.033:
0000
0000
0000
0000
,
0000
0000
0000
0000
,
0000
0000
0000
0000
,
0000
0000
0000
0000
,
0000
0000
0000
0000
,
0001
0000
1000
0000
,
0001
1000
0001
2000
0000
0000
3000
0000
,
0100
0000
1000
0000
,
1000
0010
0100
0002
0000
0000
0003
0000
,
1001
0000
0010
0000
,
0010
0100
1000
0002
0000
0000
0003
0000
,
1000
0000
0001
0000
,
1000
0000
0000
0001
0000
0000
1000
0001
1000
0001
0000
0000
,
1001
0000
0100
0000
,
0000
0000
0000
0000
,
0000
0000
0010
0000
,
0000
0000
0000
0000
,
0000
1000
0001
0000
0001
0000
0000
0000
,
0000
0000
0100
0000
,
0010
0000
0010
0000
,
0000
0000
0000
0000
,
1001
0000
0010
0000
,
1001
0000
0100
0000
,
1001
0000
1010
0101
,
1100
0011
1001
0000
,
0000
0000
0000
0000
,
0000
0000
0100
0010
,
1000
0000
0001
0000
0010
0000
0001
0200
,
0000
0300
0001
0100
,
0010
0000
0100
0000
0010
0000
1000
0010
,
0000
0010
1000
0000
0010
0000
0100
0000
,
0010
1000
0001
0010
,
0001
0100
0010
0100
,
0010
0000
1000
0000
1000
0100
0010
0002
,
0000
0003
1001
0000
,
0001
0000
0001
0000
,
1000
0001
1000
0100
1000
0000
0000
0000
,
1000
0000
0010
0000
,
0100
0010
1001
0000
0001
0000
0000
0000
,
0100
0000
1000
0000
,
0100
0001
0010
0000
,
1000
0000
0011
0101
,
0010
1000
0100
0000
2200
0000
0000
0000
,
0000
0000
0000
0000
0000
3300
0000
0000
,
1000
0000
0001
0000
,
0100
0000
0010
0100
,
0010
0000
1000
0000
,
0001
0000
0000
0000
1000
0001
0200
0000
,
0301
0000
0001
0000
,
0001
0000
0001
1000
,
0100
0000
1000
0000
,
1010
0000
0001
0000
1000
0001
0100
0000
,
0001
1000
0100
0000
1000
0001
0100
0000
,
1001
0110
1001
0000
,
1000
0001
0100
0001
,
0010
0000
0001
0000
0100
0001
0100
0010
,
0100
0010
1000
0100
,
1000
0000
0010
0000
1000
0100
1010
0000
,
0010
0010
1000
1000
,
0001
0000
0100
0000
0001
0010
0001
0100
,
0010
0100
0010
1000
,
1100
0000
0011
0000
1000
0001
0100
0000
,
0110
0000
0000
0000
0000
0000
0010
0000
0000
1000
0000
0000
0010
0000
0000
0000
,
0000
0000
0000
0000
,
1001
0000
0000
0000
0000
0000
1000
0000
0000
1000
0000
0000
1000
0000
0000
0000
,
0000
0000
0000
0000
,
0101
0000
0000
0000
0000
0000
0001
0000
0000
0100
0000
0000
0010
0000
0000
0000
,
0000
0000
0000
0000
,
0110
0000
0000
0000
0000
0000
0010
0000
0000
1000
0000
0000
0001
0000
0000
0000
,
1000
0000
0000
0001
0000
0000
0001
0010
0100
2000
0000
0000
,
3000
0000
0000
0000
;

//---------------dance-single - ----------------
#NOTES:
     dance-single:
     :
     Easy:
     3:
     0.257,0.403,0.256,0.198,0.000:
0000
0000
0000
0000
,
0000
0000
0000
0000
,
0000
0000
0000
0000
,
0000
0000
0000
0000
,
0000
0000
0000
0000
,
0010
0000
1000
0000
,
0001
0002
0000
0003
,
0100
0000
0010
0000
,
0100
0020
0000
0030
,
0100
0000
0010
0000
,
1000
0002
0000
0003
,
1000
0000
0001
0000
,
0100
0100
0110
2002
,
3003
0000
0010
0000
,
1000
0000
0200
0000
,
0300
0000
1000
0000
,
0010
0000
0200
0000
,
0300
0001
0002
0000
,
0013
0000
0100
0000
,
1000
0000
0100
0000
,
0001
0000
0100
0000
,
1100
0110
0011
0000
,
0011
0110
1100
0000
,
1001
0000
0110
0110
,
1001
0110
2002
0000
,
0000
0000
0000
0000
,
0000
3003
0010
0000
,
0100
0000
0010
2000
,
0000
3000
0010
0000
,
0100
0000
0001
0020
,
0000
0130
0100
0000
,
1000
0000
0100
1000
,
0010
0100
0001
0000
,
1000
0000
0010
0200
,
0000
0300
0001
0000
,
1000
0000
0010
0000
,
0100
0100
0010
0000
,
1000
0000
0001
0000
,
1001
1001
0001
0000
,
0100
0000
0010
0000
,
0100
0010
1000
0000
,
0011
0000
0100
0000
,
1010
0101
0000
0000
,
0000
0000
0000
0000
,
0010
0000
0100
0000
,
0010
0000
0100
0010
,
1000
0000
0001
0000
,
1000
0000
0000
0000
0001
1000
0001
0000
,
0100
0000
0010
0000
,
1000
0000
0100
1000
,
0010
0000
0100
0000
,
0001
0000
1001
0000
,
0110
0000
1001
0000
,
0110
1001
0110
0000
,
0010
1000
0010
0100
,
0001
0010
0200
0300
,
1000
0100
1000
0010
,
0100
0000
0001
0000
1000
0001
1000
0000
,
0001
0100
0010
1000
,
0100
0010
0002
0013
,
0001
0010
0010
0001
,
0010
0000
0100
0000
1000
0100
1000
0000
,
0200
0000
2300
0000
,
3200
0000
1300
0010
,
0200
0000
0320
0000
,
2030
0000
0000
3000
0001
1000
0001
0000
,
2000
0000
3002
0000
,
0203
0000
0310
1000
,
1001
0000
0110
0000
,
1010
0011
1001
0101
;

//---------------dance-single - ----------------
#NOTES:
     dance-single:
     :
     Beginner:
     1:
     0.152,0.317,0.173,0.000,0.000: // measure 1
0000
0000
0000
0000
,  // measure 2
0000
0000
0000
0000
,  // measure 3
0000
0000
0000
0000
,  // measure 4
0000
0000
0000
0000
,  // measure 5
0000
0000
0000
0000
,  // measure 6
0001
0000
0000
0000
,  // measure 7
0000
0000
0000
0000
,  // measure 8
1000
0000
0000
0000
,  // measure 9
0000
0000
0000
0000
,  // measure 10
0010
0000
0000
0000
,  // measure 11
0000
0000
0000
0000
,  // measure 12
0100
0000
0000
0000
,  // measure 13
0000
0000
1000
1000
,  // measure 14
1001
0000
0010
0000
,  // measure 15
0000
0000
0000
0000
,  // measure 16
0000
0000
1000
0000
,  // measure 17
0000
0000
0000
0000
,  // measure 18
0000
0001
0001
0000
,  // measure 19
0000
0000
0000
0000
,  // measure 20
0000
0000
0010
0000
,  // measure 21
0000
0000
0000
0000
,  // measure 22
0110
0000
0100
0000
,  // measure 23
0110
0000
0010
0000
,  // measure 24
0010
0000
0010
0010
,  // measure 25
0110
1001
0110
0000
,  // measure 26
0000
0000
0000
0000
,  // measure 27
0000
0000
0010
0000
,  // measure 28
0000
0000
1000
1000
,  // measure 29
0000
0000
0100
0000
,  // measure 30
0000
0000
0010
0010
,  // measure 31
0000
0100
0001
0000
,  // measure 32
0000
0000
1000
0000
,  // measure 33
0001
0000
0100
0000
,  // measure 34
0000
0000
0010
0000
,  // measure 35
0110
0000
0010
0000
,  // measure 36
0000
0000
1000
0000
,  // measure 37
0001
0001
0001
0000
,  // measure 38
1000
0000
1000
0000
,  // measure 39
0010
0110
0010
0000
,  // measure 40
0100
0000
0100
0000
,  // measure 41
0010
0010
0010
0000
,  // measure 42
1000
0000
0001
0000
,  // measure 43
1001
0000
0000
0000
,  // measure 44
0000
0000
0000
0000
,  // measure 45
0010
0000
0000
0000
,  // measure 46
0010
0000
1000
1000
,  // measure 47
0001
0000
0000
0000
,  // measure 48
1000
0000
0010
0010
,  // measure 49
0100
0000
0000
0000
,  // measure 50
0010
0000
0000
0000
,  // measure 51
1000
0000
0001
0000
,  // measure 52
1000
0000
1001
0000
,  // measure 53
0110
0000
1001
0000
,  // measure 54
0110
1001
0110
0000
,  // measure 55
0010
0000
0000
0000
,  // measure 56
1000
0000
0001
1000
,  // measure 57
0100
0000
0000
0000
,  // measure 58
1000
0000
0010
0110
,  // measure 59
0100
0000
0000
0000
,  // measure 60
0010
0000
0000
0000
,  // measure 61
1000
0000
0001
0000
,  // measure 62
1000
0000
0010
1001
,  // measure 63
0100
0000
0100
0000
,  // measure 64
0100
0000
0100
0100
,  // measure 65
0010
0000
0010
0000
,  // measure 66
0010
0000
0010
0110
,  // measure 67
1001
0000
1000
0000
,  // measure 68
1000
0000
0001
0001
,  // measure 69
1000
0000
0001
0000
,  // measure 70
0100
0010
0110
1001
;
