#TITLE:Singin' In The Rain;
#SUBTITLE:;
#ARTIST:Mint Royale;
#TITLETRANSLIT:;
#SUBTITLETRANSLIT:;
#ARTISTTRANSLIT:;
#CREDIT:;
#BANNER:bn.png;
#BACKGROUND:bg.png;
#LYRICSPATH:;
#CDTITLE:PandemiXium-cdtitle.png;
#MUSIC:Mint Royale Singin' In The Rain.mp3;
#OFFSET:-14.106;
#SAMPLESTART:64.306;
#SAMPLELENGTH:12.000;
#SELECTABLE:YES;
#BPMS:0.000=131.000;
#STOPS:;
#BGCHANGES:;

//---------------dance-single - Pandemonium X----------------
#NOTES:
     dance-single:
     Pandemonium X:
     Hard:
     7:
     0.391,0.382,0.226,0.417,0.035:
2000
3100
1100
2000
,
3002
0103
0011
0002
,
0010
0100
2000
3003
,
2000
0100
3010
1010
,
0002
0010
0200
0303
,
0200
0010
0310
1001
,
2000
0010
0020
3030
,
0002
0023
0230
2300
,
3001
0000
0001
0000
0001
0100
0010
0100
,
0001
0000
1000
0000
1000
0010
0100
0010
,
1000
1000
0001
0010
,
0001
0100
1000
0110
,
0001
0001
0010
0001
0100
0100
0010
0000
,
0010
0100
0100
0010
1000
1000
0001
1000
,
0100
0100
1000
0010
0010
0100
0001
0000
,
0001
1000
0100
0000
1000
0010
0100
0000
,
0001
0001
0001
0010
0100
1000
0100
0000
,
1000
1000
1000
0100
0010
0001
0100
0000
,
0010
0000
0100
0000
1001
0000
0001
1000
,
0100
0000
1000
0000
1100
0000
1000
0001
,
0100
0000
0010
0000
1010
0000
1000
0001
,
0010
0000
0001
0000
0011
0000
0001
0100
,
0010
0000
0100
0000
0110
0000
0010
1000
,
0100
0000
1000
0000
0010
0000
0100
0010
,
1000
0000
1000
0000
1001
0000
0001
0010
,
0100
0010
1100
2000
,
3010
0100
0101
0002
,
0013
0000
0001
0000
0100
0010
1000
0001
,
0020
0000
0001
0000
0100
0000
0031
0100
,
0020
0000
1000
0000
0230
0000
0310
1000
,
0100
0000
0100
0000
1100
0000
1000
0001
,
0100
0000
0100
0000
0101
0000
2002
3003
,
0001
0000
0000
0001
0010
0000
0000
0100
1000
0000
0000
0000
1001
0000
0000
0001
,
0100
0000
0000
0001
0100
0000
0000
0000
0101
0000
0000
0000
0010
0000
0000
0100
,
0010
0000
0000
0100
0010
0000
0000
0000
0020
0000
0000
0000
1030
0000
0000
1000
,
0001
0000
0000
0001
1000
0000
0000
0000
1001
0000
0000
0000
0200
0000
0000
0000
,
0320
0000
0000
0000
,
0230
0000
0302
0000
,
0020
0000
0030
0013
,
0002
0000
0000
0000
0000
1003
0100
0010
,
0200
0000
0000
0000
,
0320
0000
0000
0001
,
0032
0000
0000
0000
,
0103
0010
2002
3003
,
1000
0200
0310
0110
,
0020
0001
0130
1001
,
0001
0200
0310
1001
,
2000
0010
0200
3300
,
2000
0010
0200
3300
,
0002
0010
0200
0303
,
0120
0000
1000
0000
0031
0000
2002
3003
,
0120
1000
0001
1030
,
0010
0000
0100
0000
0010
1000
0001
0010
,
0001
0000
0001
0000
0001
0100
0010
1000
,
0200
0000
0000
0000
,
0300
0000
0000
0000
;

//---------------dance-single - ----------------
#NOTES:
     dance-single:
     :
     Medium:
     5:
     0.283,0.335,0.113,0.313,0.000:
1000
0001
0200
0300
,
0001
1000
1100
0000
,
1000
0010
0200
0300
,
0010
1000
1001
0000
,
0001
0010
0200
0310
,
0010
0001
0101
0000
,
0001
0100
0020
1000
,
0200
0000
0000
0000
0330
0000
0010
1000
,
2002
0000
0000
3003
,
1000
0000
0100
1000
,
0010
1000
0010
0001
,
0010
0000
1000
0110
,
0001
1000
0010
0000
0100
0000
0100
0000
,
0010
1000
0010
0000
1000
0100
1000
0000
,
0100
0100
0010
0010
,
0010
0001
0010
0000
0001
0100
0010
0000
,
0100
0100
0100
0000
0010
0000
1000
0000
,
0001
1000
0100
1000
,
1010
0010
0200
0310
,
0010
1000
0002
0013
,
0001
0100
0010
0000
0200
0000
0310
0000
,
0010
1000
0100
0000
2000
0000
3100
0000
,
1000
0100
1000
0000
0020
0000
0130
0000
,
0010
1000
0002
0000
0013
0000
0001
0010
,
0200
0010
0310
0000
,
0002
0100
0103
0000
,
2000
0010
3010
0000
,
2000
0100
0100
0010
,
0002
0000
0000
3003
0000
0001
0010
0100
,
2000
0000
3000
0010
,
0100
0100
0100
0010
,
1000
0000
0001
0000
1000
0000
1000
0001
,
0100
0100
0100
0010
,
1000
1000
1010
1000
,
0100
0010
0011
0001
,
0100
1000
0100
0101
,
2002
0000
0000
0000
,
0000
0000
0000
0000
,
3003
0000
0000
0000
,
0020
0000
0000
0100
,
0200
0000
0330
0000
,
0000
0000
0000
0000
,
1000
0000
0001
0000
,
0002
0203
0020
0330
,
0010
0010
0020
0030
,
0100
0100
0110
0000
,
0001
0001
0002
0003
,
1000
1000
1001
0000
,
0001
0001
0002
0003
,
0100
0001
0101
0000
,
0100
0010
2000
3000
,
0100
1000
0020
0230
,
0002
0000
0300
0000
,
0010
0000
0023
0230
,
2000
0000
0000
0000
,
3300
0000
0000
0000
;

//---------------dance-single - ----------------
#NOTES:
     dance-single:
     :
     Easy:
     3:
     0.168,0.235,0.078,0.122,0.000:
0001
1000
0001
0000
,
1000
0100
1000
0000
,
0010
0100
0010
0000
,
0100
0001
1000
0000
,
1000
1000
0001
0000
,
0001
0001
0100
0000
,
0100
0100
0010
0000
,
0200
0000
0000
0300
,
2002
3003
0000
0000
,
0000
0000
0000
0000
,
0000
0000
0000
0000
,
0000
0000
0000
0010
,
0100
0000
0010
0000
,
1000
0000
0001
1000
,
0100
0000
1000
0000
,
0010
0000
0100
0000
,
0001
0001
0001
0000
,
1000
0000
0010
0000
,
0100
0100
0100
0000
,
0010
0000
1000
0000
,
1001
0000
0001
0000
,
0100
0000
0010
1000
,
0100
0000
1000
0000
,
0010
0000
0100
0010
,
1000
1000
0001
0000
,
0001
0001
0100
0000
,
0100
0100
0010
0000
,
0010
0010
1000
0001
,
2000
0000
0000
0000
,
3000
0000
0000
0000
,
0010
1000
0100
0000
,
0100
1000
0010
0000
,
0101
0001
0001
0000
,
1001
0010
0010
0000
,
0110
0001
0001
0000
,
1100
0010
0010
0000
,
2002
0000
0000
0000
,
3003
0000
0000
0000
,
0000
0000
0000
0000
,
0020
0000
0000
0000
,
0030
0000
0000
0000
,
0000
0000
0000
0000
,
0000
0000
0000
0000
,
0000
0000
0000
0100
,
1001
0001
2000
3000
,
0001
1000
0100
0000
,
0100
1000
0020
0030
,
0010
1000
0100
0000
,
0100
1000
0002
0003
,
0001
0010
0100
0000
,
0100
1000
0020
0030
,
0200
0000
0000
0301
,
2002
0000
0000
0000
,
0000
0000
0000
0000
,
3003
0000
0000
0000
;

//---------------dance-double - ----------------
#NOTES:
     dance-double:
     :
     Challenge:
     7:
     0.411,0.430,0.165,0.487,0.030:
10020000
01000000
00200000
00330000
,
00201000
00010000
00002000
00303000
,
00020100
00001000
00000200
00030300
,
00001200
00001000
00002000
00003300
,
00000120
00001000
00000001
00002030
,
00000100
00000010
00000200
00003300
,
00012000
00010000
00100000
00023000
,
00032000
00000000
00203000
00000000
00320000
00000000
01030000
00010000
,
00100000
00100000
00010000
01000000
,
00100000
10000000
00010000
00000000
00100000
00001000
00010000
00000010
,
00000100
00000100
00000010
00000010
,
00000100
00000000
00000010
00000000
00001000
00000001
00000022
00000033
,
00000001
00000001
00000100
00000010
00001000
00001000
00000100
00000000
,
00000100
00010000
00010000
00001000
00100000
00100000
00010000
10000000
,
00010000
01000000
01000000
00100000
10000000
10000000
01000000
00000000
,
10000000
00010000
00100000
00000000
00100000
00010000
01000000
00000000
,
10000000
00010000
10000000
00010000
10000000
00010000
10000000
00000000
,
00010000
00100000
00010000
00100000
00010000
00100000
00010000
00000000
,
00001000
00010000
00001000
00010000
00001000
00010000
00001000
00000000
,
00000100
00001000
00000100
00001000
00000100
00001000
00000010
00000000
,
00000010
00000100
00000010
00000100
00000001
00000010
00000011
00000000
,
00000001
00000100
00000010
00001000
00000100
00001000
00001010
00000000
,
00000100
00010000
00001000
00000100
00010000
01000000
01010000
00000000
,
00020000
00100000
02000000
03030000
,
10000000
00010000
00200000
00000000
00310000
00000000
00100000
00001000
,
00020000
00000000
00001000
00000000
00031000
00000000
00010000
00000100
,
00001000
00000100
00000020
00000000
00000130
00000000
00000100
00000001
,
00000200
00000000
00000010
00000000
00000310
00001000
00000001
00000010
,
00000002
00002003
00003002
00002003
,
00003200
00000000
00002300
00000000
00003200
00000000
00010300
00001000
,
00200000
00000000
00010000
00000000
01300000
00000000
01000000
00100000
,
20000000
00000000
01000000
00000000
30100000
00000000
10000000
00010000
,
00110000
00000000
00000000
00010000
00200000
00000000
00000000
00000000
00310000
00000000
00000000
00000000
01010000
00000000
00000000
00100000
,
10000000
00000000
00000000
10000000
00200000
00000000
00000000
00000000
10300000
00000000
00000000
00000000
10010000
00000000
00000000
10000000
,
00010000
00000000
00000000
00010000
20000000
00000000
00000000
00000000
30100000
00000000
00000000
00000000
01010000
00000000
00000000
00010000
,
00100000
00000000
00000000
00100000
00020000
00000000
00000000
00000000
00130000
00000000
00000000
00000000
00202000
00000000
00000000
00000000
,
00000000
00000000
00000000
00000000
,
00000000
00000000
00000000
00000000
,
00303000
00000000
00000000
00002000
,
00200000
00000000
00000000
00303000
00000000
00010000
00100000
01000000
,
20000000
00000000
00000000
00000000
,
30010000
01000000
00100000
01000000
,
00100000
01000000
01000000
00010000
,
10000000
02000000
00200000
03300000
,
00200000
00010000
01000000
00310000
,
00102000
00010000
00020000
00033000
,
00020100
00001000
00000100
00000100
,
00030200
00001000
00000020
00000330
,
00000001
00000100
00000010
00001000
00000200
00000000
00001300
00000000
,
00000100
00010000
00001000
00100000
00020000
00000000
00030000
00000000
,
00010000
01000000
00100000
10000000
00020000
00000000
00130000
00000000
,
00100000
00001000
00010000
00000100
00001000
00000000
00000010
00000000
,
00001002
00001000
00001000
00001003
,
00002001
00000001
00000001
00000001
,
00000020
00000000
00000000
00000000
,
00003030
00000000
00000000
00000000
;

//---------------dance-single - ----------------
#NOTES:
     dance-single:
     :
     Beginner:
     1:
     0.083,0.161,0.017,0.035,0.000: // measure 1
0001
0000
0000
0000
,  // measure 2
0100
0000
0000
0000
,  // measure 3
0010
0000
0000
0000
,  // measure 4
1000
0000
0000
0000
,  // measure 5
0100
0000
0000
0000
,  // measure 6
1000
0000
0000
0000
,  // measure 7
0010
0000
0000
0000
,  // measure 8
0100
0000
0000
0000
,  // measure 9
1001
0000
0000
0000
,  // measure 10
0000
0000
0000
0000
,  // measure 11
0000
0000
0000
0000
,  // measure 12
0000
0000
0000
0000
,  // measure 13
0001
0000
1000
0000
,  // measure 14
0001
0000
0000
0000
,  // measure 15
0100
0000
0010
0000
,  // measure 16
1000
0000
0000
0000
,  // measure 17
1000
0000
0001
0000
,  // measure 18
0100
0000
0000
0000
,  // measure 19
0010
0000
0010
0000
,  // measure 20
0100
0100
0100
0000
,  // measure 21
1001
0000
0001
0000
,  // measure 22
1000
0000
0000
0000
,  // measure 23
0010
0000
1000
0000
,  // measure 24
0100
0000
0000
0000
,  // measure 25
0010
0000
0010
0000
,  // measure 26
0100
0000
0010
0000
,  // measure 27
1000
0000
0001
0000
,  // measure 28
1000
0000
0000
0000
,  // measure 29
0002
0000
0000
0000
,  // measure 30
0000
0000
0003
0000
,  // measure 31
1000
0000
0000
0000
,  // measure 32
0010
0000
0000
0100
,  // measure 33
0100
0000
0000
0000
,  // measure 34
0010
0000
0000
0000
,  // measure 35
0100
0000
0000
0000
,  // measure 36
0001
0000
0000
2000
,  // measure 37
3000
0000
0000
0000
,  // measure 38
0000
0000
0000
0000
,  // measure 39
0000
0000
0000
0000
,  // measure 40
0020
0000
0000
0000
,  // measure 41
0030
0000
0000
0000
,  // measure 42
0000
0000
0000
0000
,  // measure 43
0000
0000
0000
0000
,  // measure 44
0000
0000
0000
0000
,  // measure 45
1000
0000
0000
0000
,  // measure 46
0001
0001
0100
0000
,  // measure 47
0010
0000
0000
0000
,  // measure 48
0100
0100
0001
0000
,  // measure 49
1000
0000
0000
0000
,  // measure 50
0010
0010
0100
0000
,  // measure 51
0010
0000
0000
0000
,  // measure 52
1000
0000
0000
0000
,  // measure 53
0002
0000
0000
0000
,  // measure 54
0003
0000
0000
0000
;
