#TITLE:Sin;
#SUBTITLE:;
#ARTIST:ESTi;
#TITLETRANSLIT:;
#SUBTITLETRANSLIT:;
#ARTISTTRANSLIT:;
#CREDIT:Telperion;
#BANNER:bn.png;
#BACKGROUND:bg.jpg;
#LYRICSPATH:;
#CDTITLE:PandemiXium-cdtitle.png;
#MUSIC:Sin.mp3;
#OFFSET:-11.698;
#SAMPLESTART:93.760;
#SAMPLELENGTH:13.579;
#SELECTABLE:YES;
#DISPLAYBPM:95.000:190.000;
#BPMS:0.000=95.000,18.000=94.860,18.250=853.755,19.000=569.100,22.000=284.550,22.250=121.944,22.250=189.690,23.000=190.000,113.000=126.667,117.000=190.000,127.000=126.667,131.000=190.000,141.000=126.667,147.000=190.000,159.000=179.305,160.000=190.000,165.000=208.877,165.500=491.971,166.000=502.267,168.000=502.180,169.000=513.369,169.500=97.055,170.000=190.000,299.000=47.500;
#STOPS:22.250=0.448
,104.750=0.632
,165.000=0.316
;
#BGCHANGES:;

//---------------dance-single - ----------------
#NOTES:
     dance-single:
     :
     Hard:
     9:
     0.534,0.526,0.190,0.207,0.029: // measure 1
1000
0100
1000
0010
,  // measure 2
0100
0110
1001
0011
,  // measure 3
1001
0001
0100
0001
0010
0001
0100
0010
,  // measure 4
0220
0000
0000
0330
,  // measure 5
1000
0000
0000
0001
0000
0000
0100
0000
0000
0020
0000
0000
0000
0000
0000
0000
,  // measure 6
0000
0000
0000
0000
0000
0000
0000
0000
0000
0030
0000
0000
0010
0000
1000
0000
,  // measure 7
0100
1000
0000
0010
0100
0000
0010
1000
,  // measure 8
0001
0010
0000
0001
0010
0000
0001
1000
,  // measure 9
0001
0100
0000
0100
0010
0000
1000
0100
,  // measure 10
0010
0100
0000
1000
0001
0000
0001
0010
,  // measure 11
0001
0100
0000
0010
0010
0000
0010
1000
,  // measure 12
0001
0010
0000
0001
0001
0000
0001
1000
,  // measure 13
0001
0100
0000
0001
0001
0000
0001
0100
,  // measure 14
0010
1000
0000
0100
1000
0000
1000
0001
,  // measure 15
0010
0000
0000
0001
0000
0000
0001
0000
0000
0100
0000
0000
0010
0000
0000
1000
,  // measure 16
0000
0100
0000
0100
2002
3003
1000
0000
,  // measure 17
1000
0100
0000
0001
0010
0000
0001
1000
,  // measure 18
0000
0001
0100
0010
1000
0100
2000
0000
,  // measure 19
0000
3100
0000
0000
0020
0000
0000
0031
,  // measure 20
0000
0000
0000
0000
0001
0000
0000
0010
0000
0000
0100
0000
1000
0000
0000
0000
,  // measure 21
0001
0100
0000
0010
0100
0000
0110
0000
,  // measure 22
0010
1000
0001
0010
0001
0100
0010
0000
,  // measure 23
1001
0000
1000
0001
0010
0001
0100
0000
,  // measure 24
1010
0000
0010
1000
0001
0010
0001
0000
,  // measure 25
0000
1000
0000
0010
,  // measure 26
0000
0100
0010
0010
0100
0020
0000
0000
,  // measure 27
0000
0030
1000
1000
0001
0010
0000
0001
,  // measure 28
0010
0000
0001
0001
0010
0100
0000
1000
,  // measure 29
0100
2000
3002
0020
,  // measure 30
0000
0000
0033
0000
0000
0000
1000
0001
,  // measure 31
0010
0001
0000
0001
0100
0100
0010
1000
,  // measure 32
0100
1000
0100
1000
0001
0100
0020
0000
,  // measure 33
2030
3020
0200
0000
,  // measure 34
0330
0000
0010
1000
0001
1000
0000
1000
,  // measure 35
0100
1000
0001
0100
0001
0010
0000
0001
,  // measure 36
1000
0100
1000
0000
0000
0000
0000
0000
,  // measure 37
0000
0000
0000
0001
0000
0000
1000
0001
0000
0000
0000
0000
,  // measure 38
0000
0000
0000
0000
1001
0000
0001
0100
,  // measure 39
0010
0000
0100
0000
0110
0000
0010
1000
,  // measure 40
0001
0000
0011
0000
0001
1000
0001
0100
,  // measure 41
0010
2000
0000
3000
1100
0000
0000
0101
,  // measure 42
0000
2002
0000
0000
,  // measure 43
0000
0000
0000
3003
0000
0000
0100
0001
,  // measure 44
0010
0001
0100
0010
1000
0001
0100
0010
,  // measure 45
1000
0100
1000
0010
1000
0100
1000
0000
,  // measure 46
0000
0001
1000
1000
0001
0010
1000
0100
,  // measure 47
0010
0001
1000
0001
1000
0100
1100
0000
,  // measure 48
0000
1000
0100
0010
0001
1000
0100
0010
,  // measure 49
0001
0010
0010
0001
,  // measure 50
0101
1000
0101
1010
,  // measure 51
1001
0000
0202
0000
0303
0000
0001
0010
,  // measure 52
0000
0001
0010
0000
0010
0100
0000
0100
,  // measure 53
1000
0000
1000
0001
0010
0001
0100
0010
,  // measure 54
0000
0010
0100
0000
1000
0001
0000
0010
,  // measure 55
0001
0000
0001
0100
0100
0010
1000
0001
,  // measure 56
0000
0010
0001
0000
1000
0100
0000
0001
,  // measure 57
0100
0000
0001
0100
0010
1000
0100
0010
,  // measure 58
0100
1000
0010
0100
0010
1000
0001
0010
,  // measure 59
0001
0100
0010
1000
0001
1000
0100
2000
,  // measure 60
0000
3010
0000
0100
0100
0000
0010
1000
,  // measure 61
0001
0010
0001
0100
0010
1000
0002
0010
,  // measure 62
0000
0013
0000
0000
0000
0000
0000
0000
,  // measure 63
0000
0001
1000
0100
0010
0001
0200
0010
,  // measure 64
0000
0310
0000
0000
0000
0000
0000
0000
,  // measure 65
0000
0000
0000
0010
0100
0100
0010
1000
,  // measure 66
0000
1001
0000
0000
0000
0000
1000
0001
,  // measure 67
0100
0001
1000
0100
1000
0001
0010
0001
,  // measure 68
0100
0010
1000
0100
0010
0001
0100
0001
,  // measure 69
0010
0001
1000
1000
0100
0100
1000
0001
,  // measure 70
0100
0001
0010
0001
0100
0010
1000
0100
,  // measure 71
0010
0001
0010
0010
0001
0001
1000
0001
,  // measure 72
0100
0001
1000
0100
1000
0001
0010
0001
,  // measure 73
0100
0010
1000
1000
0010
0010
0100
0010
,  // measure 74
1000
0001
0010
0001
0100
0010
1000
0100
,  // measure 75
0010
0100
1000
0001
2020
0000
3030
0000
;

//---------------dance-single - ----------------
#NOTES:
     dance-single:
     :
     Medium:
     6:
     0.341,0.433,0.157,0.083,0.000:
0001
0001
1000
1000
,
0001
1001
0101
0011
,
0001
0100
0010
1000
0100
0010
0001
0100
,
2002
0000
0000
3003
,
0002
0000
0000
0000
,
0000
0000
0000
0000
0000
0003
1000
0000
,
0000
0001
0000
0000
0100
0000
0010
0000
,
0000
0100
0000
0000
0010
0000
0100
0000
,
0000
0010
0000
0000
1000
0000
0010
1000
,
0010
1000
0000
0010
1000
0000
1000
0000
,
0000
1000
0000
0000
0001
0000
0100
0000
,
0000
0010
0000
0000
0100
0000
0010
0000
,
0000
1000
0000
0000
0010
0000
0100
0010
,
0100
0010
0000
0100
0010
0000
0001
1000
,
0001
0000
0000
1000
0000
0000
0001
0000
,
0000
0100
0000
0000
0110
0000
0000
0000
,
0000
0010
0000
0000
0100
0000
0000
0010
,
0000
1000
0001
0101
,
0000
1100
0000
0000
0011
0000
0000
1001
,
0000
0000
0001
0100
0001
0100
0010
0000
,
0000
0100
0000
0000
0010
0000
0000
0000
,
0000
0000
0010
0000
0010
1000
0010
0000
,
0000
0000
0000
0000
,
0000
0000
1000
0001
0100
0000
0001
0000
,
0000
0001
0000
0001
,
0000
0000
1000
0001
1000
0001
0000
0000
,
0000
0000
0010
0000
0000
0100
0000
0000
,
0000
0000
0010
0000
1000
0010
0000
0010
,
0100
0020
0000
0000
,
0030
0000
0000
1000
,
0001
1000
0000
0001
0100
0000
0000
0000
,
0000
0000
0001
1000
0001
0000
2000
0000
,
0000
3000
0000
0000
,
0000
0000
0010
0100
0010
0100
0000
0010
,
0010
0010
1000
0001
,
0010
0000
0022
0000
0000
0000
0000
0033
,
0000
0000
0001
0000
0000
0001
0000
0000
,
0000
0000
1000
0000
,
0000
0000
0101
0000
,
0000
0000
0001
0000
,
0100
0000
0000
0000
0010
0000
0000
1000
,
0000
0001
0000
0000
,
0000
0000
0000
0001
,
0100
0010
1000
0010
,
0010
0100
0100
0110
,
0000
0010
1000
0001
,
1000
0001
0100
0101
,
0000
1000
0001
0100
,
0010
0000
0100
0000
0010
0000
0100
0010
,
0100
0001
1000
0001
1000
0001
0100
0001
,
0100
0010
0200
0000
0000
0000
0310
0000
,
0010
0100
0100
0010
,
1000
0001
1000
0001
,
0100
1010
0010
1010
,
0010
0000
0100
0010
1000
0001
1000
0000
,
0001
0100
0010
1000
,
0100
0010
0001
0010
,
0001
0000
0100
0000
0010
0000
0001
1000
,
0001
1000
0001
1000
0001
1000
0001
0100
,
0000
0110
0000
0000
0000
0000
0000
0000
,
0000
0000
0000
0001
0100
0010
1000
0100
,
0000
1100
0000
0000
0000
0000
0000
0000
,
0000
0000
0000
0001
1000
0001
0100
0010
,
0000
1010
0000
0000
0000
0000
0000
0000
,
0000
0000
0000
1000
0100
0010
0001
0010
,
0000
0011
0000
0000
0000
0000
0000
0000
,
0001
0100
0001
0100
0010
0000
0001
0000
,
0100
0010
1000
0010
,
0100
0000
0010
0100
0010
0100
0010
0000
,
1000
0001
0010
0001
,
0100
0000
0010
1000
0010
1000
0010
0000
,
0100
0010
1000
0001
,
1000
0000
0001
0100
0010
1000
0100
0000
,
1000
0100
0010
0001
,
0000
1000
0000
0002
0200
0000
0303
0000
;

//---------------dance-single - ----------------
#NOTES:
     dance-single:
     :
     Easy:
     4:
     0.278,0.340,0.075,0.041,0.000:
0001
0100
0001
0100
,
0010
0100
0010
0100
,
0010
1000
0100
0010
,
0022
0000
0000
0000
,
0033
0000
0000
0000
,
0000
0000
0000
0010
,
0000
0010
0000
0000
0000
0000
0100
0000
,
0000
0010
0000
0000
0000
0000
1000
0000
,
0000
0001
0000
0000
0000
0000
0010
0000
,
0000
0001
0000
0000
0100
0000
0010
0000
,
0000
1000
0000
0000
0000
0000
1000
0000
,
0000
0001
0000
0000
0010
0000
0001
0000
,
0000
0100
0000
0000
0000
0000
0010
0000
,
0000
1000
0000
0000
0001
0000
1000
0000
,
0100
1000
0010
0100
,
0001
1000
0110
0010
,
0000
0100
0000
0000
0010
0000
0000
1000
,
0000
0001
0100
0010
,
0000
0010
0000
0000
0100
0000
0000
0010
,
0000
1000
0001
0010
,
0000
0010
0000
0000
0010
0000
0000
0000
,
0000
0010
0001
0100
,
0000
0000
0000
0010
,
0000
0010
1000
0010
,
0010
1000
1000
0010
,
0100
0000
0010
0100
0010
0100
0000
0000
,
0000
0000
0001
0000
0000
0001
0000
0000
,
0000
0000
1000
0000
0000
0100
0000
0000
,
0000
1000
0100
0010
,
0000
0000
0000
0001
,
0000
0100
0000
0000
0000
0000
0010
0000
,
0000
1000
0000
0001
,
1000
0100
0010
0000
,
0000
0000
0001
0000
0000
0100
0000
0000
,
0000
0010
1000
0010
,
0100
0001
1000
0000
,
0100
0000
0000
0000
0000
1000
0000
0000
,
0000
0000
1000
0000
,
0000
0000
0110
0000
,
0010
0000
1000
0001
,
0100
0000
0000
0000
0010
0000
0000
1000
,
0000
0001
0000
0000
,
0000
0000
0000
1000
,
0100
0010
0001
0010
,
0010
0001
0100
0010
,
0000
0100
0010
1000
,
1000
0001
1000
1001
,
0000
0001
0100
0010
,
1000
0100
0001
0100
,
1000
0010
0001
0010
,
1000
0002
0003
1000
,
1000
0001
0100
0010
,
1000
0100
0010
0100
,
1000
0010
0100
0001
,
0100
0010
1000
0010
,
0100
0010
1000
0001
,
0001
1000
0000
0001
,
1000
0001
0100
0001
,
0100
0000
0010
0000
1000
0000
0100
1000
,
0000
1100
0000
0000
0000
0000
0000
0000
,
0000
0000
0000
0000
1000
0100
0010
0001
,
0000
0011
0000
0000
0000
0000
0000
0000
,
0000
0000
0000
0000
0001
0010
0100
1000
,
0000
1100
0000
0000
0000
0000
0000
0000
,
0000
0000
0000
0000
0010
0100
0001
1000
,
0000
1001
0000
0000
0000
0000
0000
0000
,
0000
0000
0000
0100
,
0010
1000
0001
1000
,
0001
0000
0100
0001
0100
0001
0100
0000
,
0100
0010
0010
1000
,
1000
0000
0010
1000
0010
1000
0010
0000
,
0100
0010
1000
0001
,
0010
0000
0100
1000
0010
0100
0001
0000
,
0100
0010
1000
0001
,
0100
0010
2002
3003
;

//---------------dance-single - ----------------
#NOTES:
     dance-single:
     :
     Beginner:
     2:
     0.122,0.154,0.033,0.000,0.000:
0010
0000
0000
0000
,
1000
0000
0000
0000
,
0001
0000
0001
0000
,
1001
0000
0000
0000
,
0010
0000
0000
0000
,
0000
0000
0000
1000
,
0000
0000
0000
0001
,
0000
0000
0000
0100
,
0000
0000
0000
0010
,
0000
0010
0000
0010
,
0000
0000
0000
1000
,
0000
0000
0000
0001
,
0000
0000
0000
0100
,
0000
0010
0000
0110
,
0000
0000
0000
0000
,
0000
0000
0010
1001
,
0000
0000
0000
1000
,
0000
0000
0000
0001
,
0000
0001
0000
1000
,
0000
0010
0010
0100
,
0000
0000
0000
0010
,
0000
0000
0000
1000
,
0000
0000
0000
0001
,
0000
0000
0000
1000
,
0000
1000
0000
1000
,
0000
1000
1000
0000
,
0000
0001
0000
0000
,
0000
0100
0000
0000
,
0000
0010
0000
0000
,
0000
0000
0000
1000
,
0000
0000
0000
1000
,
0000
0000
0000
0010
,
0000
0000
0000
0000
,
0000
0100
0000
0100
,
0000
0010
0000
1000
,
0000
0001
0000
0000
,
0000
0000
1000
0000
0000
1000
0000
0000
,
0000
0000
0001
0000
,
0000
0000
0010
0000
,
0000
0000
0100
0000
,
1000
0000
0000
0000
0001
0000
0000
0001
,
0000
0001
0000
0000
,
0000
0000
0000
1000
,
0000
0000
0000
0010
,
0000
0100
0000
0010
,
0000
0000
0000
1000
,
0000
0001
0000
0100
,
0000
0000
0000
0010
,
0000
0000
0000
1000
,
0000
1000
0000
0001
,
0000
0001
0000
0000
,
0000
1000
0000
0010
,
0000
0100
0000
0000
,
0000
0010
0000
1000
,
0000
0001
0000
0000
,
0000
0001
0000
1000
,
0000
0100
0000
0100
,
0000
0000
0000
0010
,
0000
0010
0000
0100
,
0000
0000
0000
0000
,
0000
0000
0001
0001
,
0000
0000
0000
0000
,
0000
0000
1000
1000
,
0000
0000
0000
0000
,
0000
0000
0010
0100
,
0000
0000
0000
0010
,
0000
0010
0000
1000
,
0000
0000
0000
0001
,
0000
0001
0000
0001
,
0000
0000
0000
1000
,
0000
0100
0000
0010
,
0000
0000
0000
0100
,
0000
0010
0000
0001
,
0000
0000
0000
0001
,
0000
0000
1001
0000
;
