#TITLE:Shoreline;
#SUBTITLE:;
#ARTIST:Oriental ST8;
#TITLETRANSLIT:;
#SUBTITLETRANSLIT:;
#ARTISTTRANSLIT:;
#CREDIT:Pandemonium X;
#BANNER:bn.png;
#BACKGROUND:bg.png;
#LYRICSPATH:;
#CDTITLE:PandemiXium-cdtitle.png;
#MUSIC:Shoreline.mp3;
#OFFSET:-0.111;
#SAMPLESTART:14.820;
#SAMPLELENGTH:12.000;
#SELECTABLE:YES;
#BPMS:0.000=135.000;
#STOPS:;
#BGCHANGES:0.000=[BGA] DJ Max Black Square Shoreline.avi=1.000=1=0=0,
192.000=bg.png=1.000=0=0=1,
99999=-nosongbg-=1.000=0=0=0 // don't automatically add -songbackground-
;

//---------------dance-single - ----------------
#NOTES:
     dance-single:
     :
     Hard:
     7:
     0.378,0.417,0.170,0.321,0.236: // measure 1
0000
0000
0000
0000
,  // measure 2
0000
0000
0000
0000
,  // measure 3
0000
0000
0000
0000
,  // measure 4
0000
0000
0000
0000
,  // measure 5
1000
0000
0000
0100
0000
0000
1000
0000
0000
0010
0000
0000
0100
0000
0000
0000
,  // measure 6
0010
0000
0000
0010
0000
0000
1000
0001
1000
0001
1000
0001
,  // measure 7
1000
0000
0000
0100
0000
0000
0001
0000
0000
0100
0000
0000
1000
0000
0000
0000
,  // measure 8
1010
0101
0220
0330
,  // measure 9
0012
0000
0000
0023
0000
0000
0100
0000
0200
0000
0000
0000
0330
0000
0000
0000
,  // measure 10
0010
0000
0000
1000
0000
0000
0010
0000
0100
0000
0010
0000
0100
0000
1000
0000
,  // measure 11
0100
0000
0100
0001
0000
0001
1000
0010
,  // measure 12
0100
0000
0001
0010
0000
0001
1000
0100
,  // measure 13
2100
0000
0010
0010
0000
3010
1000
0010
,  // measure 14
0200
0000
0010
0020
0330
0000
0000
0000
,  // measure 15
0010
0000
1000
0000
0001
0010
0000
0011
0000
0000
0001
0000
0100
0000
0010
1000
,  // measure 16
0001
0001
1000
1000
,  // measure 17
0120
0000
0000
0100
0000
0000
0100
0000
0000
0100
0000
0000
0130
0000
0000
0000
,  // measure 18
0000
0000
0000
0000
,  // measure 19
1002
0000
0000
1000
0000
0000
1000
0000
0000
1000
0000
0000
1003
0000
0000
0000
,  // measure 20
2200
0000
0000
0000
0000
3300
0000
0000
,  // measure 21
2100
0000
0000
0100
0000
0000
0100
0000
0000
0100
0000
0000
3100
0000
0000
0000
,  // measure 22
0000
0000
0000
0000
,  // measure 23
0012
0000
0000
0010
0000
0000
0010
0000
0000
0010
0000
0000
0013
0000
0000
0000
,  // measure 24
2002
0000
0000
3003
,  // measure 25
0001
0000
0000
0100
0000
0000
0010
0000
0000
1000
0000
0000
0010
0000
0000
0100
,  // measure 26
0000
0000
0010
0000
0000
1000
0000
0000
0001
0000
0000
0010
0000
0000
0001
0000
,  // measure 27
0000
0100
0000
0000
0010
0000
0000
0100
0000
0000
0010
0000
0000
1000
0000
0000
,  // measure 28
0010
0000
0000
0100
0000
0000
0010
0000
0000
1000
0000
0000
0001
0000
1000
0000
,  // measure 29
0100
0000
0000
1000
0000
0000
0010
0000
0000
0100
0000
0000
0001
0000
0000
0010
,  // measure 30
0000
0000
0001
0000
0000
0100
0000
0000
0010
0000
0000
1000
0000
0000
0100
0000
,  // measure 31
0000
0010
0000
0000
0001
0000
0000
0010
0000
0000
0100
0000
0000
1000
0000
0000
,  // measure 32
0001
0000
0000
0100
0000
0000
0010
0000
2000
0000
0000
0000
3001
0000
0000
0000
,  // measure 33
0002
0000
0103
0000
0010
1000
0100
0000
,  // measure 34
2000
0000
3010
0000
1000
0010
1000
0000
,  // measure 35
2000
0000
0000
3000
0002
0000
0000
0000
0203
0000
0000
0000
0300
0000
0000
0000
,  // measure 36
0001
0000
0000
0100
0000
0000
0010
0000
0000
1000
0000
0000
0100
0000
1000
0000
,  // measure 37
0010
0110
0010
1001
,  // measure 38
0001
0100
0010
0000
0010
1000
0001
0000
,  // measure 39
1000
0000
0001
0000
0100
0000
0010
1000
,  // measure 40
0100
0000
0000
1000
0000
0000
0100
0000
0000
0010
0000
0000
0001
0000
0100
0000
,  // measure 41
0110
0000
1001
0000
0001
0000
0100
0010
,  // measure 42
1000
0000
0000
0100
0000
0000
1000
0000
0100
0000
0010
0000
0001
0000
0100
0000
,  // measure 43
0010
0000
0100
0100
0000
0010
1000
0001
,  // measure 44
1000
0000
0001
0001
0000
0001
0100
0010
,  // measure 45
2000
0000
0100
0200
3300
1000
0100
0010
,  // measure 46
0002
0000
0010
0020
0000
0033
0000
0000
,  // measure 47
2002
0000
0000
3003
,  // measure 48
0001
0000
0000
0100
0000
0000
0010
0000
0000
1000
0000
0000
1000
0000
0100
0000
,  // measure 49
0020
0000
0000
0000
,  // measure 50
0002
0003
2000
3000
,  // measure 51
0200
0000
0000
0000
,  // measure 52
0000
0000
0000
0000
,  // measure 53
0330
0000
0000
0000
;

//---------------dance-single - ----------------
#NOTES:
     dance-single:
     :
     Medium:
     5:
     0.258,0.339,0.090,0.261,0.035:
0000
0000
0000
0000
,
0000
0000
0000
0000
,
0000
0000
0000
0000
,
0000
0000
0000
0000
,
1000
0000
0000
1000
0000
0000
1000
0000
0000
1000
0000
0000
1000
0000
0000
0000
,
0000
0000
0000
0000
,
0001
0000
0000
0100
0000
0000
0010
0000
0000
1000
0000
0000
0010
0000
0000
0000
,
1000
0001
0100
0101
,
0001
0000
0000
1000
0000
0000
0002
0000
0200
0000
0000
0000
0303
0000
0000
0000
,
0001
0000
0000
1000
0000
0000
0001
0000
2000
0000
0000
0000
3000
0000
0000
0000
,
0100
0000
0000
1000
0000
0000
0000
0000
,
0010
0000
0000
0100
0000
0000
0010
0000
,
1000
0000
0001
2000
0000
0000
0001
0000
,
3001
0000
0002
2000
0000
0000
3003
0000
,
0001
0000
1000
0000
0001
0000
0000
0100
0000
0000
0001
0000
0010
0000
0001
0000
,
0100
0100
0100
0100
,
0002
0000
0000
0003
,
0000
0000
0000
0000
,
2000
0000
0000
3000
,
0010
0000
1000
0000
,
0002
0000
0000
0003
,
0000
0000
0000
0000
,
0200
0000
0000
0300
,
0010
0000
0010
0000
,
1000
0001
0000
0001
1000
0000
0001
0000
,
0100
0001
0000
0001
0100
0000
0100
0000
,
0010
0100
0000
0100
0010
0000
0010
0000
,
1000
0010
0000
0010
1000
0000
1000
0001
,
0002
0000
0000
1000
0000
0000
1000
0000
,
0000
1000
0000
0000
1000
0000
0000
1000
,
0003
0000
1000
0000
0000
0001
0000
0000
,
0100
0000
0001
0000
0010
0001
0100
0000
,
0101
1100
0101
1100
,
0002
0000
1003
0010
,
1000
0010
0100
0000
0110
0000
1000
0000
,
0001
1000
0001
0000
1000
0000
0001
0000
,
0000
1000
0100
1000
0000
0001
0100
0001
,
0000
0001
0010
0000
0001
0000
0100
0000
,
0202
0000
0000
0300
,
0020
0000
0000
0033
,
1000
0000
0001
1000
0002
0000
0103
0000
,
1000
0000
0001
1000
0001
0000
1000
0100
,
2000
0000
0000
3010
0000
0010
1000
0010
,
2000
0000
0000
3010
0000
0000
1000
0000
,
1002
0000
0000
0200
0000
0303
0000
0000
,
2000
0000
0000
0200
0000
0000
3300
0000
,
2000
0000
0000
0000
,
0020
0000
0000
3030
,
0101
0000
0000
0000
,
0001
0000
2000
0000
,
0200
0000
0000
0000
,
0000
0000
0000
0000
,
3300
0000
0000
0000
;

//---------------dance-single - ----------------
#NOTES:
     dance-single:
     :
     Easy:
     2:
     0.168,0.261,0.090,0.241,0.000:
0000
0000
0000
0000
,
0000
0000
0000
0000
,
0000
0000
0000
0000
,
0000
0000
0000
0000
,
0010
0000
0000
0000
,
0001
0000
1000
0000
,
0100
0000
0000
0000
,
2002
0000
0000
3003
,
0001
0001
0002
0003
,
1000
1000
2000
3000
,
0010
0100
0010
0000
,
0100
0010
1000
0000
,
1001
0000
0010
0000
,
0110
0000
1000
0000
,
1001
0000
0000
0000
,
0010
0010
0010
0010
,
0200
0000
0000
0300
,
0000
0000
0000
0000
,
0020
0000
0000
0030
,
1000
0000
0000
0000
,
0002
0000
0000
0003
,
0000
0000
0000
0000
,
0020
0000
0000
0030
,
0100
0000
0000
0000
,
1000
0000
0000
0000
,
0001
0000
0000
0000
,
0100
0000
0000
0000
,
0010
0000
0000
0000
,
1000
0000
0000
0000
,
0001
0000
0000
0000
,
0010
0000
0000
0000
,
0100
0000
0010
1001
,
0101
0000
0001
0000
,
2000
3100
0010
0100
,
0020
0000
1030
0000
,
2000
0000
0000
0001
,
3001
0000
0001
0000
,
0100
0000
0010
1000
,
0200
0000
1300
0010
,
0202
0000
0000
0303
,
0010
1001
0002
0003
,
1000
0010
0200
0300
,
0010
1000
0100
0100
,
2000
0000
3010
0100
,
0002
0000
0020
0033
,
2000
0000
0200
3300
,
0020
0000
0000
0030
,
1000
0001
0010
0100
,
2200
0000
0000
0000
,
0000
0000
0000
0000
,
0000
0000
0000
0000
,
0000
0000
0000
0000
,
3300
0000
0000
0000
;

//---------------dance-double - ----------------
#NOTES:
     dance-double:
     :
     Challenge:
     7:
     0.377,0.443,0.211,0.401,0.155:
00000000
00000000
00000000
00000000
,
00000000
00000000
00000000
00000000
,
00000000
00000000
00000000
00000000
,
00000000
00000000
00000000
00000000
,
10000000
00000000
00000000
00010000
00000000
00000000
00100000
00000000
00000000
00010000
00000000
00000000
01000000
00000000
00000000
00000000
,
00000000
00000000
00000000
00000000
,
00100000
00000000
00000000
00001000
00000000
00000000
00010000
00000000
00000000
00000010
00000000
00000000
00000100
00000000
00000000
00000000
,
00000002
00000023
00000230
00000310
,
00000011
00000000
00000000
00000001
00000000
00000000
00000001
00000000
00000200
00000000
00000000
00000000
00000300
00000000
00000000
00000000
,
00000110
00000000
00000000
00000010
00000000
00000000
00000010
00000000
00001000
00000000
00000100
00000000
00010000
00000000
00001000
00000000
,
02000000
00000000
03100000
01100000
00000000
00100000
10000000
00010000
,
00200000
00000000
00310000
00110000
00000000
00010000
10000000
01000000
,
20000000
00000000
00100000
30100000
01000000
00100000
10000000
00010000
,
00200000
00000000
00010000
00020000
00000000
00000000
00330000
00000000
,
00100000
00000000
00001000
00000000
00010000
00001000
00000000
00011000
00000000
00000000
00010000
00000000
00000100
00000000
00001000
00000000
,
00000020
00000130
00000020
00001030
,
00000100
00000000
00000000
00001000
00000000
00000000
00000100
00000000
00000000
00001000
00000000
00000000
00000100
00000000
00000000
00000000
,
00000000
00000000
00000000
00000000
,
00010000
00000000
00000000
00001000
00000000
00000000
00010000
00000000
00000000
00001000
00000000
00000000
00010000
00000000
00000000
00000000
,
00000000
00000000
00000000
00000000
,
00010000
00000000
00000000
00100000
00000000
00000000
00010000
00000000
00000000
00100000
00000000
00000000
00010000
00000000
00000000
00000000
,
00000000
00000000
00000000
00000000
,
01000000
00000000
00000000
00010000
00000000
00000000
00100000
00000000
00000000
01000000
00000000
00000000
10000000
00000000
00000000
00000000
,
00000000
00000000
00000000
00000000
,
10010000
00010000
00000000
00010000
00200000
00000000
00310000
00000000
,
00100000
00001000
00000000
00001000
00000000
00001000
00010000
00000100
,
00001000
00001000
00000000
00000010
00000010
00000000
00000100
00000010
,
00001000
00000100
00000000
00000011
00000000
00000001
00000100
00000010
,
00001000
00000000
00000000
00000100
00000000
00000000
00010000
00000000
00000000
00001000
00000000
00000000
00100000
00000000
00000000
00010000
,
00000000
00000000
01000000
00000000
00000000
00100000
00000000
00000000
10000000
00000000
00000000
00010000
00000000
00000000
00100000
00000000
,
00000000
00001000
00000000
00000000
00010000
00000000
00000000
00000100
00000000
00000000
00001000
00000000
00000000
00000001
00000000
00000000
,
00000010
00000000
00000000
00000100
00000000
00000000
00001000
00000000
00000200
00000000
00000000
00000000
00010000
00000000
00000000
00000000
,
00001300
00000000
00010100
00000000
00000100
00010000
00002000
00000000
,
00103000
00000000
11000000
00000000
10000000
00010000
02000000
00000000
,
03020000
00230000
00002000
00303000
,
00001000
00000000
00000000
00010000
00000000
00000000
00000010
00000000
00000000
00000100
00000000
00000000
00000001
00000000
00001000
00000000
,
00000100
00011000
00000010
00011000
,
00100000
00011000
01000000
00011000
,
00202000
00000000
00000000
00303000
,
00110000
00000000
00000000
11000000
00000000
00000000
01010000
00000000
00000000
10100000
00000000
00000000
10000000
00000000
00010000
00000000
,
00200000
00000000
00301000
00010000
00000020
00000000
00000130
00000000
,
00000010
00000100
00000001
00000100
00000020
00000000
00000130
00000010
,
00002000
00000000
00003100
00001100
00000000
00000100
00010000
00001000
,
00200000
00000000
00310000
00110000
00000000
00010000
01000000
10000000
,
02000000
00000000
00100000
03100000
01000000
00100000
10000000
02000000
,
10000000
00000000
10000000
20000000
00000000
00000000
33000000
00000000
,
20020000
00000000
00000000
30030000
,
02000000
00000000
00000000
03020000
00000000
00000000
00230000
00000000
00000000
00302000
00000000
00000000
00023000
00000000
00030020
00000000
,
00000230
00000000
00000000
00000000
,
00000020
00000030
00000002
00000003
,
00002000
00000000
00000000
00000000
,
00000000
00000000
00000000
00000000
,
00003300
00000000
00000000
00000000
;

//---------------dance-single - ----------------
#NOTES:
     dance-single:
     :
     Beginner:
     1:
     0.092,0.168,0.050,0.060,0.000:
0000
0000
0000
0000
,
0000
0000
0000
0000
,
0000
0000
0000
0000
,
0000
0000
0000
0000
,
0010
0000
0000
0000
,
0000
0000
0000
0000
,
1000
0000
0000
0000
,
0001
0000
1000
0000
,
0010
0000
0020
0030
,
0000
0000
0000
0000
,
0100
0000
0100
0000
,
0000
0000
0000
0000
,
1000
0000
0002
0003
,
1000
0000
1000
0000
,
0010
0000
0000
0000
,
0100
0000
0010
0000
,
2000
0000
0000
3000
,
0000
0000
0000
0000
,
0002
0000
0000
0003
,
0000
0000
0000
0000
,
0020
0000
0000
0030
,
0000
0000
0000
0000
,
0200
0000
0000
0300
,
0000
0000
0000
0000
,
0010
0000
0000
0000
,
1000
0000
0000
0000
,
0100
0000
0000
0000
,
0010
0000
0000
0001
,
0001
0000
0000
0000
,
1000
0000
0000
0000
,
0010
0000
0000
0000
,
0100
0000
0010
1001
,
0110
0000
0000
0000
,
0010
0000
0000
0000
,
1000
1000
1000
0000
,
0001
0000
1000
0000
,
0010
0000
0000
0000
,
0010
0000
0000
0000
,
1000
0000
0001
0000
,
1001
0000
0000
0000
,
0010
1001
0000
0000
,
0100
0000
0000
0000
,
0010
0000
0000
0000
,
1000
0000
0000
0000
,
0001
0000
0000
0000
,
0010
0000
0000
0000
,
0100
0000
0000
0000
,
1000
0000
0001
0000
,
1001
0000
0000
0000
;
