#TITLE:Sex and Violence;
#SUBTITLE:;
#ARTIST:Scissor Sisters;
#TITLETRANSLIT:;
#SUBTITLETRANSLIT:;
#ARTISTTRANSLIT:;
#CREDIT:;
#BANNER:bn.png;
#BACKGROUND:bg.png;
#LYRICSPATH:;
#CDTITLE:;
#MUSIC:Sex and Violence.mp3;
#OFFSET:-0.242;
#SAMPLESTART:62.000;
#SAMPLELENGTH:12.000;
#SELECTABLE:YES;
#BPMS:0.000=132.000;
#STOPS:;
#BGCHANGES:;

//---------------dance-single - ----------------
#NOTES:
     dance-single:
     :
     Hard:
     7:
     0.361,0.412,0.133,0.240,0.000: // measure 1
0000
0000
0000
0000
,  // measure 2
0000
0000
0000
0000
,  // measure 3
0000
0000
0000
0000
,  // measure 4
0000
0000
0000
0000
,  // measure 5
0001
0010
0001
0100
0000
0001
0000
0000
,  // measure 6
1000
0100
0010
0100
0000
0000
0000
0000
,  // measure 7
1000
0001
0010
0100
0000
1000
0001
0100
,  // measure 8
0000
0000
0000
0000
,  // measure 9
0010
1000
0100
0010
0100
1000
0000
0000
,  // measure 10
0001
0010
0100
0001
0010
0100
0000
0000
,  // measure 11
1000
0001
0100
0001
1000
0100
0000
0000
,  // measure 12
1000
0010
0100
0100
0000
0000
0000
0000
,  // measure 13
1000
0000
0001
0000
0010
0001
0010
0000
,  // measure 14
0001
0000
1000
0000
1000
0010
0100
0000
,  // measure 15
0010
0100
0010
0000
1000
0000
0001
0000
,  // measure 16
0001
0100
0010
0000
0010
0100
1000
0000
,  // measure 17
0101
0001
0011
0011
,  // measure 18
1000
1001
1100
0000
,  // measure 19
1000
0001
0010
0000
0010
0100
1000
0000
,  // measure 20
0100
1000
0010
0100
0002
0000
0013
0000
,  // measure 21
0001
0000
0010
0000
0001
0100
0010
1000
,  // measure 22
0100
0000
1000
0000
1000
0010
0100
0000
,  // measure 23
0010
0000
1000
0000
0001
0010
0001
0100
,  // measure 24
1000
0000
0110
0000
0010
0000
1000
0100
,  // measure 25
0000
0010
0000
0000
0000
0010
0001
1000
,  // measure 26
0000
0100
0000
0000
0000
0000
1000
1000
,  // measure 27
0000
1000
0000
0101
0000
0000
0000
0000
,  // measure 28
0001
0010
0100
0010
0001
0100
1000
0100
,  // measure 29
0001
0000
0010
0002
0000
0010
0000
0100
,  // measure 30
0000
0010
0000
0100
0000
0003
0000
0000
,  // measure 31
0100
0000
0010
0100
0000
0001
0000
1000
,  // measure 32
0000
0000
0002
0000
0013
0010
0100
1000
,  // measure 33
0001
0100
0010
1000
,  // measure 34
1100
1100
1100
0000
0000
0000
0000
0000
,  // measure 35
0002
0103
0200
0310
,  // measure 36
0100
0010
1000
0001
0010
0000
0001
0000
,  // measure 37
0200
0320
2030
3000
,  // measure 38
1001
0001
0101
0100
0020
0000
0130
0000
,  // measure 39
0010
1000
0100
0000
,  // measure 40
1000
0001
0100
0001
0020
0000
0031
0000
,  // measure 41
0001
0100
0010
0100
0002
0000
1003
0000
,  // measure 42
2000
3010
0020
0031
,  // measure 43
1001
0100
1001
0010
,  // measure 44
1000
0100
0010
1000
0001
0000
0200
0000
,  // measure 45
0002
0000
0303
0000
,  // measure 46
1000
1000
0001
0001
,  // measure 47
0200
0301
2000
3010
,  // measure 48
1010
0000
1000
0100
0020
0000
0001
0000
,  // measure 49
0200
0000
0000
0000
,  // measure 50
0330
0000
0000
0000
,  // measure 51
0001
1000
0100
2000
0000
3010
0000
0000
,  // measure 52
1000
0100
0010
0200
0000
1300
0000
0000
,  // measure 53
1000
0010
0100
0002
0000
0103
1000
0002
,  // measure 54
0000
0000
0000
0000
0003
1000
0001
0010
,  // measure 55
0100
1000
0010
0200
0000
0301
0000
1000
,  // measure 56
0100
0010
0100
0002
0000
0103
0000
0000
,  // measure 57
0001
0100
0010
2000
0000
3100
1000
0020
,  // measure 58
0000
0000
0000
0000
,  // measure 59
0030
0000
0000
0000
;

//---------------dance-single - ----------------
#NOTES:
     dance-single:
     :
     Medium:
     5:
     0.328,0.387,0.231,0.204,0.000: // measure 1
0000
0000
0000
0000
,  // measure 2
0000
0000
0000
0000
,  // measure 3
0000
0000
0000
0000
,  // measure 4
0000
0000
0000
0000
,  // measure 5
0001
0100
0010
0000
,  // measure 6
0010
1000
0100
0000
,  // measure 7
0100
1000
0010
0100
,  // measure 8
0002
0013
0200
0310
,  // measure 9
1001
0001
0100
0000
,  // measure 10
0010
1000
0100
0000
,  // measure 11
0100
0000
1000
0000
0010
0000
0100
1000
,  // measure 12
0002
0000
0000
0003
,  // measure 13
1000
0000
0001
0000
0010
0000
0001
0010
,  // measure 14
0100
0000
1000
0000
0100
0000
1000
0100
,  // measure 15
0010
0000
0001
0000
0100
0000
0010
1000
,  // measure 16
0001
0000
0001
0000
1001
0000
1000
0001
,  // measure 17
0100
0100
0010
0010
,  // measure 18
0100
0110
1001
0000
,  // measure 19
1000
0000
0001
0000
0010
0001
0100
0000
,  // measure 20
0010
0000
0100
0000
0010
1000
0100
0010
,  // measure 21
0001
0001
1000
0100
,  // measure 22
1000
0010
0001
0010
,  // measure 23
1000
0001
0010
0001
,  // measure 24
0200
0000
0000
0300
,  // measure 25
0010
0000
1000
0000
0001
1000
0001
0000
,  // measure 26
1000
0000
0100
0000
0010
0001
0010
0000
,  // measure 27
0001
1000
0100
0000
0100
0010
0001
0000
,  // measure 28
0001
0010
0100
0010
0001
0100
0010
0000
,  // measure 29
0100
0100
0010
0010
,  // measure 30
1000
0001
0202
0303
,  // measure 31
0001
0100
0010
1000
,  // measure 32
0001
0000
1001
0000
1000
0001
0010
0100
,  // measure 33
0000
1000
0001
0010
,  // measure 34
1001
1001
2002
0000
0000
0000
3003
0000
,  // measure 35
0001
0100
0010
1000
,  // measure 36
0100
1000
0010
0000
0010
1000
0001
0000
,  // measure 37
1000
1000
0001
0001
,  // measure 38
0101
0101
0101
0000
0002
0000
0013
0000
,  // measure 39
0011
1100
1001
0000
,  // measure 40
0002
0100
0100
0103
,  // measure 41
2000
0100
0100
3100
,  // measure 42
1100
0011
0101
1010
,  // measure 43
0002
2003
3200
0320
,  // measure 44
0031
0000
0001
0100
0020
0000
0100
0000
,  // measure 45
0200
0000
0330
0000
,  // measure 46
0110
0110
0110
0000
0000
0000
0000
0000
,  // measure 47
2000
3100
0020
0031
,  // measure 48
0011
0000
0001
0100
0020
0000
1000
0000
,  // measure 49
2000
0000
3030
0000
,  // measure 50
1100
1100
1100
0000
0000
0000
0000
0000
,  // measure 51
1000
0000
0000
0001
0010
0000
0000
0000
,  // measure 52
0001
0000
0000
0100
0010
0000
0000
0000
,  // measure 53
0010
0000
1000
0001
0000
0001
0010
0100
,  // measure 54
2000
0000
0000
0100
3000
0000
0000
0000
,  // measure 55
1000
0000
0001
0001
0000
0000
0000
0000
,  // measure 56
0100
0000
0010
0010
0000
0000
0000
0000
,  // measure 57
0100
0000
0010
1000
0000
0000
1000
0001
,  // measure 58
0020
0000
0000
0000
,  // measure 59
0030
0000
0000
0000
;

//---------------dance-single - ----------------
#NOTES:
     dance-single:
     :
     Easy:
     3:
     0.203,0.281,0.036,0.080,0.000: // measure 1
0000
0000
0000
0000
,  // measure 2
0000
0000
0000
0000
,  // measure 3
0000
0000
0000
0000
,  // measure 4
0000
0000
0000
0000
,  // measure 5
0001
1000
0000
0000
,  // measure 6
1000
0010
0000
0000
,  // measure 7
0100
0001
0000
1000
,  // measure 8
0010
0000
0000
0000
,  // measure 9
0100
0010
1000
0000
,  // measure 10
0001
1000
0001
0000
,  // measure 11
0100
0001
0010
0000
,  // measure 12
0100
1000
0100
0000
,  // measure 13
1000
0000
0001
0000
,  // measure 14
0100
0100
0000
0000
,  // measure 15
0010
0000
1000
0001
,  // measure 16
0100
0000
0001
0000
,  // measure 17
1000
1000
1000
0001
,  // measure 18
0100
0010
0010
0000
,  // measure 19
0100
0010
0010
0000
,  // measure 20
0100
0010
1000
0001
,  // measure 21
0010
0000
1000
0000
,  // measure 22
0010
0001
0100
0000
,  // measure 23
0010
0000
0100
0000
,  // measure 24
0001
1000
0100
0000
,  // measure 25
0100
0000
0000
0000
,  // measure 26
1000
0000
0000
0000
,  // measure 27
0010
0000
0100
0000
,  // measure 28
0001
0001
1000
1000
,  // measure 29
0001
0100
0001
0010
,  // measure 30
0100
1000
0010
1000
,  // measure 31
0100
0000
1000
0000
,  // measure 32
0010
0100
0001
0010
,  // measure 33
0000
0100
1000
0010
,  // measure 34
0100
0000
0001
0000
,  // measure 35
1001
0001
0001
0001
,  // measure 36
1100
0000
0000
0000
,  // measure 37
1010
0010
0010
0000
,  // measure 38
1000
1000
0001
0001
,  // measure 39
0100
0010
1000
0000
,  // measure 40
0001
0000
1000
0000
,  // measure 41
0010
0010
0020
1030
,  // measure 42
0100
0100
0010
0010
,  // measure 43
0001
0010
0100
1000
,  // measure 44
0100
1000
0010
0100
,  // measure 45
0001
0000
0000
0000
,  // measure 46
0002
2003
3002
2003
,  // measure 47
3100
1000
0010
0100
,  // measure 48
0001
0010
0100
1000
,  // measure 49
1100
0000
0000
0000
,  // measure 50
2000
3020
0230
0302
,  // measure 51
0013
0000
0000
0000
,  // measure 52
0100
0000
0000
0000
,  // measure 53
0001
0000
0000
0000
,  // measure 54
1000
0000
0000
0000
,  // measure 55
0010
1000
0010
0000
,  // measure 56
0100
0001
0100
0000
,  // measure 57
0010
0001
0010
0000
,  // measure 58
1000
0100
1000
0000
;

//---------------dance-single - ----------------
#NOTES:
     dance-single:
     :
     Beginner:
     1:
     0.112,0.177,0.036,0.000,0.000: // measure 1
0000
0000
0000
0000
,  // measure 2
0000
0000
0000
0000
,  // measure 3
0000
0000
0000
0000
,  // measure 4
0000
0000
0000
0000
,  // measure 5
0001
0000
0000
0000
,  // measure 6
1000
0000
0000
0000
,  // measure 7
0001
0000
0000
0000
,  // measure 8
0100
0000
0000
0000
,  // measure 9
0010
0000
0000
0000
,  // measure 10
0010
0000
0000
0000
,  // measure 11
1000
0000
0000
0000
,  // measure 12
0100
0000
0000
0000
,  // measure 13
1000
0000
1000
1000
,  // measure 14
1000
0000
0000
0000
,  // measure 15
0001
0000
0001
0000
,  // measure 16
0001
0000
0000
0000
,  // measure 17
0010
0000
0000
0000
,  // measure 18
0010
0000
0100
0000
,  // measure 19
0000
0010
0010
0000
,  // measure 20
1000
0000
0000
0000
,  // measure 21
0001
0000
0000
0000
,  // measure 22
1000
0000
0000
0000
,  // measure 23
0100
0000
0000
0000
,  // measure 24
0010
0000
0000
0000
,  // measure 25
0001
0000
0000
0000
,  // measure 26
0001
0000
0000
0000
,  // measure 27
1000
0000
0000
0000
,  // measure 28
1000
0000
0010
0000
,  // measure 29
0100
0000
0000
0000
,  // measure 30
0010
0000
0000
0000
,  // measure 31
1000
0000
1000
0000
,  // measure 32
1000
0000
0001
0001
,  // measure 33
0100
0000
0010
0000
,  // measure 34
0100
0000
0010
0000
,  // measure 35
1001
0000
0010
0000
,  // measure 36
0100
0100
0100
0000
,  // measure 37
1000
0000
0001
0000
,  // measure 38
0100
0100
0100
0000
,  // measure 39
0010
0000
0100
0000
,  // measure 40
0010
0010
0010
0000
,  // measure 41
1000
1000
1000
0000
,  // measure 42
0001
0000
1000
0000
,  // measure 43
1001
0000
0010
0000
,  // measure 44
0100
0000
0010
0010
,  // measure 45
0010
0000
0000
0000
,  // measure 46
1001
0000
0000
0000
,  // measure 47
1000
0000
0001
0000
,  // measure 48
0010
0000
0010
0010
,  // measure 49
0100
0000
0000
0000
,  // measure 50
1001
0000
0010
0000
,  // measure 51
0100
0000
0000
0000
,  // measure 52
0010
0000
0000
0000
,  // measure 53
1000
0000
0000
0000
,  // measure 54
0100
0000
0000
0000
,  // measure 55
0010
0000
0000
0000
,  // measure 56
0001
0000
0000
0000
,  // measure 57
1000
0000
0000
0000
,  // measure 58
0010
0000
0000
0000
;
