#TITLE:SCREAM SQUAD;
#SUBTITLE:;
#ARTIST:CALF;
#TITLETRANSLIT:;
#SUBTITLETRANSLIT:;
#ARTISTTRANSLIT:;
#GENRE:;
#CREDIT:;
#BANNER:bn.png;
#BACKGROUND:bg.png;
#LYRICSPATH:;
#CDTITLE:Beatmania IIDX.png;
#MUSIC:screamsquad.mp3;
#OFFSET:-1.187000;
#SAMPLESTART:0.060000;
#SAMPLELENGTH:15.000000;
#SELECTABLE:YES;
#BPMS:0.000000=220.000000;
#STOPS:168.000000=0.136364
,168.500000=0.136360
,169.000000=0.136364
,169.500000=0.136364
,215.000000=0.136364
,216.500000=0.136364
,280.750000=2.181816
;
#DELAYS:;
#TIMESIGNATURES:0.000000=4=4
;
#BGCHANGES:;
#KEYSOUNDS:;
#ATTACKS:;

//---------------dance-single - ----------------
#NOTES:
     dance-single:
     :
     Hard:
     10:
     0.750,0.872,0.385,0.000,0.110,531.000,42.000,0.000,0.000,0.000,0.000,0.000,-1.000,-1.000,0.750,0.872,0.385,0.000,0.110,531.000,42.000,0.000,0.000,0.000,0.000,0.000,-1.000,-1.000:
0000
0000
0000
0000
,
0000
0000
0000
0000
,
0000
0000
0000
0000
,
0000
0000
0000
0000
,
0000
0000
0000
0000
,
0000
0000
0000
0000
,
0000
0000
0000
0000
,
1000
0010
0100
0001
,
1000
0000
0011
0000
,
0001
1000
0100
0001
,
0100
0000
0110
0000
,
0001
0000
0100
0000
0010
0000
1000
0000
0100
0000
0001
0000
,
0100
0000
1000
0000
0010
0000
0100
0000
0001
0000
1000
0000
,
0100
1000
0010
0100
,
0001
0010
1000
0010
,
0001
0100
0010
1000
0100
0001
0100
1000
,
0010
0100
0001
1000
0100
0010
0100
0000
,
0010
0000
0001
0100
0010
0100
0010
1000
,
0000
0001
1000
0010
0100
0001
0010
0100
,
0010
0001
0100
0010
,
0100
1000
1000
0010
,
0100
0001
0010
0001
0100
0010
1000
0001
,
0011
1100
0101
1010
,
0001
0001
1000
1000
0010
0010
0100
0100
,
0001
0001
1000
0100
0010
0001
0000
0000
,
0011
0000
0001
0100
0010
1000
0000
0000
,
1001
0000
0000
0100
0001
0100
0000
0000
,
0010
1000
0010
0000
0100
0001
0100
0000
,
0010
0001
0010
0000
1000
0100
1000
0000
,
0001
0010
0100
0010
0001
0100
1000
0100
,
1000
0100
0001
0010
0100
0010
0001
1000
,
1100
0000
0000
0011
0000
0000
0000
0000
,
0011
0000
0000
0110
0000
1000
0100
0000
,
0100
0010
1000
0001
0000
0001
0000
0001
,
1000
0100
0010
0100
0000
0100
1001
0000
,
0100
0100
0010
1000
0000
1000
0000
1000
,
0001
0100
1000
0100
,
0001
0000
0010
0000
0001
0100
0000
0010
,
1000
0001
0010
0100
0000
0010
1100
0000
,
1000
0001
0100
0001
0010
0001
0100
0010
,
1000
0100
0010
0100
1000
0010
0100
0001
,
0010
1000
0001
0100
0010
1000
0100
0010
,
0011
1100
0101
1001
0001
0010
0100
1000
,
0001
0010
0100
1000
0001
0010
0100
1000
,
0001
0100
0001
0010
0100
0010
0001
0100
,
0010
1000
0001
0100
0010
1000
0001
1000
,
0001
0000
1000
0000
0001
0000
1000
0000
0100
0000
0000
1000
0100
0000
0000
0000
,
0010
0000
0000
0100
0010
0000
0000
0000
0010
0000
0000
0001
0010
0000
0000
0000
,
0001
0000
0000
1000
0100
0000
0000
0000
0010
0000
0000
0001
0100
0000
0000
0000
,
0010
0000
0000
0100
0001
0000
0000
0000
1000
0000
0000
0100
1000
0000
0000
0000
,
0010
0000
0000
0010
1000
0000
0000
0000
0001
0000
0000
1000
0100
0000
0000
0000
,
0010
0000
0000
0010
0001
0000
0000
0000
0100
0000
0000
0001
1000
0000
0000
0000
,
0100
0000
0000
0010
0001
0000
0000
0000
0100
0000
0000
0010
1000
0000
0000
0000
,
0100
0000
0000
0001
0100
0000
0000
0000
1000
0000
0100
0000
0001
0000
0001
0000
,
0100
1000
0010
0000
0100
0000
0010
1000
,
0001
0010
0100
0000
0110
0000
0100
0001
,
0100
1000
0100
0000
0011
0000
0001
0100
,
1000
0100
0010
0000
1001
0000
0010
1000
,
0001
0010
0100
0000
0011
0000
0001
0100
,
0010
1000
0100
0000
1100
0000
1000
0001
,
0100
0001
0010
0000
1100
0000
1000
0100
,
0010
0100
1000
0000
1001
0000
0010
1000
,
0010
0100
0110
0000
0110
0000
1001
0000
,
1001
0000
0100
0100
0000
0100
0000
0100
,
0010
0000
0010
1000
0000
1000
0100
0001
,
0100
1000
0000
0010
0010
0000
0010
0000
,
0010
0000
0100
0000
0010
0010
0000
0100
,
0100
0000
1001
0000
0001
0001
0000
1000
,
1000
0000
1000
0100
0010
0100
1000
0001
,
0010
0000
0000
0010
0000
0000
0010
0000
0100
0000
1000
0000
0100
0000
0010
0000
,
0100
0000
0000
1001
0110
0000
0000
0000
0001
0000
0001
0000
0000
0000
1000
0000
,
1000
0000
0011
0000
1000
1000
0000
0001
,
0001
0000
0001
0100
0010
1000
0000
1000
,
0000
0010
0100
0010
1000
0001
0000
1000
,
1100
0000
1000
0001
0010
0100
0000
0100
,
0000
0100
0010
0000
0001
0000
0010
0000
,
1000
0000
0010
0000
0011
0000
0001
0100
,
0000
0010
1000
0001
0010
0100
0000
1000
,
0101
0000
0001
0100
0010
0100
0001
1000
,
0001
0010
1000
0010
0001
0100
0010
1000
,
0100
0001
0100
0000
0100
1000
0010
0100
,
0001
0010
0000
0010
0001
0100
0010
1000
,
0100
0010
0001
0000
0011
0000
1000
0000
,
1100
1001
0101
0001
,
1100
0000
1000
0100
0010
0001
1000
0100
,
0010
0001
0100
0001
0100
0010
1000
0100
,
0010
0100
1000
0100
0001
0100
1000
0010
,
0001
0010
0100
0010
0001
0010
0100
1000
,
0001
0010
0011
0000
0001
0100
0010
0100
,
0000
1000
0001
0010
0000
1000
0100
1000
,
0000
0000
1000
0001
0010
0000
0100
0010
,
0001
0000
0001
0010
0100
1000
0100
0010
,
0001
0100
0010
0100
0010
0100
0010
1000
,
0001
0010
0100
1000
0100
0001
0100
1000
,
0010
0100
0001
0000
0001
0001
0000
0001
,
0000
0001
0000
0000
0000
0000
0000
0000
;

//---------------dance-single - ----------------
#NOTES:
     dance-single:
     :
     Medium:
     8:
     0.566,0.652,0.147,0.000,0.000,416.000,16.000,0.000,0.000,0.000,0.000,0.000,-1.000,-1.000,0.566,0.652,0.147,0.000,0.000,416.000,16.000,0.000,0.000,0.000,0.000,0.000,-1.000,-1.000:
0000
0000
0000
0000
,
0000
0000
0000
0000
,
0000
0000
0000
0000
,
0000
0000
0000
0000
,
0000
0000
0000
0000
,
0000
0000
0000
0000
,
0000
0000
0000
0000
,
0001
0000
1000
0000
,
0100
0000
0100
0000
,
1000
0000
0001
0000
,
0010
0000
0010
0000
,
0011
0000
1100
0000
,
0101
0000
1010
0000
,
0001
0001
1000
0001
,
0100
0100
0010
1000
,
0100
1000
0100
0000
1000
0100
1000
0000
,
0100
0000
1000
0000
0010
0100
0001
0000
,
1000
0000
0001
0000
0100
0001
0100
0000
,
0010
0000
1000
0000
0010
0100
0010
0000
,
0100
0100
0010
1000
,
0001
1000
0001
0100
,
0001
0100
0001
0100
0001
0100
0001
0100
,
0001
0100
0010
1000
0100
0010
0001
0010
,
0100
0100
0100
0100
,
0100
0010
0100
0001
0100
0010
0000
0000
,
0100
0000
0010
0000
1000
0010
1000
0000
,
0010
0000
0100
0000
0001
0100
0001
0000
,
1000
0001
1000
0000
0001
0100
0001
0000
,
0010
0100
0010
0000
0100
0010
0000
0000
,
0010
1000
0010
0100
,
0001
1000
0001
0100
,
0110
0000
0000
1001
0000
0000
0000
0000
,
1100
0000
0000
0011
0000
0000
0000
0000
,
0101
0000
0000
1010
0000
0000
0000
0000
,
0101
0000
0000
0110
0000
0000
0000
0000
,
1001
0000
0000
0110
0000
0000
0000
0000
,
0010
0010
1000
0001
,
0100
0000
0010
0000
1000
0100
0000
1000
,
0100
0010
0001
0010
0000
0001
0010
0000
,
0001
0001
1000
1000
,
0001
0100
0010
1000
,
0100
0010
0001
0100
,
0010
0100
0010
0100
0010
0100
0010
0000
,
0100
0010
1000
0001
,
1000
0000
0001
0000
0100
0001
0100
0001
,
0100
0001
0100
0001
0100
0001
0100
0001
,
0100
0001
1000
0100
0010
0000
0001
0000
,
0001
0010
0000
0100
,
0100
1000
0000
0100
,
1000
0010
0000
0100
,
0001
1000
0000
0001
,
0001
0010
0000
0100
,
1000
0010
0000
0100
,
0010
0000
1000
0000
0001
1000
0001
0100
,
0001
1000
0100
0000
1000
0000
0010
0000
,
0100
0010
0100
0000
0010
0000
1000
0000
,
0001
0010
0100
0000
0010
0000
0001
0000
,
0100
0001
0010
0000
0100
0000
0010
0000
,
0010
0001
1000
0000
0100
0000
1000
0000
,
0100
1000
0010
0000
0100
0000
0010
0000
,
0100
0010
1000
0000
0001
0000
0010
0000
,
0001
0100
0010
0000
1000
0000
0001
0000
,
0010
0100
1000
0100
,
0010
0000
0001
0010
0000
0100
0000
0100
,
1000
0000
0010
1000
0000
1000
0001
0010
,
0100
0010
0000
0010
0001
0000
0001
0100
,
0010
1000
0100
0000
0000
1000
0000
0000
,
0010
0000
0000
0100
0000
0000
0001
0000
,
1000
0000
0100
1000
0010
0100
0001
0010
,
0001
0100
0010
1000
0100
0010
0100
1000
,
0001
0100
0010
0000
1000
0010
0000
0100
,
0010
0000
0110
0000
0010
1000
0000
1000
,
0001
0000
1000
0000
0001
0000
0010
0001
,
0010
0000
0001
0000
0100
0000
0010
1000
,
1001
0000
0010
0000
0100
0000
0010
1000
,
0010
0100
0100
0010
,
0010
0000
1000
0000
0001
0000
1000
0001
,
0000
1000
0100
0010
0001
0010
0000
0001
,
0001
0000
0001
0100
0001
0000
0001
0100
,
0001
0000
0100
0000
0010
0000
1000
0010
,
0100
0000
0010
0000
1000
0000
0010
1000
,
0010
0000
1000
0000
0001
0000
0100
0001
,
0100
0001
0100
1000
,
0100
0001
0010
1000
,
0010
0000
0001
0010
0001
0010
0001
0010
,
0001
0010
0001
0000
0010
0000
0100
0000
,
0010
0000
0100
0010
0100
0010
0100
0001
,
1000
0010
0100
0001
0100
0010
1000
0100
,
0000
0000
0100
0000
1000
0000
0100
1000
,
0100
0000
1000
0000
0010
0000
0100
0001
,
0100
0000
0010
0000
1000
0000
0001
1000
,
0001
0000
0100
0001
0100
0000
0010
0100
,
0010
0000
1000
0100
0010
0001
1000
0100
,
0010
0001
0010
0100
1000
0010
0100
0001
,
1000
0010
0100
0000
0000
0010
0000
0010
;

//---------------dance-single - ----------------
#NOTES:
     dance-single:
     :
     Easy:
     5:
     0.353,0.432,0.156,0.000,0.000,253.000,17.000,0.000,0.000,0.000,0.000,0.000,-1.000,-1.000,0.353,0.432,0.156,0.000,0.000,253.000,17.000,0.000,0.000,0.000,0.000,0.000,-1.000,-1.000:
0000
0000
0000
0000
,
0000
0000
0000
0000
,
0000
0000
0000
0000
,
0000
0000
0000
0000
,
0000
0000
0000
0000
,
0000
0000
0000
0000
,
0000
0000
0000
0000
,
0001
0000
0100
0000
,
1000
0000
0100
0000
,
0001
0000
0010
0000
,
1000
0000
0010
0000
,
0011
0000
1100
0000
,
0011
0000
1100
0000
,
0001
0000
1000
0000
,
0010
0000
0100
0000
,
0001
1000
0001
1000
,
0001
1000
0001
0101
,
0001
0100
0010
0010
,
0100
0010
1000
0001
,
0100
1000
0100
1000
,
0010
0100
0001
0100
,
0010
0010
0100
0100
,
0010
1000
0001
0100
,
0101
0001
0101
0100
,
0101
0101
0101
0000
,
0001
0100
0010
0000
,
0010
1000
0100
0000
,
1000
0000
0010
0000
,
0100
0000
0001
0000
,
1000
0001
0100
0010
,
1000
0100
0001
0100
,
1000
0000
0000
0000
,
1010
0000
0000
0000
,
0101
0000
0000
0000
,
0110
0000
0000
0000
,
1001
0000
0000
0000
,
1000
0000
0001
0000
,
0100
0000
0010
0000
,
0100
0100
0100
0000
,
0010
1000
0010
0100
,
0001
0010
1000
0010
,
0001
0100
0010
1000
,
0000
0000
0001
1000
,
0001
1000
0001
1000
,
0001
1000
0010
0010
,
0010
0010
0010
0010
,
0010
0010
0000
0100
,
0000
0100
0000
0010
,
0000
1000
0000
0001
,
0000
0010
0000
0100
,
0000
0010
0000
0001
,
0000
0100
0000
0010
,
0000
1000
0000
0001
,
0000
1000
0000
0000
,
0000
0001
0000
0100
,
0000
0010
0000
1000
,
0100
1000
0000
0010
,
0000
0100
0000
0010
,
0010
0010
0000
0100
,
0000
0001
0000
1000
,
1000
1000
0000
0100
,
0000
1000
0000
0010
,
0000
0100
0001
0100
,
0000
0010
1000
0001
,
0000
1000
0001
0100
,
0000
0100
0010
1000
,
0000
0001
0100
0010
,
0000
0100
0010
1000
,
0000
0001
1000
0100
,
0000
0100
1000
0010
,
0100
0001
0000
0000
,
0000
1001
0000
0000
,
0000
0010
0010
0010
,
0000
0100
0100
0100
,
0000
0010
1000
0001
,
0000
1000
0001
0100
,
0010
1000
0100
0010
,
0000
0010
0100
1000
,
1001
0001
0100
0010
,
0010
0100
0010
1000
,
0001
0010
0100
0010
,
0001
0000
0001
0100
,
0010
1000
1000
0001
,
0001
1000
1000
0001
,
0001
0100
0010
1000
,
0100
0001
0100
1000
,
0010
0100
0100
0100
,
0100
0100
0100
0100
,
0000
0010
1000
0001
,
0000
1001
0000
0010
,
0000
0100
0100
0010
,
0010
1000
0001
0010
,
0010
0010
0001
0010
,
1000
0010
0001
0100
,
0010
1000
0000
0000
;

//---------------dance-double - ----------------
#NOTES:
     dance-double:
     :
     Challenge:
     10:
     0.708,0.696,0.696,0.000,0.041,465.000,76.000,0.000,0.000,0.000,0.000,0.000,-1.000,-1.000,0.708,0.696,0.696,0.000,0.041,465.000,76.000,0.000,0.000,0.000,0.000,0.000,-1.000,-1.000:
00000000
00000000
00000000
00000000
,
00000000
00000000
00000000
00000000
,
00000000
00000000
00000000
00000000
,
00000000
00000000
00000000
00000000
,
00000000
00000000
00000000
00000000
,
00000000
00000000
00000000
00000000
,
00000000
00000000
00000000
00000000
,
10000000
01000000
00010000
00001000
,
00001100
00000000
00000011
00000000
,
00000001
00000100
00001000
00010000
,
00011000
00000000
00101000
00000000
,
00010000
00000000
01000000
00000000
00100000
00000000
10000000
00000000
01000000
00000000
00100000
00000000
,
00010000
00000000
00100000
00000000
00001000
00000000
00010000
00000000
00000010
00000000
00000100
00000000
,
00000001
00000001
00001000
00001000
,
00000001
00000100
00000010
00001000
,
00000100
00010000
00001000
00100000
00010000
01000000
10000000
01000000
,
00010000
00100000
00001000
00010000
00000100
00001000
00000010
00000000
,
00000100
00000000
00000001
00000000
00001000
00000001
00000010
00000000
,
00000010
00000000
00000001
00000000
00000100
00000010
00001000
00000000
,
00000010
00001000
00000100
00000001
,
00000100
00001000
00000010
00000100
,
00000001
00001000
00000010
00001000
00000100
00000010
00000100
00001000
,
00000010
00000100
00000010
00001000
00000100
00010000
00001000
00100000
,
00010000
00010000
01000000
01000000
00001000
00001000
00010000
00010000
,
00000100
00000100
00001000
00000010
00000100
00000001
00000000
00000000
,
00000001
00000000
00001001
00000000
00000001
00000100
00000010
00000000
,
00001000
00000000
00001100
00000000
00000100
00010000
00001000
00000000
,
00100000
00010000
00100000
00000000
10000000
01000000
10000000
00000000
,
00100000
00010000
01000000
00100000
10000000
00010000
00100000
00000000
,
01000000
00010000
10000000
01000000
00100000
01000000
10000000
00010000
,
01000000
00010000
00100000
00001000
00010000
00000100
00001000
00000010
,
00000110
00000000
00000000
00001001
00000000
00000000
00000000
00000000
,
00001100
00000000
00000000
00011000
00000000
00001000
00101000
00000000
,
01100000
00000000
00000000
10010000
00000000
10000000
01000000
00000000
,
00110000
00000000
00000000
11000000
00000000
00010000
01010000
00000000
,
01010000
00000000
00000000
00101000
00000000
00010000
00000100
00000000
,
00001000
00000010
00000100
00000001
,
00000010
00000000
00000100
00000000
00000100
00000010
00000000
00000010
,
00000001
00000100
00000010
00001000
00000000
00000100
00010000
00000000
,
00010000
01000000
00100000
10000000
01000000
00010000
01000000
10000000
,
00100000
00010000
00100000
10000000
00010000
00100000
00001000
00010000
,
00000100
00001000
00000010
00001000
00000001
00000010
00001000
00000010
,
00000001
00000100
00000010
00010000
00001000
00100000
00010000
01000000
,
00100000
10000000
01000000
00010000
01000000
10000000
00100000
01000000
,
00010000
00100000
01000000
00100000
00010000
10000000
00010000
10000000
,
00010000
00100000
00010000
00100000
00001000
00010000
00000100
00001000
,
00000010
00000100
00000001
00000010
00000000
00000000
00000011
00000000
,
00000011
00000011
00000000
00001100
,
00001100
00001100
00000000
00010100
,
00010100
00010100
00000000
00011000
,
00011000
00011000
00000000
00110000
,
10010000
01010000
00000000
10010000
,
11000000
00110000
00000000
00110000
,
00101000
00000000
00001100
00000000
00000100
00010000
00001000
00001000
,
01000000
00100000
01000000
00000000
00010000
00000000
00100000
00000000
,
00001000
00011000
00010000
00000010
,
00000100
00000101
00000100
00000010
,
00001000
00001001
00000100
00000010
,
00001000
00001100
00000100
00010000
,
00001000
01100000
10000000
10000000
,
00010000
01010000
01000000
01000000
,
00100000
10010000
00010000
00100000
,
00001000
00010000
00001000
00010000
,
00010000
00000000
00001000
00010000
00000000
00000100
00000000
00010000
,
00001000
00100000
00010000
00100000
00000000
00100000
00001000
00010000
,
00000100
00001000
00000000
00000010
00000010
00000000
00000100
00000000
,
00000010
00000000
00000110
00000000
00000000
00001100
00000000
00000000
,
00001001
00000000
00000011
00000000
00000000
00001100
00000000
00000000
,
00001100
00000000
00010100
00000000
00000000
00110000
00000000
00000000
,
10010000
00000000
10100000
00000000
00000000
10010000
00000000
00000000
,
10000000
00000000
00000000
00110000
00110000
00000000
00000000
00000000
00000000
00000000
01010000
00000000
00000000
00000000
00000000
00000000
,
00000000
00000000
10010000
00000000
00000000
10010000
00000000
00100000
,
10010000
00000000
10000000
00010000
00100000
00000000
00100000
00000000
,
00001000
00000000
00010000
00000100
00001000
00000010
00000000
00000100
,
00000100
00000000
00000100
00000010
00001000
00000001
00000000
00000001
,
00000000
00000001
00000010
00000000
00001000
00000000
00000010
00000000
,
00000001
00000000
00000101
00000000
00001010
00000000
00000010
00001000
,
00000000
00000010
00010000
00001000
00100000
00010000
00000000
01000000
,
01000000
00000000
01000000
00100000
10000000
00010000
00100000
00001000
,
00010000
00000100
00001000
00000010
00001000
00000100
00010000
00001000
,
00100000
00010000
01000000
00000000
01100000
00000000
00100000
10000000
,
00010000
00000000
00100000
00000000
11000000
00000000
10000000
00010000
,
00100000
00110000
00001000
00110000
,
00001000
00001100
00010000
00001100
,
00010000
00000000
00010000
00001000
00010000
00000100
00001000
00000010
,
00000100
00000001
00000010
00001000
00000010
00000001
00000100
00001000
,
00000100
00000001
00000010
00000010
00000100
00000100
00001000
00001000
,
00000010
00000010
00010000
00010000
00001000
00100000
01000000
10000000
,
00000000
00000000
10010000
00000000
01100000
00000000
00100000
10000000
,
01000000
00000000
11000000
00000000
00110000
00000000
00100000
00001000
,
00010000
00000000
00000100
00010000
00000100
00000000
00001000
00000010
,
00001000
00000000
00000100
00000010
00001000
00000001
00000010
00000100
,
00001000
00000000
00001000
00100000
00001000
00010000
00000100
00001000
,
00000100
00010000
00001000
01000000
10000000
01000000
00010000
00100000
,
00001000
00010000
00000010
00000000
00000100
00010100
00000000
00001000
;

//---------------dance-single - ----------------
#NOTES:
     dance-single:
     :
     Beginner:
     3:
     0.170,0.259,0.101,0.000,0.000,119.000,11.000,0.000,0.000,0.000,0.000,0.000,-1.000,-1.000,0.170,0.259,0.101,0.000,0.000,119.000,11.000,0.000,0.000,0.000,0.000,0.000,-1.000,-1.000: // measure 1
0000
0000
0000
0000
,  // measure 2
0000
0000
0000
0000
,  // measure 3
0000
0000
0000
0000
,  // measure 4
0000
0000
0000
0000
,  // measure 5
0000
0000
0000
0000
,  // measure 6
0000
0000
0000
0000
,  // measure 7
0000
0000
0000
0000
,  // measure 8
0010
0000
0010
0000
,  // measure 9
0010
0000
0000
0000
,  // measure 10
0001
0000
0001
0000
,  // measure 11
0001
0000
0000
0000
,  // measure 12
1001
0000
0000
0000
,  // measure 13
0110
0000
0000
0000
,  // measure 14
0010
0000
0010
0000
,  // measure 15
1000
0000
0001
0000
,  // measure 16
1000
0000
0000
0000
,  // measure 17
0000
0000
0000
0001
,  // measure 18
0001
0000
0000
0000
,  // measure 19
1000
0000
0000
0000
,  // measure 20
0010
0000
0010
0000
,  // measure 21
0100
0000
0010
0000
,  // measure 22
1000
0000
0000
0000
,  // measure 23
0001
0000
0000
0000
,  // measure 24
1001
0000
0000
0000
,  // measure 25
0000
0000
0000
0000
,  // measure 26
0010
0000
0000
0000
,  // measure 27
0100
0000
0000
0000
,  // measure 28
0001
0000
0001
0000
,  // measure 29
0001
0000
0000
0000
,  // measure 30
1000
0000
0000
0000
,  // measure 31
0010
0000
0000
0000
,  // measure 32
0110
0000
0000
0000
,  // measure 33
0010
0000
0000
0000
,  // measure 34
0001
0000
0000
0000
,  // measure 35
1000
0000
0000
0000
,  // measure 36
0010
0000
0000
0000
,  // measure 37
0100
0000
1000
0000
,  // measure 38
0010
0000
0100
0000
,  // measure 39
0001
0000
0000
0001
,  // measure 40
0001
0000
0000
0000
,  // measure 41
0000
0000
0000
0000
,  // measure 42
0000
0000
0000
0000
,  // measure 43
1001
0000
0010
0000
,  // measure 44
0000
0000
0000
0000
,  // measure 45
0000
0000
0100
0000
,  // measure 46
0100
0000
0100
0000
,  // measure 47
0000
0000
0000
0010
,  // measure 48
0010
0010
0000
0010
,  // measure 49
0010
0010
0000
0010
,  // measure 50
0010
0010
0000
0010
,  // measure 51
0010
0010
0000
1000
,  // measure 52
0001
1000
0000
0001
,  // measure 53
1000
0001
0000
1000
,  // measure 54
0001
1000
0000
0000
,  // measure 55
0000
0010
0000
0000
,  // measure 56
0000
1000
0000
0000
,  // measure 57
0000
0100
0000
0000
,  // measure 58
0000
0010
0000
0000
,  // measure 59
0000
0001
0000
0000
,  // measure 60
0000
1000
0000
0000
,  // measure 61
0000
0001
0000
0000
,  // measure 62
0000
0100
0000
0000
,  // measure 63
0000
0010
0000
0010
,  // measure 64
0000
0110
0000
0000
,  // measure 65
0000
1000
0000
0001
,  // measure 66
0000
1001
0000
0000
,  // measure 67
0000
0010
0000
0000
,  // measure 68
0000
1000
0000
0000
,  // measure 69
0000
0001
0000
0000
,  // measure 70
0000
0010
0000
0000
,  // measure 71
0000
0100
0000
0000
,  // measure 72
0000
0100
0000
0000
,  // measure 73
0000
1000
0000
0000
,  // measure 74
0000
0010
0000
0000
,  // measure 75
0000
0100
0000
0000
,  // measure 76
0000
0001
0000
0001
,  // measure 77
0000
0001
0000
1000
,  // measure 78
0000
0010
0000
0000
,  // measure 79
0000
0100
0000
0000
,  // measure 80
0000
0000
0000
0000
,  // measure 81
0110
0010
0000
0010
,  // measure 82
0000
0010
0000
0000
,  // measure 83
0000
1000
0000
1000
,  // measure 84
0000
0001
0000
0001
,  // measure 85
0000
1001
0000
0000
,  // measure 86
0000
0010
0000
1000
,  // measure 87
0000
1001
0000
0000
,  // measure 88
0000
0000
0000
0000
,  // measure 89
0000
0001
0000
0000
,  // measure 90
0000
1000
0000
0010
,  // measure 91
0000
0100
0000
0000
,  // measure 92
0000
0001
0000
0000
,  // measure 93
0000
1000
0000
0001
,  // measure 94
0000
0010
0000
0100
,  // measure 95
0000
0110
0000
0000
;
