#TITLE:Rose;
#SUBTITLE:;
#ARTIST:Corn And Beans;
#TITLETRANSLIT:;
#SUBTITLETRANSLIT:;
#ARTISTTRANSLIT:;
#CREDIT:;
#BANNER:bn.png;
#BACKGROUND:bg.png;
#LYRICSPATH:;
#CDTITLE:;
#MUSIC:Rose.mp3;
#OFFSET:-0.038;
#SAMPLESTART:36.880;
#SAMPLELENGTH:12.000;
#SELECTABLE:YES;
#BPMS:0.000=182.400,112.000=91.220,113.000=182.440,307.000=91.220,324.000=90.220;
#STOPS:113.000=0.329
,178.000=1.644
;
#BGCHANGES:;

//---------------dance-single - ----------------
#NOTES:
     dance-single:
     :
     Hard:
     8:
     0.491,0.561,0.321,0.026,0.043:
0000
0000
0000
0000
,
0000
0000
0000
0000
,
0000
0000
0000
0000
,
0000
0000
0000
0000
,
0000
0000
0000
0000
,
0000
0000
0000
0000
,
0000
0000
0000
0000
,
0000
0000
0000
0000
,
0001
0000
0101
0000
1100
0000
1000
0001
,
0100
0000
0110
0000
0010
1000
0100
0000
,
1000
0000
0001
0000
0010
0000
0001
0100
,
0010
0000
0110
0000
0010
1000
0100
0000
,
1000
0000
1000
0000
0001
0000
0001
0100
,
0010
0000
0100
0000
0010
1000
0100
0000
,
1000
0000
0001
0000
0010
0000
0001
0100
,
0020
0100
0100
0130
,
1001
0000
0101
0000
0011
0000
0001
0100
,
0010
0000
0110
0000
0010
1000
0100
0000
,
1000
0000
1100
0000
1010
0000
1000
0100
,
0010
0000
0110
0000
0100
0001
0010
0000
,
0001
0000
1000
0000
1100
0000
1000
0001
,
0100
0000
0110
0000
0010
1000
0100
0000
,
1000
0000
0001
0000
0010
0000
0001
0100
,
0010
0000
0110
0000
0010
1000
0001
0010
,
0100
0000
1000
0000
0010
0000
0100
0001
,
1000
0000
1100
0000
1000
0001
0010
0000
,
0001
0000
0001
0000
1001
0000
0001
0100
,
0010
0000
0100
0000
0010
1000
0100
0010
,
0002
0000
0003
0000
1000
0000
1000
0100
,
0000
0010
0001
0000
0001
0000
0100
0000
,
0010
1000
0001
0100
0001
0000
0001
0100
,
0000
0100
0010
0000
0010
0100
0010
1000
,
0010
0000
1010
0000
1000
0000
1000
0100
,
0000
0010
0001
0000
0001
0100
0010
0000
,
0100
0000
0110
0000
0010
0100
0010
0000
,
0001
1000
0001
0000
1100
0000
0011
0000
,
0101
0000
0000
0000
1010
0000
0000
0000
0001
0000
0000
1000
0000
0000
0100
0000
,
1000
0000
0000
0010
0000
0000
0100
0000
0010
0000
1000
0000
0010
0000
0100
0000
,
0010
0000
0000
0000
0100
0000
0000
0000
0010
0000
0000
1000
0000
0000
0100
0000
,
1000
0000
0000
0100
0000
0000
0010
0000
0001
0000
0010
0000
0001
0000
0010
0000
,
0001
0000
0010
0000
0001
0000
0000
0000
0010
0000
0000
0100
0000
0000
1000
0000
,
0010
0000
0000
0100
0000
0000
0001
0000
1000
0000
0001
0000
1000
0000
0001
0000
,
1000
0100
1100
0011
,
0101
1010
0011
1100
,
1010
0101
0110
0100
,
0010
1000
0001
0010
,
0010
0001
0100
0010
,
1000
0100
1000
0010
,
0100
0000
0001
0000
0001
0100
1000
0000
,
1000
0100
0100
0001
,
0001
0010
0010
0100
,
0100
1000
1000
0010
,
0100
0000
0001
0000
0001
1000
0010
0000
,
1000
0100
0000
0100
1000
0000
1000
0000
,
1000
0100
0000
0100
0010
0000
0010
0000
,
0010
0100
0000
0100
0010
0000
0100
0000
,
0010
0000
0001
0000
0001
0100
0010
0000
,
0010
1000
0000
1000
0100
0000
1000
0000
,
0100
0010
0000
0010
0001
0000
0101
0000
,
0001
0100
0000
0100
0010
0000
1000
0000
,
0001
0000
0100
0001
0100
0010
0200
0000
,
0010
0010
0310
0010
,
1000
0001
1000
0000
0010
0000
1000
0000
,
0100
1000
0100
0000
1000
0000
1100
0000
,
0010
0000
0011
0000
0100
0010
1000
0000
,
0010
1000
0000
1000
1000
0000
0001
0000
,
0001
0100
0000
0010
0010
0000
1000
0000
,
1000
0100
0000
0010
0001
0000
0001
0000
,
0100
0000
0010
0000
1000
0000
0001
1000
,
0001
0100
0001
1000
0010
0000
0000
0000
,
0000
0000
0000
0000
0100
0000
0100
1000
,
0100
0001
0010
0001
0010
0000
0000
0000
,
0000
0000
0011
0000
1100
0000
0001
0100
,
1000
0100
0001
0010
0100
0000
0000
0000
,
0000
0000
0000
0000
0010
0000
0100
0010
,
1000
0001
0010
0100
0010
0000
0000
0000
,
0000
0000
0000
0000
1000
0000
0000
0000
0001
0000
0000
0000
0100
0000
0000
0100
,
0000
0000
0010
0000
0000
0000
0000
0000
0000
0000
1000
0000
0001
0000
0000
0010
,
0000
0000
0100
0000
0000
0000
0000
0000
0100
0000
0010
0000
0001
0000
0000
0001
,
0000
0000
1000
0000
0000
0000
0000
0000
0000
0000
1000
0000
0010
0000
0000
0100
,
0000
0001
0000
0000
1000
0010
0101
0000
;

//---------------dance-single - ----------------
#NOTES:
     dance-single:
     :
     Medium:
     7:
     0.422,0.596,0.365,0.096,0.017:
0000
0000
0000
0000
,
0000
0000
0000
0000
,
0000
0000
0000
0000
,
0000
0000
0000
0000
,
0000
0000
0000
0000
,
0000
0000
0000
0000
,
0000
0000
0000
0000
,
0000
0000
0000
0000
,
0001
0000
0100
0000
0010
0000
1000
0100
,
0010
0000
0010
0000
0001
0010
0100
0000
,
0100
0000
0100
0000
0100
0000
0100
1000
,
0010
0000
1000
0000
0001
0100
0010
0000
,
0100
0000
0010
0000
1000
0000
0001
0010
,
0001
0000
0010
0000
0001
0100
0010
0000
,
0100
0000
1000
0000
0100
0000
1000
0100
,
2000
0000
0000
3000
,
0010
0000
0110
0000
1000
0000
1001
0001
,
0100
0010
0100
0100
,
0010
0000
1010
0000
0010
0000
0011
0010
,
0001
0000
0100
0000
0010
1000
0001
0000
,
1000
0000
1001
0000
0001
0000
0101
0001
,
0100
0000
0010
0000
0100
0010
0100
0000
,
0010
0000
0010
0000
1000
0000
0001
1000
,
0010
0000
1000
0000
0100
1000
0010
0000
,
0200
0000
0010
0000
,
0010
0010
0010
0000
,
0320
0000
1000
0000
,
1000
1000
1030
0000
,
2002
3003
0000
0000
1000
0000
0000
0101
,
0000
0110
0000
0000
,
0000
0000
1000
0000
1100
0000
0000
0110
,
0000
1100
0000
0000
,
0010
1000
0001
0000
0001
0000
0000
0110
,
0000
1001
0000
0000
,
0001
0100
0010
0000
0100
0000
0100
0000
,
0010
0010
1000
0001
,
0100
0010
2000
3100
,
0020
0000
0031
0000
0001
0100
0010
0000
,
0010
0100
0001
0000
0200
0000
0310
0000
,
2000
0000
3100
0000
0010
1000
0001
0000
,
0001
0100
0010
0000
2000
0000
3100
0000
,
0020
0000
0031
0000
0001
0100
0010
0000
,
0010
1000
0010
0000
1100
0000
1100
0000
,
0011
0011
0110
1001
,
0101
1010
1100
0010
,
0001
0010
0001
0100
,
1000
0100
1000
0010
,
1000
0010
1000
0100
,
1000
0000
0100
0000
1000
0100
0010
0000
,
0010
0010
0010
0001
,
0001
0001
0001
0100
,
0100
0100
0100
0010
,
0010
0000
0010
0000
0010
0100
0010
0000
,
0000
1000
0000
0000
0001
0000
0010
0000
,
0000
0001
0000
0000
0100
0000
0010
0000
,
0000
1000
0000
0000
0100
0000
1000
0000
,
1000
0001
0100
0010
,
0000
1000
0000
0000
0100
0000
1000
0000
,
0000
0010
0000
0000
0001
0000
0100
0000
,
0000
0100
0000
0000
0010
0000
1000
0000
,
0001
0000
0010
0001
0010
0100
1000
0000
,
0100
0000
1000
0100
1000
0000
0100
0000
,
0010
0000
0001
0100
0010
0000
1000
0000
,
0001
0000
1000
0001
1000
0000
0001
0000
,
0001
1000
1000
0001
,
0100
0010
1000
0000
0100
0000
1000
0000
,
0100
1000
0010
0000
0100
0000
0001
0000
,
0001
0100
0010
0000
0100
0000
0010
0000
,
0010
0100
0000
0100
0010
0000
0101
0000
,
0000
0110
0000
0000
1010
0000
0000
0000
,
0000
0000
1100
1100
,
0000
1100
0000
0000
0110
0000
0000
0000
,
0000
0011
0101
0110
,
0000
1001
0000
0000
0110
0000
0000
0000
,
0000
0000
1010
0101
,
0000
1100
0000
0000
0011
0000
0000
0000
,
0000
0000
0000
0000
0101
0000
0000
0000
0110
0000
0000
0000
0100
0000
0000
0010
,
0000
0000
1000
0000
0000
0000
0000
0000
0000
0000
0001
0000
0010
0000
0000
0001
,
0000
0000
0100
0000
0000
0000
0000
0000
0100
0000
0010
0000
0100
0000
0000
0001
,
0000
0000
0010
0000
0000
0000
0000
0000
0000
0000
0010
0000
0100
0000
0000
0010
,
0000
0001
0000
0000
1000
0001
0011
0000
;

//---------------dance-single - ----------------
#NOTES:
     dance-single:
     :
     Easy:
     4:
     0.260,0.315,0.113,0.130,0.000:
0000
0000
0000
0000
,
0000
0000
0000
0000
,
0000
0000
0000
0000
,
0000
0000
0000
0000
,
0000
0000
0000
0000
,
0000
0000
0000
0000
,
0000
0000
0000
0000
,
0000
0000
0000
0000
,
0001
1000
0001
0100
,
0100
0001
1000
0100
,
1000
0010
0100
0001
,
0010
0100
0010
0010
,
0001
0100
0010
1000
,
0100
0010
0100
0100
,
1000
0010
0100
0001
,
0202
0000
0000
0303
,
0000
0001
0000
1000
,
0000
0010
0100
0001
,
1000
0100
0000
0100
,
0000
0100
1000
0010
,
0100
0010
0000
0010
,
0000
0010
0010
1000
,
0001
0010
0000
0100
,
0000
0010
0000
0010
,
0001
1000
0001
1000
,
1000
1000
0001
0001
,
1000
0001
1000
0001
,
1000
1000
0001
0001
,
0000
0000
0000
0000
1000
0000
0000
0100
,
0000
0011
0000
0000
,
0000
0000
0001
0000
0100
0000
0000
0010
,
0000
1000
0000
0000
,
0001
0000
0001
0000
1000
0000
0000
1000
,
0000
0101
0000
0000
,
0001
0000
0010
0000
0100
0000
0000
0010
,
0000
1100
0000
0000
,
0010
0000
1000
0000
1001
0000
0000
0101
,
0000
0110
0000
0000
,
0000
0000
0010
0000
1010
0000
0000
0101
,
0000
1100
0000
0000
,
1000
0000
0100
0000
0011
0000
0000
1100
,
0000
0110
0000
0000
,
0000
0000
0010
0000
0001
0000
0000
0100
,
0000
0010
0000
0000
,
0000
0000
0010
0010
,
0000
0010
0000
0010
,
0000
0010
0000
0010
,
0000
0010
0000
0010
,
0000
0010
1000
0001
,
0000
0001
0000
0001
,
0000
0001
0000
0001
,
0000
0001
0000
0001
,
0000
0001
0001
1000
,
0000
0001
0000
0100
,
0000
0001
0000
0010
,
0000
0100
0000
0100
,
0000
1000
0000
0010
,
0000
0100
0000
0001
,
0000
1000
0000
0010
,
0000
0100
0000
0001
,
0000
1000
0000
0020
,
0000
1030
0000
1000
,
0000
0001
0000
0100
,
0000
0010
0000
1000
,
0000
0001
0000
0010
,
0000
0100
0000
1000
,
0000
0100
0000
0010
,
0000
0100
0000
1000
,
0000
0010
0000
0002
,
0000
0100
0000
0000
0200
0000
0000
0000
,
0000
0303
0010
2000
,
0000
0100
0000
0000
0200
0000
0000
0000
,
3300
1000
0100
0020
,
0000
0001
0000
0000
0002
0000
0000
0000
,
0000
0033
0010
0002
,
0000
0010
0000
0000
0020
0000
0000
0000
,
0033
0001
0100
0020
,
0000
0030
0000
0000
0000
1000
0200
0000
,
0000
0300
0000
0000
0010
0001
0200
0000
,
0000
0300
0000
0000
0000
0010
2000
0000
,
0000
0000
3000
0000
0001
0100
1000
0000
;

//---------------dance-single - ----------------
#NOTES:
     dance-single:
     :
     Beginner:
     2:
     0.162,0.245,0.026,0.000,0.000: // measure 1
0000
0000
0000
0000
,  // measure 2
0000
0000
0000
0000
,  // measure 3
0000
0000
0000
0000
,  // measure 4
0000
0000
0000
0000
,  // measure 5
0000
0000
0000
0000
,  // measure 6
0000
0000
0000
0000
,  // measure 7
0000
0000
0000
0000
,  // measure 8
0000
0000
0000
0000
,  // measure 9
0010
0000
0000
0000
,  // measure 10
0010
0000
1000
0000
,  // measure 11
0001
0000
0000
0000
,  // measure 12
0001
0000
1000
0000
,  // measure 13
0100
0000
0000
0000
,  // measure 14
0100
0000
1000
0000
,  // measure 15
0010
0000
0000
0000
,  // measure 16
0110
0000
0000
0000
,  // measure 17
0010
0000
0000
0000
,  // measure 18
1000
0000
1000
0000
,  // measure 19
0001
0000
0000
0000
,  // measure 20
0100
0000
0100
0000
,  // measure 21
0010
0000
0000
0000
,  // measure 22
1000
0000
1000
0000
,  // measure 23
0001
0000
0000
0000
,  // measure 24
0100
0000
0100
0000
,  // measure 25
0010
0000
0000
0000
,  // measure 26
0010
0000
0010
0000
,  // measure 27
0010
0000
0000
0000
,  // measure 28
1000
0000
1000
0000
,  // measure 29
1001
0000
0001
0000
,  // measure 30
0000
1000
0000
0000
,  // measure 31
0000
0010
0010
0000
,  // measure 32
0000
0100
0000
0000
,  // measure 33
0010
0010
1000
0000
,  // measure 34
0000
1000
0000
0000
,  // measure 35
0001
1000
0001
0000
,  // measure 36
0001
0000
0001
0000
,  // measure 37
0001
0001
1000
0000
,  // measure 38
1000
0000
1000
1000
,  // measure 39
1000
0000
0010
0000
,  // measure 40
0100
0000
0001
0001
,  // measure 41
0001
0000
1000
0000
,  // measure 42
0001
0000
0100
0100
,  // measure 43
0100
0000
0010
0000
,  // measure 44
0010
0000
0010
0000
,  // measure 45
0010
0010
0010
0100
,  // measure 46
0000
0000
0000
0010
,  // measure 47
0000
0000
0000
1000
,  // measure 48
0000
0000
0000
0001
,  // measure 49
0000
0000
1000
1000
,  // measure 50
0000
0000
0000
0001
,  // measure 51
0000
0000
0000
0100
,  // measure 52
0000
0000
0000
0010
,  // measure 53
0000
0000
0000
0010
,  // measure 54
0000
0000
0000
1000
,  // measure 55
0000
0000
0000
0001
,  // measure 56
0000
0000
0000
0100
,  // measure 57
0000
0010
0000
1000
,  // measure 58
0000
0000
0000
1000
,  // measure 59
0000
0000
0000
0001
,  // measure 60
0000
0000
0000
0100
,  // measure 61
0000
0010
0000
1000
,  // measure 62
0000
1000
0000
1000
,  // measure 63
0000
1000
0000
1000
,  // measure 64
0000
1000
0000
1000
,  // measure 65
1000
1000
1000
0001
,  // measure 66
0000
0001
0000
0001
,  // measure 67
0000
0001
0000
0001
,  // measure 68
0000
0001
0000
0001
,  // measure 69
0001
0001
0001
0100
,  // measure 70
0000
0010
0000
0000
,  // measure 71
0000
0000
0010
1000
,  // measure 72
0000
1000
0000
0000
,  // measure 73
0000
1000
0001
0100
,  // measure 74
0000
0100
0000
0000
,  // measure 75
0000
0000
0010
0010
,  // measure 76
0000
1000
0000
0001
,  // measure 77
0000
1000
0001
0100
,  // measure 78
0000
0000
0000
0010
,  // measure 79
0000
0000
1000
1000
,  // measure 80
0000
0000
0000
0001
,  // measure 81
0000
0000
0010
1001
;
