#TITLE:Reflections;
#SUBTITLE:;
#ARTIST:Jonathan Doemel;
#TITLETRANSLIT:;
#SUBTITLETRANSLIT:;
#ARTISTTRANSLIT:;
#CREDIT:;
#BANNER:bn.png;
#BACKGROUND:bg.png;
#LYRICSPATH:;
#CDTITLE:PandemiXium-cdtitle.png;
#MUSIC:Reflections.mp3;
#OFFSET:-0.034;
#SAMPLESTART:61.680;
#SAMPLELENGTH:12.000;
#SELECTABLE:YES;
#BPMS:0.000=70.000;
#STOPS:38.000=0.857
,87.500=0.907
;
#BGCHANGES:;

//---------------dance-single - ----------------
#NOTES:
     dance-single:
     :
     Hard:
     9:
     0.447,0.608,0.379,0.326,0.474:
0000
0000
0000
0000
,
0000
0000
0000
0000
,
0001
0000
1000
0000
0100
0000
0010
0000
0000
0000
0001
0000
1000
0010
0100
0000
,
0000
0100
0010
1000
0001
0010
0001
1000
,
1001
0000
0010
0000
0100
0000
0001
0000
0000
0000
1100
0000
1000
0001
0100
0000
,
0002
0000
0023
0032
,
2000
0000
0000
3003
0000
0000
1000
0000
0001
0000
0010
0000
0001
0000
0000
1000
0000
0001
0000
0001
0000
0010
0000
0001
,
0100
0010
1000
0001
0010
0001
0100
0010
1000
0001
0100
0010
1000
0000
0001
0000
0001
1000
0020
0000
0000
0030
0000
0000
,
0120
0000
0000
2030
0000
0000
3100
0000
0000
0000
0000
0000
1000
0001
0100
0010
0000
0100
0000
0010
0000
1000
0000
0100
,
2000
0000
0000
0200
0000
0000
3300
0000
0000
0000
0000
0000
2002
3003
0000
0000
0000
0000
0101
0000
0000
0010
0000
0000
,
0011
0000
0000
0100
0000
0000
0010
1000
0001
0010
0001
0100
0000
0010
0000
0010
0000
0010
0200
0000
0000
0310
0000
0000
,
1000
0000
0000
0000
0000
0000
0000
0000
0100
0000
0000
0000
0000
0000
0000
0000
1000
0000
0000
0000
0000
0000
0000
0000
0001
0000
0000
0000
0000
0000
0000
0000
0100
0000
0000
0000
0000
0000
0000
0000
0001
0000
0000
0000
0000
0000
0000
0000
0010
0000
0000
0000
0000
0000
0000
0000
0000
0000
0000
0000
0000
0000
0000
0000
0011
0000
0000
0000
0000
0000
0000
0000
0000
0000
0000
0000
0000
0000
0000
0000
1000
0000
0000
0000
0000
0000
0000
0000
0001
0000
0000
0000
0000
0000
0000
0000
0200
0000
0000
0000
0000
0000
0000
0000
0000
0000
0000
0000
0000
0000
0000
0000
0000
0000
0000
0000
0000
0000
0000
0000
0000
0000
0000
0000
0000
0000
0000
0000
0000
0000
0000
0000
0000
0000
0000
0000
0000
0000
0000
0000
0000
0000
0000
0000
0310
0000
0000
0000
0000
0000
0000
0000
0000
0000
0000
0000
0000
0000
0000
0000
0000
0000
0000
0000
0000
0000
0000
0000
0100
0000
0000
0000
0000
0000
0010
0000
0000
0000
0000
0000
1000
0000
0000
0000
0000
0000
0001
0000
0000
0000
0000
0000
,
0010
0000
0000
0000
0000
0000
0001
0010
0001
0100
0010
1000
0100
0000
0000
0000
0000
0000
0120
0000
0000
1030
0000
0000
,
0000
0000
0000
0000
0000
0000
0110
0000
0001
0000
0100
0000
0020
0000
0000
1030
0000
0000
1100
0000
0000
0101
0000
0000
,
2002
0000
0000
3003
0000
0000
1000
0000
0000
0001
1000
0100
1000
1000
0001
0001
0100
0010
1000
0000
0100
0000
0010
0000
,
0022
0000
0000
0033
0000
0000
0001
0000
1000
0000
0001
0000
0100
0000
0010
0000
1000
0000
1001
0000
0000
1010
0000
0000
,
0202
0000
0000
0303
0000
0000
0002
0000
0000
1003
0001
1000
0100
0100
1000
1000
0010
0010
0110
0000
0000
1001
0000
0000
,
0022
0033
0001
0010
0100
0010
1001
0000
,
0101
0000
0000
0000
0000
0000
0000
0000
0000
0000
0000
0000
0110
0000
0000
0000
0010
0000
1000
0000
0000
0000
0000
0000
0000
0000
0000
0000
0000
0000
0000
0000
0000
0000
0000
0000
1000
0000
0000
0001
0000
0000
0010
0000
0000
0000
0000
0000
,
0000
0001
0010
0000
0100
0000
1100
0010
,
0000
0000
0000
0000
0000
0000
0000
0000
1000
0000
1000
0100
0010
0000
0000
0000
0000
0000
0000
0000
0000
0000
0000
0000
0011
0000
0000
0000
1100
0000
0000
0000
,
0000
0000
0000
0000
0000
0000
0010
1000
0001
0010
0001
0100
0010
0000
0000
1000
0000
0000
1001
0000
0000
0101
0000
0000
,
1100
0000
1000
0001
0100
0010
0010
0000
1000
0000
0001
0010
0001
0000
2000
0000
,
3100
0000
1000
0001
0010
0000
0001
0001
1000
0001
0100
0010
1000
0000
1001
0000
,
0001
0000
1000
0001
0100
0000
0010
0100
0000
0010
1000
0000
0001
0010
0200
0000
,
0310
0000
0000
0000
0000
0000
0001
0000
0000
1000
0000
0000
0001
0000
0000
0000
0000
0000
0100
0000
0000
0010
0000
0000
0000
0000
0000
1000
0000
0000
1000
0000
0001
0000
0010
0000
0100
0000
1000
0000
0001
0000
0100
0000
0010
0000
1000
0000
,
0001
0000
0001
0100
0101
0100
0010
1000
1001
0001
0100
0010
1000
0000
0002
0000
,
0013
0001
0100
0010
0110
0010
1000
0001
1100
0100
0010
0001
0101
0010
1001
0000
,
1001
0001
0010
0100
1100
1000
0100
0010
0011
0001
0100
0010
0110
1000
1002
0000
,
1003
0000
0100
0000
0010
0000
0001
0000
0101
0000
0010
0000
0110
0000
1000
0000
0000
0000
1100
0000
0011
0000
1001
0000
2000
0000
3002
0000
0023
0000
0002
0030
,
1003
0001
0101
0000
0000
0010
1001
0200
,
0310
1000
1100
0000
0000
0001
1010
0100
,
0020
0000
0000
0000
0000
0000
0000
0000
0000
2030
0000
0000
0000
0000
0000
0000
0000
0000
3200
0000
0000
0000
0000
0000
0000
0000
0000
0320
0000
0000
0000
0000
0000
0000
0000
0000
0130
0000
0000
0000
0100
0000
0000
0000
0100
0000
0000
0000
,
0200
0000
0000
0320
0000
0000
0032
0000
0000
2003
0000
0000
3010
1000
0100
0000
,
2002
0000
0000
0000
0000
0000
0000
3003
;

//---------------dance-single - ----------------
#NOTES:
     dance-single:
     :
     Medium:
     6:
     0.311,0.370,0.394,0.227,0.057:
0000
0000
0000
0000
,
0000
0000
0000
0000
,
0001
1000
0100
1000
0000
1000
0010
0100
,
0000
0100
0010
1000
0010
0100
0001
0010
,
0001
0000
0010
0000
0001
0000
0100
0000
0000
0000
0101
0000
0001
0100
0010
0000
,
2000
0000
0200
3300
,
2002
0000
0000
0000
0000
0000
0000
3003
1000
0000
0001
0000
0100
0000
0001
0000
,
0010
0010
0011
1100
1002
0100
0020
0033
,
0011
0000
1100
0000
2020
0000
0000
3030
0010
0000
2000
0000
0100
0000
3010
0000
,
1010
0202
0000
0303
1001
0000
1001
1100
,
1000
0000
0010
0100
0001
0000
0010
0000
0011
0000
0001
0000
0100
0000
0010
1000
,
0001
1000
0002
1003
2000
3100
1100
0011
,
2002
0000
3003
0000
0101
0000
0100
0010
1000
0000
0000
0000
1001
0000
1100
0000
,
1000
0010
0100
0000
2002
0000
0000
0000
0000
0000
3003
0000
1000
0000
0200
0000
,
0002
0303
0101
1100
1010
1100
0002
0203
,
2000
3300
1100
1010
0011
0101
2000
3020
,
0200
0330
0010
1000
0001
0010
0002
0203
,
0020
0330
0010
0100
0010
0100
1001
0000
,
1000
0000
0001
0001
0000
0000
0100
0010
,
0000
0010
1000
0000
0001
0000
1001
1001
,
0000
0000
0000
0000
0001
0100
0010
0000
0000
0000
0000
0000
0010
0000
0110
0000
,
0000
0000
0010
1000
0100
1000
0010
0100
,
0001
0000
0000
1000
0000
0000
0001
0000
0000
0010
0000
0000
0001
0000
0101
0000
,
0100
0000
0000
0010
0000
0000
1000
0000
0000
0001
0000
0000
0010
0001
0100
0000
,
0100
0000
0000
0010
0000
0000
1000
0000
0000
0001
0000
0000
0010
0000
0011
0000
,
1100
0000
0000
1000
0000
0000
0010
0000
0000
0100
0000
0000
0010
0000
1000
0000
,
1001
1000
0100
0010
0001
0100
0010
1001
,
0101
0001
0100
0010
1000
0100
1100
0011
,
1001
0001
0100
0001
0010
0100
1000
1100
,
0100
1000
0010
0100
0010
1000
0001
0010
,
0001
0100
1010
0000
0000
1000
0101
0000
,
0001
1000
1010
0000
0000
0010
0101
0000
,
0001
1000
0110
0000
0000
0010
1001
0000
,
1000
0001
0011
0000
0000
0001
1100
0000
,
2002
0000
0000
0000
0000
0000
0000
3003
;

//---------------dance-single - ----------------
#NOTES:
     dance-single:
     :
     Easy:
     2:
     0.163,0.166,0.091,0.144,0.000:
0000
0000
0000
0000
,
0000
0000
0000
0000
,
0001
1000
0010
1000
,
0010
0000
0100
0001
,
1000
0010
0100
0000
,
0002
0000
0000
0000
2000
0000
0000
3003
,
0220
0000
0000
0330
0010
0000
0100
0000
,
0010
1000
0002
0003
,
2000
0000
0010
3010
,
0200
0002
0000
0303
1001
0000
0010
1000
,
0100
0000
0100
0000
1000
0000
0010
0100
,
0001
0000
0001
1000
0100
0000
0220
0000
,
0000
0000
0330
0000
0010
0000
0100
0200
,
0000
0300
0010
0020
0000
0030
1000
0002
,
0200
0000
0303
0000
0000
0000
0001
1000
,
0020
0000
0030
0000
0000
0000
0010
2000
,
0200
0000
3300
0000
0000
0000
0010
0002
,
0200
0303
0000
0001
,
1000
0010
0000
0010
,
0000
0000
0100
0000
0001
0000
1000
1000
,
0000
0010
0000
1000
,
0000
0000
0001
0100
0010
1000
0100
0100
,
1000
0000
1000
0000
0001
0000
0100
0010
,
1000
0000
0001
0000
0100
0000
0010
1000
,
1001
0000
0010
0000
0100
0000
0001
1000
,
0100
0000
0010
0000
0010
0001
0100
0010
,
1000
0000
0001
0000
0010
0000
0100
0010
,
0001
0000
0100
0000
0010
0000
1000
1000
,
1000
0000
0001
0000
0100
0000
0010
1000
,
0100
0000
0010
0000
0010
0001
0100
0010
,
1000
1001
0000
0101
,
0000
1010
0000
1100
,
0000
0011
0000
0101
,
0000
0110
0000
1001
;

//---------------dance-single - ----------------
#NOTES:
     dance-single:
     :
     Beginner:
     1:
     0.083,0.116,0.083,0.008,0.000: // measure 1
0000
0000
0000
0000
,  // measure 2
0000
0000
0000
0000
,  // measure 3
0010
0000
0000
0000
,  // measure 4
1000
0000
0001
0000
,  // measure 5
1000
0000
0000
0000
,  // measure 6
0020
0000
0030
0000
,  // measure 7
0110
0000
0010
1000
,  // measure 8
1000
0000
0001
0001
,  // measure 9
1001
0000
0010
0000
,  // measure 10
0100
0000
1001
0001
,  // measure 11
0000
1000
1000
1000
,  // measure 12
0000
0010
0010
0100
,  // measure 13
0000
0001
0000
1000
,  // measure 14
0000
1001
0000
0000
,  // measure 15
0110
0000
0000
0000
,  // measure 16
1001
0000
0000
0000
,  // measure 17
1001
0000
0000
0000
,  // measure 18
0110
0010
1000
1001
,  // measure 19
0000
0010
0000
0100
,  // measure 20
0000
0010
0010
0010
,  // measure 21
0000
0100
0000
0001
,  // measure 22
0000
1000
0000
0010
,  // measure 23
0100
0000
0000
0000
,  // measure 24
0010
0000
0000
1000
,  // measure 25
0001
0000
0000
0000
,  // measure 26
1000
0000
0010
0100
,  // measure 27
1001
0000
0000
0000
,  // measure 28
0001
0000
0000
1000
,  // measure 29
0010
0000
0000
0000
,  // measure 30
0100
0000
0010
0000
,  // measure 31
0000
1000
0000
0001
,  // measure 32
0000
0100
0000
0010
,  // measure 33
1000
1000
0000
0001
,  // measure 34
0100
0100
0000
0001
,  // measure 35
1001
0000
0000
0000
;
