#TITLE:Put A Donk On It;
#SUBTITLE:;
#ARTIST:Blackout Crew;
#TITLETRANSLIT:;
#SUBTITLETRANSLIT:;
#ARTISTTRANSLIT:;
#CREDIT:;
#BANNER:bn.png;
#BACKGROUND:bg.png;
#LYRICSPATH:;
#CDTITLE:PandemiXium-cdtitle.png;
#MUSIC:Put A Donk On It.mp3;
#OFFSET:-0.282;
#SAMPLESTART:77.040;
#SAMPLELENGTH:12.000;
#SELECTABLE:YES;
#BPMS:0.000=150.000;
#STOPS:;
#BGCHANGES:;

//---------------dance-single - ----------------
#NOTES:
     dance-single:
     :
     Hard:
     8:
     0.536,0.591,0.321,0.234,0.097:
0000
0000
0000
0000
,
0000
0000
0000
0000
,
0000
0000
0000
0000
,
0000
0000
0000
0000
,
0001
0001
0001
0001
,
1000
1000
1000
1000
,
0010
0100
0010
1000
,
2002
0000
0000
3003
,
1000
0001
0010
0000
0001
0000
0100
0000
,
0110
0000
0000
0010
1000
0001
0001
0000
,
0001
0010
0100
0000
0100
0000
0010
0000
,
1001
0000
0000
0001
1000
0100
0010
0000
,
0002
0100
0003
0000
0000
0000
0000
0000
,
0000
0000
0000
0001
0020
0001
0031
0000
,
0101
1100
0101
1100
,
0010
0000
0000
0010
0100
0000
0010
0000
1000
0000
0100
0000
0010
0000
0100
0000
,
1000
0000
1000
0000
1000
0001
0100
0001
,
0010
0000
0010
0000
0010
0001
0100
0000
,
0010
0000
0100
0000
0010
1000
0001
0000
,
1000
0001
0010
0001
0100
1000
0100
0000
,
0110
0000
1001
0000
1000
0100
1000
0000
,
0010
0000
0101
0000
0001
0100
0010
0000
,
0100
0010
1000
0000
1000
0100
1000
0010
,
0100
0010
1000
0001
1000
0100
0010
0000
,
0001
0100
0010
1000
0200
0000
0310
0000
,
0001
0010
0001
0100
0020
0000
0130
0000
,
0100
0001
1000
0001
0020
0000
0130
0000
,
0100
0010
1000
0000
0010
1000
0100
1000
,
0002
0000
0013
0000
0001
0100
1000
0100
,
0002
0000
0013
0000
0001
0010
1000
0010
,
0002
0000
0013
0000
0001
0100
0010
0100
,
0000
0000
0000
0000
,
1001
0000
0000
1000
0001
0010
0001
0100
,
0010
1000
0001
0010
0010
0001
0100
0000
,
0010
1000
0001
0000
0001
0010
0001
0000
,
0001
0010
0100
0010
0001
0100
0010
1000
,
0010
0100
1000
0100
0000
0001
0000
0001
,
0010
0001
0100
0010
0000
0010
0000
0010
,
1000
0001
0010
0001
0000
0001
0000
0001
,
0010
0100
1000
0100
1000
0010
0100
1000
,
0001
0010
0001
0000
0011
0000
1100
0000
,
1000
0001
0100
0000
0100
0001
0010
0100
,
1000
0000
1001
0000
0001
0100
0010
0000
,
0010
1000
0100
1000
0010
0100
0010
1000
,
0001
1000
0001
0010
0001
0100
0010
1000
,
0001
0010
0001
1000
0001
0100
0110
0000
,
0100
0010
1000
0000
1000
0100
1000
0000
,
1001
0011
0101
1010
,
2002
0000
0000
0000
3003
0000
2000
0000
0000
3002
0000
0000
0023
0000
0031
0000
,
0000
0000
0000
0000
0000
0000
0001
0100
0001
0000
0000
0010
0001
0000
0000
0001
,
0100
0000
0010
0000
0000
0000
0010
0000
0000
1000
0000
0000
0020
0030
0010
0000
,
0000
0000
0000
0000
0000
0000
0100
0010
1000
0000
0000
1000
0100
0000
0000
0000
,
1100
0000
1100
0000
0000
0000
0020
0000
0000
0000
0000
0000
0000
0030
0000
0000
,
0000
0000
0000
0000
0000
0000
0100
1000
0100
0000
0000
1000
0010
0000
0000
0000
,
1100
0000
1010
0000
1000
0001
0010
0001
,
0101
0000
0000
0000
0110
0000
0000
0000
0010
0000
1000
0000
0001
0010
0001
0010
,
0001
0000
0000
1000
0000
0000
0001
0000
0000
0010
0000
0000
0001
0000
0100
0000
,
0000
0000
0000
0000
0000
0000
0010
1000
0002
0000
0000
0000
0013
0000
0000
0001
,
0100
0000
0110
0000
0000
0000
0020
0000
0000
1030
0000
0000
0012
0000
0013
0000
,
0000
0000
0000
0000
0000
0000
0001
0010
0002
0000
0000
0000
1003
0000
0000
0000
,
1000
1000
0000
0202
0000
0000
0303
0000
,
0000
0000
0000
0000
0000
0000
0001
1000
0020
0000
0000
0000
0130
0000
0000
0000
,
0110
0110
1001
1001
,
0001
0000
0000
0001
1000
0000
0001
0000
0010
0000
0001
0000
0100
0000
0001
0000
;

//---------------dance-single - ----------------
#NOTES:
     dance-single:
     :
     Medium:
     5:
     0.319,0.373,0.234,0.107,0.000:
0000
0000
0000
0000
,
0000
0000
0000
0000
,
0000
0000
0000
0000
,
0000
0000
0000
0000
,
0000
0000
0000
0000
,
0000
0000
0000
0000
,
0000
0000
0000
0000
,
0000
0000
1001
0110
,
1001
0000
0000
0000
,
0000
0000
0000
0001
0100
1000
0000
0000
,
1100
0000
0000
0000
,
0000
0000
0000
1000
0010
0001
0000
0000
,
0101
0000
0000
0000
,
0000
0000
0000
0001
0100
0010
0100
0000
,
0100
0000
0010
0000
,
2002
0000
0000
3003
,
0001
0000
1000
0000
,
0010
1000
0100
1000
,
0010
0010
0100
0100
,
0010
0000
1000
0000
0001
1000
0001
0000
,
1000
1000
0001
0001
,
0100
0010
1000
0100
,
1000
0010
0100
0010
,
0100
0000
1000
0001
1000
0000
0110
0000
,
0100
0100
0010
0010
,
0100
0010
1000
0001
,
0010
0010
0001
0001
,
0100
0010
1000
1000
,
1100
1000
0010
0100
,
0101
0001
0010
0100
,
0010
0001
1000
0100
,
2020
0000
0000
3030
,
0101
0000
0000
0000
0001
0100
0001
0000
,
0100
0000
0010
0000
1000
0010
0100
0000
,
0010
0000
0010
0000
1000
0001
0100
0000
,
0001
0000
1000
0000
0100
1000
0010
0100
,
0001
0000
0001
0000
0001
1000
0100
0000
,
1000
0000
0010
0000
0100
0010
1000
0001
,
0010
0001
0001
0000
,
0100
0000
0010
0000
,
1001
0000
0110
0000
0010
1000
0100
0000
,
1000
1000
0001
0001
,
0100
0000
0010
0000
1000
0100
1000
0010
,
0100
0001
0010
0001
,
0100
0010
1000
1000
,
0001
0001
0100
0100
,
0010
0000
1000
0000
0001
0010
0001
0100
,
0020
0000
0000
0030
,
0220
0000
0000
0330
0000
0000
0000
0000
,
0000
0000
0000
1000
0001
1000
0001
0000
,
2200
0000
3300
0000
,
0000
0000
0000
0001
0010
0001
0010
0000
,
2200
0000
0000
3300
0000
0000
0000
0000
,
0000
0000
0000
0001
0100
0001
0100
0000
,
0000
0000
0000
0000
,
0101
1100
0101
1100
,
0101
0000
0000
0000
,
0000
0000
0000
0010
0010
0010
0010
0000
,
0110
0000
0000
0000
,
0000
0000
0000
0100
0100
0100
0100
0000
,
1001
0000
0000
0000
,
0000
0000
0000
1000
1000
1000
1000
0000
,
0001
1000
0100
0010
,
0011
0000
0001
0100
1000
0100
0001
0001
;

//---------------dance-single - ----------------
#NOTES:
     dance-single:
     :
     Easy:
     4:
     0.250,0.342,0.273,0.117,0.000: // measure 1
0000
0000
0000
0000
,  // measure 2
0000
0000
0000
0000
,  // measure 3
0000
0000
0000
0000
,  // measure 4
0000
0000
0000
0000
,  // measure 5
0000
0000
0000
0000
,  // measure 6
0000
0000
0000
0000
,  // measure 7
0000
0000
0000
0000
,  // measure 8
0000
0000
0000
0000
,  // measure 9
0110
0000
0000
0000
,  // measure 10
0000
0000
0010
1000
,  // measure 11
1001
0000
0000
0000
,  // measure 12
0000
0000
0001
0100
,  // measure 13
0110
0000
0000
0000
,  // measure 14
0000
0000
0010
1000
,  // measure 15
0001
0000
1000
0000
,  // measure 16
0220
0000
0000
0330
,  // measure 17
0010
0000
1000
0000
,  // measure 18
0010
0100
0001
1000
,  // measure 19
0010
0000
0010
0000
,  // measure 20
0010
1000
0001
0010
,  // measure 21
0100
0000
0100
0000
,  // measure 22
0100
1000
0010
0100
,  // measure 23
0001
0001
1000
1000
,  // measure 24
0100
0001
1000
0001
,  // measure 25
0100
0100
0100
0100
,  // measure 26
0010
0010
0110
1001
,  // measure 27
0010
1000
0010
0100
,  // measure 28
0001
0010
1100
0011
,  // measure 29
0001
0100
0010
1000
,  // measure 30
0001
0010
0011
1100
,  // measure 31
0010
0001
0100
0010
,  // measure 32
1000
0000
0000
0000
,  // measure 33
0110
0000
0010
0000
,  // measure 34
0010
1000
0001
0010
,  // measure 35
0001
0000
0010
0000
,  // measure 36
0100
0000
1100
0011
,  // measure 37
0110
0000
0010
0000
,  // measure 38
0100
0010
1001
0110
,  // measure 39
0000
0010
0000
1000
,  // measure 40
0002
0000
0000
0003
,  // measure 41
1000
1000
1000
0000
,  // measure 42
0001
0100
0110
0110
,  // measure 43
0010
0000
0100
0000
,  // measure 44
0010
1000
1001
0101
,  // measure 45
0010
0000
0100
0000
,  // measure 46
0010
1000
0001
0011
,  // measure 47
0000
0010
0000
0100
,  // measure 48
0020
0000
0000
0030
,  // measure 49
0022
0000
0000
0000
,  // measure 50
0033
0000
0000
0000
1000
0001
1000
0000
,  // measure 51
0220
0000
0000
0000
,  // measure 52
0330
0000
0000
0000
0010
1000
0010
0000
,  // measure 53
0202
0000
0000
0000
,  // measure 54
0303
0000
0000
0000
0001
0100
0001
0000
,  // measure 55
0000
0000
0000
0000
,  // measure 56
0010
0010
0010
0010
,  // measure 57
0110
0000
0000
0000
,  // measure 58
0000
0000
0000
0000
0001
0100
1000
0000
,  // measure 59
1100
0000
0000
0000
,  // measure 60
0000
0000
0000
0000
1000
0100
0001
0000
,  // measure 61
0011
0000
0000
0000
,  // measure 62
0000
0000
0000
0000
0001
0100
0010
0000
,  // measure 63
0100
0000
0010
0000
,  // measure 64
2002
0000
0000
0000
0000
0000
3000
0003
;

//---------------dance-single - ----------------
#NOTES:
     dance-single:
     :
     Beginner:
     1:
     0.166,0.249,0.097,0.058,0.000: // measure 1
0000
0000
0000
0000
,  // measure 2
0000
0000
0000
0000
,  // measure 3
0000
0000
0000
0000
,  // measure 4
0000
0000
0000
0000
,  // measure 5
0000
0000
0000
0000
,  // measure 6
0000
0000
0000
0000
,  // measure 7
0000
0000
0000
0000
,  // measure 8
0000
0000
0000
0000
,  // measure 9
0010
0000
0000
0000
,  // measure 10
0000
0000
1000
1000
,  // measure 11
1001
0000
0000
0000
,  // measure 12
0000
0000
0100
0100
,  // measure 13
0110
0000
0000
0000
,  // measure 14
0000
0000
0010
0010
,  // measure 15
0100
0000
0010
0000
,  // measure 16
1001
0000
0000
0000
,  // measure 17
0001
0000
1000
0000
,  // measure 18
0001
0000
1000
1000
,  // measure 19
1000
0000
0010
0000
,  // measure 20
0100
0000
0010
0010
,  // measure 21
0010
0000
0100
0000
,  // measure 22
0001
0000
1000
1000
,  // measure 23
1000
0000
0001
0000
,  // measure 24
0000
0000
0000
0000
,  // measure 25
0100
0000
0100
0000
,  // measure 26
0100
0000
0010
0010
,  // measure 27
1000
0000
0001
0000
,  // measure 28
0100
0000
0010
0010
,  // measure 29
0010
0000
0100
0000
,  // measure 30
0010
0000
1000
1000
,  // measure 31
0001
0000
1000
0000
,  // measure 32
0001
0000
0000
0000
,  // measure 33
0110
0000
0010
0000
,  // measure 34
0010
1000
0010
0000
,  // measure 35
1000
0000
0001
0000
,  // measure 36
1000
1000
1000
0000
,  // measure 37
0001
0000
0100
0000
,  // measure 38
0010
0000
1000
1000
,  // measure 39
1000
0000
0010
0000
,  // measure 40
0100
0000
0000
0000
,  // measure 41
0010
0000
0010
0000
,  // measure 42
0010
0010
0010
0000
,  // measure 43
1000
0000
0001
0000
,  // measure 44
0100
0010
1000
0001
,  // measure 45
0100
0000
0100
0000
,  // measure 46
0010
0000
0010
0000
,  // measure 47
1000
0000
0001
0000
,  // measure 48
2002
0000
0000
3003
,  // measure 49
0220
0000
0000
0000
,  // measure 50
0330
0000
0000
0000
,  // measure 51
0010
0000
0000
0000
,  // measure 52
0000
0000
0000
0000
,  // measure 53
1001
0000
0000
0000
,  // measure 54
0000
0000
0000
0000
,  // measure 55
0100
0000
0000
0000
,  // measure 56
0010
0010
0010
0020
,  // measure 57
0130
0000
0000
0000
,  // measure 58
0000
0000
0010
0010
,  // measure 59
1001
0000
0000
0000
,  // measure 60
0000
0000
0100
0100
,  // measure 61
1001
0000
0000
0000
,  // measure 62
0000
0000
1000
1000
,  // measure 63
0110
0000
0001
0000
,  // measure 64
2000
0000
0000
0000
0000
0000
0000
3000
;
