#TITLE:Programmed Life;
#SUBTITLE:;
#ARTIST:kors k;
#TITLETRANSLIT:;
#SUBTITLETRANSLIT:;
#ARTISTTRANSLIT:;
#CREDIT:;
#BANNER:bn.png;
#BACKGROUND:bg.png;
#LYRICSPATH:;
#CDTITLE:PandemiXium-cdtitle.png;
#MUSIC:10 Programmed Life.mp3;
#OFFSET:-0.040;
#SAMPLESTART:50.000;
#SAMPLELENGTH:12.000;
#SELECTABLE:YES;
#BPMS:0.000=145.000;
#STOPS:120.000=1.241
,151.000=0.414
,180.000=1.241
,211.000=0.207
,211.500=0.207
;
#BGCHANGES:;

//---------------dance-single - ----------------
#NOTES:
     dance-single:
     :
     Hard:
     7:
     0.380,0.368,0.000,0.000,0.107:
0000
0000
0000
0000
,
0000
0000
0000
0000
,
0000
0000
0000
0000
,
0000
0000
0000
0000
,
1000
0000
0000
0010
0000
0000
0100
0000
,
0000
0000
0000
0000
,
0001
0000
0000
1000
0000
0000
0010
0000
,
0100
0010
1000
0001
,
0010
0000
0000
0010
0000
0000
0010
0000
,
0100
0000
0010
0000
0001
0000
0001
0010
,
0100
0000
0000
0010
0000
0001
0100
0000
,
0010
1000
0001
1000
,
0100
0000
0010
0001
0000
0001
0100
0000
,
0010
0100
0001
1000
,
1000
0000
0000
0001
0000
1000
0100
0000
,
1000
0100
0000
0001
0010
0000
0001
0000
,
0001
1000
0000
0001
0100
0000
0010
0000
,
0100
0010
0000
0010
0001
0000
0001
0000
,
1000
0100
0000
1000
0010
0000
0100
0000
,
0001
1000
0000
1000
0001
0000
0010
0000
,
0001
0010
0000
0100
1000
0000
0001
0000
,
1000
1000
0000
0001
0001
0000
0010
0000
,
0010
0010
0000
0001
0001
0000
1000
0000
,
0100
0100
0000
1000
1000
0000
0010
0000
,
0100
0100
0000
0010
0010
0000
0100
0000
,
0010
1000
0000
0001
0010
0000
0001
0000
,
1000
0000
0001
0010
0001
0000
0100
0000
,
0010
0000
0010
1000
0001
0000
1000
0000
,
1000
0000
0001
0100
0001
0000
0010
0000
,
0001
0000
0000
1000
0000
0000
0100
0000
1000
0000
0000
0010
0000
0000
0100
0000
,
0010
0000
0000
0000
0001
0000
0000
1000
0000
0000
0100
0000
1000
0000
0000
0000
,
0010
0000
0000
0000
0100
0000
0000
0010
0000
0000
1000
0000
0001
0000
0010
0000
,
0001
0000
0000
0000
0001
0000
0000
1000
0000
0000
0100
0000
1000
0000
0000
0000
,
0010
0000
0000
0000
0100
0000
0000
0010
0000
0000
1000
0000
0001
0000
1000
0000
,
0010
0000
0000
0000
0100
0000
0000
0100
0000
0000
0100
0000
0010
0000
0000
0000
,
0100
0000
0000
0000
0010
0000
0000
1000
0000
0000
0001
0000
0010
0000
0100
0000
,
1000
0000
0000
0000
0001
0000
0000
1000
0000
0000
0001
0000
0010
0000
0001
0000
,
0100
0000
0000
0000
0010
0000
0000
0100
0000
0000
0001
0000
1000
0000
0000
0000
,
0001
0000
0000
0001
0000
0000
0001
0000
1000
0000
0000
1000
0000
0000
1000
0000
,
0100
0000
0000
0100
0000
0000
0100
0000
0010
0000
0000
0010
0000
0000
0010
0000
,
0001
0000
0000
1000
0000
0000
0001
0000
0010
0000
0000
0001
0000
0000
0010
0000
,
0001
0000
0000
0100
0000
0000
0010
0000
1000
0000
0000
0000
0001
0000
0000
0000
,
1000
0000
0000
0100
0000
0000
1000
0000
0010
0000
0000
0100
0000
0000
0010
0000
,
1000
0000
0000
0001
0000
0000
0010
0000
0001
0000
0000
0100
0000
0000
0100
0000
,
0001
0000
0000
0010
0000
0000
0001
0000
1000
0000
0000
0100
0000
0000
1000
0000
,
0100
0000
0100
0010
0001
1000
0010
0000
,
0010
0100
0010
1000
,
0001
0000
0010
0001
0100
0010
1000
0000
,
1000
1000
0001
0001
,
0010
0000
0001
0010
0100
1000
0001
0000
,
1000
0001
0010
0100
,
1000
0000
1000
0100
1000
0010
0100
0000
,
0001
0000
1000
0000
1000
0000
0001
0100
,
0010
1000
0001
0010
0001
0000
1000
0000
,
0001
0000
0010
0000
0001
0010
0001
0000
,
0100
0010
1000
0100
0001
0100
1000
0000
,
1000
0010
0100
0001
,
1000
1000
0001
0010
0001
0000
0010
0000
,
0001
0100
0010
1000
,
0001
1000
0100
0000
1000
0000
0001
0000
,
0010
0100
0010
1000
0001
0010
0001
1000
,
0010
0000
0000
0000
;

//---------------dance-single - ----------------
#NOTES:
     dance-single:
     :
     Medium:
     5:
     0.357,0.425,0.000,0.863,0.000:
0000
0000
0000
0000
,
0000
0000
0000
0000
,
0000
0000
0000
0000
,
0000
0000
0000
0000
,
0020
0000
0000
0030
,
0000
0000
0000
0000
,
2000
0000
0000
3000
,
0002
0000
0100
0100
,
0203
0000
0000
0300
,
0000
0010
1000
0001
,
2000
0000
0000
0000
,
3000
1000
0100
0010
,
0002
0000
0000
0003
,
0000
0010
0001
0100
,
0020
0000
0000
0030
,
0200
0000
0010
0310
,
0020
0000
1000
1030
,
2000
0000
0100
3100
,
2000
0000
0010
3010
,
0020
0000
0100
0130
,
0200
0000
0001
0301
,
0002
0000
1000
1003
,
2000
0000
0100
3100
,
0020
0000
0100
0130
,
0200
0000
0001
0301
,
0002
0000
0010
0013
,
0002
0000
2003
0000
,
3002
0000
0203
0000
,
0320
0000
0230
0000
,
0320
2030
3002
0023
,
0031
0002
0203
0020
,
0330
0020
2030
0200
,
3300
2000
3020
0200
,
0330
0020
2030
0002
,
3003
0002
0203
0020
,
0330
0020
2030
0200
,
3300
2000
3020
0200
,
0330
0020
2030
3001
,
0002
0203
0020
0330
,
0020
2030
0200
3300
,
2000
3020
0200
0330
,
0020
0000
2030
0000
3001
0000
0001
0100
,
0020
0100
0200
0330
,
0010
2000
0200
3300
,
1000
0100
0010
0001
,
0000
2000
3002
0200
,
0303
0001
0000
1000
,
0000
0020
2030
0200
,
3300
0000
1000
0000
1000
0001
0100
0000
,
0010
0010
0200
0000
0010
0000
0020
0000
,
0330
0020
1030
0002
,
0013
0002
0100
0100
,
0103
0001
0200
0000
0010
0000
0310
0000
,
0002
1000
0200
0303
,
0001
0100
0020
0000
0100
0000
0130
0000
,
0010
1000
0020
0000
0100
0000
0130
0000
,
0020
2030
3002
0023
,
0031
0100
0020
0000
0100
0000
0130
0000
,
0010
1000
0002
0000
1000
0000
0103
0000
,
0001
0100
0020
0000
0100
0000
0100
0030
,
0020
2030
3002
0023
,
0031
0000
0000
0000
;

//---------------dance-single - ----------------
#NOTES:
     dance-single:
     :
     Easy:
     4:
     0.233,0.311,0.529,0.000,0.000:
0000
0000
0000
0000
,
0000
0000
0000
0000
,
0000
0000
0000
0000
,
0000
0000
0000
0000
,
0010
0000
0000
0000
,
1000
0000
0000
0000
,
0001
0000
0000
0000
,
0101
0000
0000
0000
,
0100
0000
0000
0000
,
0000
0010
0000
1000
,
1001
0000
0000
0000
,
0100
0000
0010
0000
,
1100
0000
0000
0000
,
1000
0000
0010
0000
,
0101
0000
0000
0000
,
1001
0000
0000
0000
,
0110
0000
0000
0000
,
1010
0000
0000
0000
,
0101
0000
0000
0000
,
0011
0000
0000
0000
,
1100
0000
0000
0000
,
1010
0000
0000
0000
,
0110
0000
0000
0000
,
0101
0000
0000
0000
,
0011
0000
0000
0000
,
1100
0000
0000
0000
,
1010
0000
0000
0000
,
1010
0000
0100
0000
,
0101
0000
0001
0000
,
0011
0000
1100
0000
,
1001
0001
0100
0101
,
0000
1000
0100
1100
,
0000
1000
0010
1010
,
0000
0001
0010
0011
,
0001
0011
0001
0101
,
0000
0100
0010
1001
,
0000
1000
0100
1100
,
0000
1000
0001
0101
,
0001
0100
0110
0000
,
0010
1000
1100
0000
,
1000
0010
0101
0000
,
0001
1000
1100
0000
,
1000
0010
0110
0000
,
0010
1000
1001
0000
,
0001
0000
1000
0000
,
0100
1000
0010
0100
,
0101
0000
0001
0000
,
1000
0001
0100
0010
,
0110
0110
0000
1001
,
0000
1000
1000
1000
,
0000
1001
0000
0101
,
0000
0001
0001
0001
,
1001
0101
0010
1001
,
0101
0000
0000
0000
,
1010
0000
1000
0000
,
1100
0000
0000
0000
,
1010
0000
0101
0000
,
1001
0000
0000
0000
,
0110
0000
0010
0000
,
1010
0000
0100
0000
,
0101
1100
0011
1010
,
0100
0000
0000
0000
;

//---------------dance-double - ----------------
#NOTES:
     dance-double:
     :
     Challenge:
     7:
     0.456,0.453,0.223,0.325,0.037:
00000000
00000000
00000000
00000000
,
00000000
00000000
00000000
00000000
,
00000000
00000000
00000000
00000000
,
00000000
00000000
00000000
00000000
,
10000000
00010000
01000000
00020000
00000000
00100000
00130000
00000000
,
00000000
00000000
00000000
00000000
,
00100000
00001000
00010000
00000100
00001000
00000010
00000100
00000001
,
00000010
00000001
00000100
00000010
,
00000010
00001000
00000100
00010000
00001000
00100000
00010000
00000000
,
01000000
00100000
10000000
10000000
,
10000000
01000000
10000000
00010000
01000000
00010000
00100000
00000000
,
00010000
01000000
00100000
01000000
,
01000000
00010000
00100000
00001000
00010000
00000010
00000100
00000000
,
00000010
00001000
00000100
00001000
,
00000100
00001000
00000001
00000100
00000010
00001000
00000100
00010000
,
00002000
00020000
00000000
00000000
00000000
00000000
00033000
00000000
,
00002000
00200000
00000000
00000000
00000000
00000000
00303000
00000000
,
00020000
02000000
00000000
00000000
00000000
00000000
03030000
00000000
,
00200000
20000000
00000000
00000000
00000000
00000000
30300000
00000000
,
20000000
02000000
00000000
00000000
00000000
00000000
33000000
00000000
,
00200000
00020000
00000000
00000000
00000000
00000000
00330000
00000000
,
00020000
00000200
00000000
00000000
00000000
00000000
00030300
00000000
,
00002000
00000020
00000000
00000000
00000000
00000000
00003030
00000000
,
00000010
00002000
00000000
00000100
00000100
00000000
00003100
00000000
,
00001000
00000002
00000000
00000010
00000010
00000000
00000013
00000000
,
00000010
00000200
00000000
00000010
00000010
00000000
00000310
00000000
,
00000010
00002000
00000000
00000100
00000100
00000000
00003100
00000000
,
00001000
00000010
00000100
00000000
00000100
00000010
00001000
00000000
,
00000100
00010000
00001000
00000000
00001000
00100000
00010000
00000000
,
00010000
00100000
01000000
10000000
00010000
01000000
00100000
01000000
,
00001000
00000000
00000000
00000000
00001000
00000000
00000000
00100000
00000000
00000000
00010000
00000000
02000000
00000000
00000000
00000000
,
03100000
00000000
00000000
00000000
00100000
00000000
00000000
10000000
00000000
00000000
00010000
00000000
00100000
00000000
00010000
00000000
,
01000000
00000000
00000000
00000000
00010000
00000000
00000000
01000000
00000000
00000000
00100000
00000000
20000000
00000000
00000000
00000000
,
31000000
00000000
00000000
00000000
10000000
00000000
00000000
00010000
00000000
00000000
00100000
00000000
00002000
00000000
00000000
00000000
,
00023000
00000000
00000000
00000000
00030100
00000000
00000000
00001000
00000000
00000000
00000010
00000000
00000200
00000000
00000000
00000000
,
00000310
00000000
00000000
00000000
00000010
00000000
00000000
00001000
00000000
00000000
00000001
00000000
00000020
00000000
00000000
00000000
,
00000130
00000000
00000000
00000000
00000100
00000000
00000000
00000010
00000000
00000000
00000001
00000000
00000100
00000000
00000000
00000000
,
00000110
00000000
00000000
00000000
00000010
00000000
00000000
00001000
00000000
00000000
00000100
00000000
00010000
00000000
00000000
00000000
,
00001000
00100000
00010000
00000000
00110000
00000000
00110000
00000000
,
00010000
01000000
00100000
00000000
01100000
00000000
01100000
00000000
,
00100000
10000000
00010000
00000000
10010000
00000000
10010000
00000000
,
10000000
01000000
00100000
00000000
00100000
01000000
00010000
00100000
,
00001000
00010000
00000100
00000000
00010100
00000000
00010100
00000000
,
00000100
00001000
00000010
00000000
00001010
00000000
00001010
00000000
,
00000001
00000100
00000010
00001000
00000100
00010000
00001000
01000000
,
00100000
00000000
01000000
00100000
10000000
00010000
00200000
00000000
,
00301000
00000000
00010000
00000000
00110000
00000000
00100000
00001000
,
00010000
00000100
00002000
00000000
00003100
00000000
00000100
00001000
,
00000010
00000110
00000001
00001010
,
00000101
00000000
00000001
00000010
00000001
00000001
00000100
00000010
,
00001000
00000000
00000100
00000000
00001100
00000000
00000100
00010000
,
00001000
00000000
00010000
00100000
01000000
10000000
00020000
00000000
,
01030000
00000000
10000000
00000000
00010000
00000000
00110000
00011000
,
00001100
00000100
00000100
00001000
00000020
00000000
00000130
00000000
,
00000010
00001000
00000001
00000000
00000001
00000010
00000001
00000000
,
00000001
00001000
00000100
00000000
00000100
00001000
00000100
00000000
,
00000200
00010300
00002000
00103000
,
00010000
01000000
00100000
10000000
02000000
00000000
13000000
00000000
,
10000000
00010000
00100000
00001000
00020000
00000000
00030100
00000000
,
00000100
00001000
00000010
00000000
00000010
00000100
00000001
00000000
,
00000101
00000110
00001100
00011000
,
00101000
00000000
00000000
00000000
;

//---------------dance-single - ----------------
#NOTES:
     dance-single:
     :
     Beginner:
     1:
     0.155,0.226,0.046,0.000,0.000: // measure 1
0000
0000
0000
0000
,  // measure 2
0000
0000
0000
0000
,  // measure 3
0000
0000
0000
0000
,  // measure 4
0000
0000
0000
0000
,  // measure 5
0010
0000
0000
0000
,  // measure 6
0000
0000
0000
0000
,  // measure 7
1000
0000
0000
0000
,  // measure 8
0001
0000
0000
0000
,  // measure 9
1000
0000
0000
0000
,  // measure 10
0001
0000
0000
0000
,  // measure 11
0100
0000
0000
0000
,  // measure 12
0010
0000
0000
0000
,  // measure 13
1000
0000
0000
0000
,  // measure 14
0001
0000
0000
0000
,  // measure 15
0100
0000
0000
0000
,  // measure 16
0110
0000
0000
0000
,  // measure 17
0010
0000
0000
0000
,  // measure 18
1000
0000
0000
0000
,  // measure 19
0001
0000
0000
0000
,  // measure 20
0100
0000
0000
0000
,  // measure 21
0010
0000
0000
0000
,  // measure 22
1000
0000
0000
0000
,  // measure 23
0001
0000
0000
0000
,  // measure 24
1001
0000
0000
0000
,  // measure 25
0010
0000
0000
0000
,  // measure 26
1000
0000
0000
0000
,  // measure 27
0001
0000
0000
0000
,  // measure 28
1000
0000
1000
0000
,  // measure 29
0001
0000
0001
0000
,  // measure 30
1000
0001
1000
0001
,  // measure 31
1001
0010
0000
0010
,  // measure 32
0000
0100
0100
0100
,  // measure 33
0000
0010
0000
1000
,  // measure 34
0000
0001
0001
0001
,  // measure 35
1000
0001
0000
0100
,  // measure 36
0000
0010
0010
0010
,  // measure 37
0000
0100
0000
0010
,  // measure 38
0000
1000
1000
1000
,  // measure 39
0001
0000
1000
0000
,  // measure 40
0010
0010
1000
0000
,  // measure 41
0010
0000
0100
0000
,  // measure 42
0001
0001
1000
0000
,  // measure 43
1000
0000
0001
0000
,  // measure 44
0100
0000
0001
0000
,  // measure 45
1000
0000
0100
0000
,  // measure 46
0110
0010
0010
0001
,  // measure 47
0010
0001
0000
1000
,  // measure 48
0000
1000
0001
0001
,  // measure 49
1000
0100
0000
1000
,  // measure 50
0000
0010
0010
1000
,  // measure 51
0010
0100
0000
0000
,  // measure 52
0000
0010
1000
0010
,  // measure 53
0100
0001
0000
0000
,  // measure 54
0001
0001
1000
0000
,  // measure 55
1000
0000
0010
0000
,  // measure 56
0100
0100
0010
0000
,  // measure 57
0010
0000
1000
0000
,  // measure 58
0001
0001
1000
0000
,  // measure 59
0100
0000
1000
0000
,  // measure 60
0010
0100
0100
0000
,  // measure 61
0010
0000
1000
0000
,  // measure 62
1001
0000
0000
0000
;
