#TITLE:Pirate Dance;
#SUBTITLE:;
#ARTIST:Bass Piratez;
#TITLETRANSLIT:;
#SUBTITLETRANSLIT:;
#ARTISTTRANSLIT:;
#CREDIT:;
#BANNER:bn.png;
#BACKGROUND:bg.png;
#LYRICSPATH:;
#CDTITLE:PandemiXium-cdtitle.png;
#MUSIC:226818_Bass_Piratez___Pirate_Danc.mp3;
#OFFSET:-0.117;
#SAMPLESTART:70.780;
#SAMPLELENGTH:12.000;
#SELECTABLE:YES;
#BPMS:0.000=146.000;
#STOPS:68.000=1.233
,165.000=1.233
;
#BGCHANGES:;

//---------------dance-single - ----------------
#NOTES:
     dance-single:
     :
     Hard:
     8:
     0.448,0.511,0.361,0.146,0.047:
0000
0000
0000
0000
,
0000
0000
0000
0000
,
0000
0000
0000
0000
,
0000
0000
0000
0000
,
0000
0000
0000
0000
,
1000
0000
0010
0000
0100
0001
0010
0100
,
1000
0000
0010
0000
0100
0010
1000
0010
,
0100
0000
0001
0000
0010
0001
0100
0001
,
2000
0000
3010
0000
,
0100
0000
0110
0000
0010
1000
0001
0000
,
0010
0000
1100
0000
1000
0001
0100
0001
,
0010
0000
0011
0000
0001
0100
0010
0000
,
0100
0000
1001
0000
1000
0100
0010
0001
,
0010
0000
1100
0000
1000
0010
0100
0000
,
0010
0000
0011
0000
0001
0100
0010
0100
,
0001
0000
1100
0000
0100
1000
0010
0100
,
0001
0000
1001
0000
0001
0100
0010
1000
,
0110
1000
0000
0001
,
0000
1000
0000
0010
,
0000
0100
0000
0010
,
0000
1000
0010
0100
,
0001
0020
0030
0002
,
0003
0200
0300
0020
,
0030
0200
0300
2000
,
3000
0200
0300
0001
,
1000
0000
0000
0000
1001
0000
0000
0000
0100
0000
0000
0010
0000
0000
1000
0000
,
0100
0000
0000
0000
1000
0000
0000
0000
0001
0000
0000
0100
0000
0000
0001
0000
,
0010
0000
0010
0000
0001
0000
0000
0000
0100
0000
0000
0010
0000
0000
1000
0000
,
0001
0000
0000
0000
1001
0000
0000
0000
0001
0000
0000
1000
0000
0000
0100
0000
,
1000
0000
1000
0000
0100
0000
0000
0000
1000
0000
0000
0010
0000
0000
0100
0000
,
0001
0000
0000
0000
0010
0000
0000
0000
0001
0000
0000
0100
0000
0000
0010
0000
,
1000
0000
1000
0000
0010
0000
0000
0000
0100
0000
0000
0001
0000
0000
0010
0000
,
0100
0000
1000
0000
0100
0000
1000
0100
,
0010
0001
0100
0000
0100
0000
0010
0000
,
0010
1000
0001
0100
,
0010
1010
0100
0010
,
1000
0000
0001
0000
0010
0100
2000
0000
,
3000
0000
1100
0000
0010
0000
0001
0100
,
0010
0000
1001
0000
0001
0000
0001
0100
,
0010
0110
1000
1100
,
0010
0000
0011
0000
1100
0000
1010
0010
,
0010
1000
0011
0000
1100
0000
0011
0000
,
0001
0100
0010
0000
0100
0000
0110
0000
,
0010
1000
0001
0000
0011
0000
1100
0000
,
0001
0100
1000
0100
0001
0010
0100
0010
,
0002
0000
0003
0000
0020
0030
1001
0000
,
0001
0100
0101
0000
0100
0000
0110
0000
,
0010
1000
1001
0000
1000
0100
1000
0010
,
0100
0001
0100
1000
0100
0010
1000
0001
,
0020
0000
0000
0000
0030
0000
0000
0000
0001
0000
1000
0001
0100
0000
0010
0000
,
1000
0000
0100
0000
0010
0000
0000
0000
0001
0000
0010
0001
0010
0000
0001
0000
,
0100
0000
0100
0000
0010
0000
1000
0010
1000
0000
0001
0000
1001
0000
0000
0000
,
0001
0100
0110
0000
0010
1000
0100
0010
,
0002
0010
0103
0101
,
0010
1000
0001
0000
1000
0000
0101
0000
,
0001
0100
0010
0000
0010
1000
0001
0010
,
0001
0000
0010
0000
0100
0000
1000
0000
0010
0000
0100
0010
1000
0000
0002
0000
,
0020
0000
0033
0000
0001
0100
0000
0100
,
0000
0010
0000
0010
0000
1000
0000
1000
,
0000
0001
0000
1001
0000
0001
0000
0001
,
0000
1000
0000
1000
0000
0010
0000
1000
,
0000
0100
0000
1000
0010
0100
0101
0000
,
0001
0100
1100
0000
0001
0100
0101
0000
,
0001
0100
0110
0100
1000
0010
0110
0000
,
0001
0100
0101
0000
0001
0100
0110
0000
,
0010
1000
2002
0000
,
3003
0000
0000
0000
;

//---------------dance-single - ----------------
#NOTES:
     dance-single:
     :
     Medium:
     5:
     0.365,0.425,0.301,0.163,0.000:
0000
0000
0000
0000
,
0000
0000
0000
0000
,
0000
0000
0000
0000
,
0000
0000
0000
0000
,
0000
0000
0000
0000
,
0001
1000
0002
0003
,
0100
0010
2000
3000
,
1010
0000
0000
0000
,
0001
0000
0100
0000
,
0010
0000
1001
0000
0100
0001
0010
0000
,
0100
0000
0011
0000
0001
0100
0010
0000
,
0100
0000
1001
0000
0010
1000
0001
0000
,
1000
0000
0011
0000
0001
0100
0010
0000
,
0001
0000
1001
0000
0100
0010
1000
0000
,
0001
0000
1100
0000
0010
1000
0001
0000
,
0100
0000
1001
0000
0010
1000
0001
0000
,
0010
0000
1100
0000
1000
0100
0010
0001
,
0010
0002
0000
0000
,
0000
0003
2000
0000
0000
0000
0000
0000
,
0000
3000
0020
0000
0000
0000
0000
0000
,
0000
0030
0200
0000
0000
0300
0020
0000
,
0000
0030
2000
0000
0000
0000
0000
0000
,
0000
0002
0000
0000
,
3003
0002
0000
0000
,
0000
0003
1000
0000
0000
0000
0000
0001
,
0100
0010
1000
0000
1000
0000
1000
0010
,
0100
0000
0010
0000
1000
0000
0010
1000
,
0001
0010
0010
0001
,
0001
0100
0010
2000
,
3000
1000
1000
1000
,
0001
0100
0100
0010
,
1000
0001
0010
0001
,
0100
0000
0010
0000
1000
0000
1000
0100
,
1000
0100
1100
0000
1000
0000
0100
0000
,
0010
0010
0010
0001
,
0100
0110
0010
1000
,
0001
0010
0001
0100
,
0010
0000
1001
0000
0001
0000
0001
0100
,
0020
0000
0130
0000
0010
0000
0010
1000
,
0001
1001
0010
1001
,
0100
0000
0101
0000
1100
0000
0101
0100
,
0100
0100
0100
0000
0010
0000
0110
0000
,
0010
1000
0001
0000
1000
0000
1100
0000
,
1000
0100
1000
0000
2000
0000
3010
0000
,
0200
0310
0010
0100
,
0010
0000
0010
1001
,
0001
0100
0010
0000
0100
0000
0101
0000
,
0001
0100
0010
0000
1000
0000
1100
0000
,
0010
1000
0100
0000
1100
0000
0011
0000
,
2002
3003
0001
0100
,
0010
0100
0010
0000
0010
0000
1000
0000
,
0001
0100
0010
0000
1000
0000
1100
0000
,
0010
0000
0011
0000
0001
0100
0010
1000
,
0200
0300
1000
0011
,
0001
0100
0010
0000
0100
0000
1001
0000
,
0001
1000
0100
0000
1000
0100
1000
0000
,
0001
0100
0001
0000
0001
0100
0010
1000
,
0200
0000
0000
0300
0000
1000
0000
1000
,
0000
1000
0000
1000
0000
1000
0000
1000
,
0000
0100
0000
0100
0000
1000
0000
1000
,
0000
1000
0000
1000
0000
0010
0000
0010
,
0000
0010
0000
0100
0001
0000
0101
0000
,
1000
1010
0010
1001
,
0100
0110
0010
0011
,
1000
0000
1100
0000
0000
0010
0000
1000
,
0000
0001
0000
0010
0002
0000
0000
0000
,
0003
0000
0000
0000
;

//---------------dance-single - ----------------
#NOTES:
     dance-single:
     :
     Easy:
     4:
     0.286,0.425,0.352,0.241,0.000:
0000
0000
0000
0000
,
0000
0000
0000
0000
,
0000
0000
0000
0000
,
0000
0000
0000
0000
,
0000
0000
0000
0000
,
0001
0000
0000
0000
,
0100
0000
0000
0000
,
0110
0000
0000
0000
,
0000
0000
0000
0000
,
1000
0101
1000
0101
,
1000
0101
0011
0000
,
0001
1100
0001
1100
,
0001
1100
0011
0000
,
0001
0110
0001
0110
,
0001
0110
1001
0000
,
1000
1010
1000
1100
,
1000
0001
0100
0010
,
1001
0002
0000
0000
,
0000
2003
0000
0000
,
0000
3020
0000
0000
,
0030
0020
0030
0200
,
0300
0020
0000
0000
,
0030
2000
0000
0000
,
3000
0002
0000
0000
,
0003
0020
0000
0030
,
0000
0001
0000
1000
,
0000
0001
0001
0100
,
0000
0110
0000
1001
,
0000
1000
0100
0001
,
0000
0001
0100
1000
,
0010
0100
0000
0010
,
0000
1000
0000
0001
,
0000
0100
0100
0100
,
0000
1001
0000
0000
,
0000
0000
0000
0000
,
0000
1010
0000
0000
,
0000
0000
0000
0000
,
0000
0101
0000
0000
,
0000
1100
0000
0000
,
0000
1010
0000
0101
,
0000
0011
1100
1010
,
0101
1001
0001
0001
,
2000
3010
1000
0100
,
0010
0001
2000
3100
,
2000
3010
2000
0001
,
0002
3003
0100
0110
,
0010
1000
0001
0100
,
0001
0010
0002
1003
,
2000
3100
2000
3020
,
0200
0330
0010
0010
,
0100
0010
0100
0000
0010
0000
1000
0000
,
0001
1000
0001
0000
2000
0000
3100
0000
,
2000
3010
1010
0101
,
2002
3003
1001
0001
,
1000
0001
1000
0000
0001
0000
0100
0000
,
0010
0100
0010
0000
0200
0000
0301
0000
,
0200
0310
0010
2000
,
0200
0000
3300
0000
0000
1000
0000
0000
,
0000
1000
0000
0000
0000
0001
0000
0000
,
0000
0100
0000
0100
0000
0010
0000
0000
,
0000
0010
0000
0000
0000
1000
0000
0000
,
0000
0001
0000
0000
1000
0000
0101
0000
,
1000
0101
1000
0101
,
1100
0011
1000
0011
,
1000
0000
0011
0000
0000
1000
0000
0001
,
0000
0100
0000
0010
2000
0000
0000
0000
,
3000
0000
0000
0000
;

//---------------dance-double - ----------------
#NOTES:
     dance-double:
     :
     Challenge:
     8:
     0.483,0.539,0.258,0.258,0.047:
00000000
00000000
00000000
00000000
,
00000000
00000000
00000000
00000000
,
00000000
00000000
00000000
00000000
,
00000000
00000000
00000000
00000000
,
00000000
00000000
00000000
00000000
,
10000000
00000000
01010000
00000000
00010000
01000000
00100000
00000000
,
00100000
00000000
01100000
00000000
00100000
10000000
00010000
00000000
,
00120000
00100000
00100000
00100000
,
00130000
00000000
00101000
00000000
,
00001100
00000000
00000000
00000010
00001000
00000000
00000010
00000000
00001000
00000000
00000100
00000000
00001000
00000000
00000000
00000000
,
00010100
00000000
00000000
00000100
00010000
00000000
00001000
00000000
00100000
00000000
00010000
00000000
01000000
00000000
00000000
00000000
,
00100000
00000000
00000000
00100000
10000000
00000000
00010000
00000000
00100000
00000000
00001000
00000000
00010000
00000000
00000000
00000000
,
00011000
00000000
00000000
00010000
00000100
00000000
00001000
00000000
00000010
00000000
00000100
00000000
00000001
00000000
00000010
00000000
,
00000100
00000000
00000000
00000100
00001000
00000000
00000100
00000000
00001000
00000000
00000010
00000000
00000100
00000000
00000001
00000000
,
00000011
00000000
00000000
00000001
00000100
00000000
00000010
00000000
00001000
00000000
00000100
00000000
00010000
00000000
00001000
00000000
,
01000000
00000000
00000000
01000000
00100000
00000000
01000000
00000000
00100000
00000000
10000000
00000000
00010000
00000000
00100000
00000000
,
01000000
00000000
00000000
10000000
01000000
00000000
10000000
00000000
00010000
00000000
00100000
00000000
00001000
00000000
01000000
00000000
,
01010000
02000000
03010000
00020000
,
00230000
00301000
00020000
00030100
,
00000200
00001300
00000200
00001300
,
00002000
00003100
00000200
00010300
,
00020000
00030010
00000020
00000130
,
00000200
00000301
00000002
00000013
,
00000020
00000130
00000200
00001300
,
00000200
00010000
00010000
00020300
,
00032000
00000000
00103000
00000000
00101000
00000000
00100000
00001000
,
00010000
00000000
00001000
00000000
00110000
00000000
00010000
01000000
,
00100000
10000000
01000000
00000000
11000000
00000000
10000000
00010000
,
01000000
00000000
00010000
00010000
00100000
00001000
00010000
00000000
,
00000000
00000000
00001000
00000010
00000100
00000010
00001000
00001000
,
00000100
00000000
00000000
00000100
00001000
00000000
00000001
00000000
00000010
00000000
00000001
00000000
00000100
00000000
00000010
00000000
,
00001000
00000100
00010000
00001000
01000000
00100000
10000000
00010000
,
00100000
00001000
00010000
00000100
00001000
00000010
00000100
00000100
,
00000010
00000010
00000110
00000000
00000010
00000000
00000010
00000000
,
00000010
00000100
00000010
00001000
,
00000001
00001001
00000001
00000100
,
00000010
00001000
00000100
00020000
,
00030000
00011000
00001000
00100000
,
00010000
11000000
10000000
00010000
,
01000000
10100000
01000000
00110000
,
01000000
01010000
00110000
00011000
,
00001100
00000000
00001010
00000000
00000010
00001000
00001000
00000100
,
00001000
00000010
00010000
00000000
00010000
00001000
00100000
00010000
,
01000000
00100000
10000000
00010000
00100000
00001000
00010000
00000010
,
00000100
00000001
00000100
00000010
00001000
00000100
00001000
00000010
,
00020000
00030000
00210000
00301000
,
00001000
01000000
01100000
00000000
00100000
00000000
10010000
00000000
,
10000000
01000000
11000000
00000000
20000000
00000000
31000000
00000000
,
02000000
00000000
03100000
00000000
10000000
00010000
01000000
00010000
,
00200000
00000000
00300000
00000000
00010000
00010000
01000000
00001000
,
00010000
00010000
00011000
00000000
00001000
00010000
00000100
00001000
,
00000010
00000010
00000100
00000001
00000010
00000100
00000010
00000001
,
00000010
00000100
00001000
00000100
00000010
00000100
00000010
00001000
,
00002020
00000000
00003030
00000000
00000100
00001000
00001000
00000100
,
00010000
00000000
00010000
00000000
00001000
00000000
00000000
00010000
00100000
00000000
01000000
00000000
00100000
00000000
00010000
00000000
,
01000000
00000000
00100000
00000000
10000000
00000000
00010000
10000000
00010000
00000000
01000000
00000000
00100000
00000000
10000000
00000000
,
00010000
00100000
00001000
00010000
00000100
00001000
00000010
00000200
,
00000002
00000000
00000000
00000000
00000303
00000001
00000000
00000001
,
00000000
00000100
00000000
00000100
00000000
00000010
00000000
00000010
,
00000000
00000100
00000000
00000100
00000000
00000010
00000000
00000010
,
00000000
00001000
00000000
00001000
00000000
00000100
00000000
00000100
,
00000000
00010000
00000000
00010000
00000000
00001000
00000000
00010000
,
00000000
00001000
00000000
00100000
00000000
00010000
00000000
01000000
,
00000000
00100000
00000000
10000000
00000000
01000000
00000000
01000000
,
00000000
00100000
00000000
00100000
00000000
00001000
00000000
00001000
,
00000000
00010000
00000000
00010000
00022000
00000000
00000000
00000000
,
00033000
00000000
00000000
00000000
;

//---------------dance-single - ----------------
#NOTES:
     dance-single:
     :
     Beginner:
     1:
     0.123,0.197,0.043,0.000,0.000: // measure 1
0000
0000
0000
0000
,  // measure 2
0000
0000
0000
0000
,  // measure 3
0000
0000
0000
0000
,  // measure 4
0000
0000
0000
0000
,  // measure 5
0000
0000
0000
0000
,  // measure 6
0000
0000
0000
0000
,  // measure 7
0000
0000
0000
0000
,  // measure 8
0000
0000
0000
0000
,  // measure 9
0000
0000
0000
0000
,  // measure 10
0010
0000
0000
0000
,  // measure 11
1000
0000
0000
0000
,  // measure 12
0010
0000
0000
0000
,  // measure 13
1000
0000
0100
0000
,  // measure 14
0010
0000
0000
0000
,  // measure 15
0100
0000
0000
0000
,  // measure 16
0010
0000
0000
0000
,  // measure 17
0100
0000
0000
0000
,  // measure 18
1001
0001
0000
0000
,  // measure 19
0000
0000
0000
0000
,  // measure 20
0000
1000
0000
0000
,  // measure 21
0000
0010
0000
0000
,  // measure 22
0000
0100
0000
0000
,  // measure 23
0000
0010
0000
0000
,  // measure 24
0000
1000
0000
0000
,  // measure 25
0000
1000
0000
0000
,  // measure 26
0000
1001
0000
0000
,  // measure 27
0000
0010
0000
0000
,  // measure 28
0000
0100
0000
0100
,  // measure 29
0000
0100
0100
0100
,  // measure 30
0000
0010
0000
0000
,  // measure 31
0000
1000
0000
0000
,  // measure 32
0000
0001
0000
1000
,  // measure 33
0000
0001
0001
0001
,  // measure 34
0000
0100
0000
0000
,  // measure 35
0000
0010
0000
0000
,  // measure 36
0000
1000
0000
0000
,  // measure 37
0000
0001
0000
0000
,  // measure 38
0000
1000
0000
0000
,  // measure 39
0000
1000
0000
0000
,  // measure 40
0000
0010
0000
0100
,  // measure 41
0000
0001
0001
0001
,  // measure 42
0000
0000
1000
0000
,  // measure 43
0000
0000
0001
0000
,  // measure 44
0000
0000
0100
0000
,  // measure 45
0000
0000
0010
0010
,  // measure 46
0010
0000
0000
0100
,  // measure 47
0000
0100
0000
0010
,  // measure 48
0000
1000
1000
0000
,  // measure 49
0001
0000
0100
0100
,  // measure 50
0100
0000
1001
0000
,  // measure 51
0010
0000
1001
0000
,  // measure 52
0100
0000
0010
0000
,  // measure 53
1000
0000
0001
0001
,  // measure 54
1000
0000
0100
0000
,  // measure 55
1000
0000
0010
0000
,  // measure 56
0100
0000
0001
0000
,  // measure 57
1000
0000
0010
0010
,  // measure 58
1000
0000
0010
0000
,  // measure 59
1000
0000
1000
0000
,  // measure 60
1000
1000
0001
0000
,  // measure 61
0001
0000
0001
0000
,  // measure 62
0001
0001
0100
0100
,  // measure 63
0000
0010
0000
1000
,  // measure 64
0000
0001
0000
0100
,  // measure 65
0000
0010
0000
1000
,  // measure 66
0000
0001
1001
0000
;
