#TITLE:POODLE;
#SUBTITLE:;
#ARTIST:Y&Co.;
#TITLETRANSLIT:;
#SUBTITLETRANSLIT:;
#ARTISTTRANSLIT:;
#CREDIT:Kevin_18;
#BANNER:bn.png;
#BACKGROUND:bg.png;
#LYRICSPATH:;
#CDTITLE:kevcdms4.png;
#MUSIC:POODLE.mp3;
#OFFSET:-0.113;
#SAMPLESTART:40.220;
#SAMPLELENGTH:30.000;
#SELECTABLE:YES;
#BPMS:0.000=160.000;
#STOPS:;
#BGCHANGES:;

//---------------dance-single - ----------------
#NOTES:
     dance-single:
     :
     Hard:
     8:
     0.507,0.553,0.252,0.168,0.084:
0000
0000
0000
0000
,
0000
0000
0000
0000
,
0000
0000
0000
0000
,
0000
0000
0000
0000
,
0000
0000
0000
0000
,
1000
0000
0001
0000
0010
0000
0000
0010
0000
0000
0001
0000
0100
0000
0010
0000
,
1000
0000
0100
0000
0010
0000
0000
0100
0000
0000
1000
0000
0010
0000
0100
0000
,
0010
0000
1000
0000
0100
0000
0000
0010
0000
0000
0001
0000
0100
0000
0010
0000
,
0100
0000
1000
0000
0010
0000
0000
0101
0000
0000
0001
0000
1000
0000
0010
0000
,
2000
0100
0010
3001
,
0001
0000
0100
0000
0010
0000
0000
0110
0000
0000
0100
0000
0010
0000
1001
0000
,
0000
1000
0100
1000
0010
0100
0010
1000
,
0001
0020
0000
0031
0000
0001
0100
0010
,
1000
1000
0001
0001
,
0010
0100
0010
0001
0000
0000
0000
0001
,
0000
0001
0100
0000
0100
0010
1000
0000
,
1001
0000
1000
0100
0000
1000
0001
0100
,
0101
1100
0110
1001
,
1000
0100
0010
0001
0000
0001
0100
0100
,
0010
1000
1000
0010
0000
0010
1000
0000
,
1010
0000
0000
0000
,
0001
0010
0010
0001
0000
0001
0010
0000
,
0011
0000
0000
0000
,
0001
0100
0100
0001
0000
0001
0100
0000
,
0101
0000
0000
0000
,
0002
1003
2000
3100
,
2000
3100
0200
0310
,
0001
0000
0001
0100
0010
0000
0010
0100
,
0000
0010
1000
0000
0010
1000
0000
0001
,
0000
1100
1000
0001
,
0100
0200
0000
0010
0310
0000
0100
0000
,
0002
0000
0010
0000
0013
0000
0010
0001
,
0000
0001
0100
0000
0010
1000
0000
0001
,
0000
0110
0100
0010
,
0001
0010
0100
0000
,
0001
1000
0100
0020
0002
0000
0033
0000
,
0001
1000
0100
2000
0020
0000
3030
0000
,
1000
0001
0100
0010
,
0110
0000
1001
0000
1000
0100
0010
0001
,
0100
0000
0010
0000
0100
0010
1000
0000
,
0001
0000
0010
0000
0001
0100
1000
0000
,
1100
0000
0011
0000
,
2002
0000
0000
3003
,
0001
0100
0010
1000
0000
1000
0100
0000
,
0001
0020
0000
0130
0010
0000
0001
0000
,
0100
1001
0100
1010
,
0100
0101
0001
1010
,
0010
0100
1000
0100
0010
0001
0100
0010
,
1000
0100
0010
0001
0100
0000
0020
0000
,
1030
0000
0100
0000
0010
0000
0001
0010
,
0000
0010
0100
0000
0100
1000
0000
0010
,
0000
1001
0001
1000
,
0100
0200
0000
1000
1300
0000
0010
0000
,
0200
0000
1000
0000
0301
0000
0100
0010
,
0000
0010
0100
0000
0001
0100
0000
0010
,
0000
1100
0010
0100
,
0010
1000
0000
1000
0001
0000
0000
0001
,
1000
0000
0000
0000
0100
0000
0000
0000
0010
0000
0000
0000
0001
0000
0000
0000
0000
0000
0000
0000
0000
1000
0000
0000
,
0001
0000
0000
0000
0100
0000
0000
0000
0010
0000
0000
0000
1000
0000
0000
0000
0000
0000
0000
0000
0000
1000
0000
0000
,
0100
0100
1000
1000
0010
0010
0100
0100
,
0101
0000
1010
0000
1000
0100
0010
0001
,
0010
0000
0001
0000
0100
0000
0000
0010
0000
0000
1000
0000
0100
0000
1000
0000
,
0010
0000
0100
0000
0001
0000
0000
0010
0000
0000
0010
0000
0001
0000
0100
0000
,
0010
0000
0100
0000
0001
0000
0000
0010
0000
0000
1000
0000
0100
0000
0010
0000
,
0001
0000
0100
0000
0010
0000
0000
1000
0000
0000
0100
0000
1000
0000
0010
0000
,
0100
0000
0100
0000
0100
0000
0000
0010
0000
0000
0100
0000
0010
0000
1000
0000
,
0001
0000
0001
0000
0001
0000
0000
0100
0000
0000
0010
0000
1000
0000
0100
0000
,
0010
0000
0010
0000
0010
0000
0000
0100
0000
0000
0100
0000
1000
0000
0010
0000
,
0100
0000
0100
0000
0100
0000
0000
0010
0000
0000
1000
0000
0001
0000
0010
0000
,
0100
0000
1000
0000
0001
0000
0000
0100
0000
0000
0010
0000
1000
0000
0101
0000
;

//---------------dance-single - ----------------
#NOTES:
     dance-single:
     :
     Medium:
     6:
     0.398,0.423,0.214,0.196,0.000:
0000
0000
0000
0000
,
0000
0000
0000
0000
,
0000
0000
0000
0000
,
0000
0000
0000
0000
,
0000
0000
0000
0000
,
0001
0100
0010
0000
1000
0000
0100
0000
,
1000
0100
0010
0000
0100
0000
0001
0000
,
0001
0010
0100
0000
0100
0000
1000
0000
,
0010
0100
0001
0000
0001
1000
0100
0000
,
2002
0000
0000
3003
,
0001
0000
1000
0000
0010
1000
0100
0010
,
0000
0010
0001
0010
,
0100
0010
0001
0000
0100
0000
0010
1000
,
0001
0001
1000
1000
,
0001
0010
0100
0010
0000
0000
0000
0010
,
0000
0010
0001
0000
0001
0100
0010
0000
,
0100
0000
0100
0010
0000
0010
1000
0000
,
1000
1000
0001
0001
,
1000
0001
0100
0001
0000
0000
0000
0000
,
0001
0100
0010
1000
0000
0100
1000
0000
,
1100
0000
0000
0000
,
0010
1000
0010
1000
0000
0010
0100
0000
,
0101
0000
0000
0000
,
0001
0010
0100
0010
0000
0010
0001
0000
,
1100
0000
1000
0000
,
0002
0000
1000
0000
,
0010
0000
0103
0010
,
0220
0000
0000
0000
0330
0000
0000
0020
,
0000
0000
1030
0000
1000
0100
0000
0010
,
0000
0011
0001
0100
,
0010
0010
0000
1000
1000
0000
0100
0000
,
2200
0000
0000
0000
3300
0000
0000
1000
,
0000
0000
0001
0000
0100
0010
0000
1000
,
0000
0101
0001
0010
,
0100
0010
0000
0010
0001
0000
0000
0000
,
0001
0000
0100
0010
1000
0000
0000
0000
,
1010
0000
1000
0100
0010
0000
0000
0000
,
0011
0100
1100
0010
,
1001
0110
1001
0000
,
0001
0000
0100
0000
0010
1000
0100
0000
,
1000
0000
0010
0000
0100
0010
1000
0000
,
1001
0000
0101
0000
,
0022
0000
0000
0033
,
0001
0000
0001
0010
0000
0010
0100
0000
,
1100
0000
0000
0000
,
2000
0000
3002
0000
,
2003
0000
3002
0000
,
1003
0001
1000
0001
1000
0001
1000
0001
,
1000
0001
1000
0001
0000
0000
0100
0000
,
0020
0000
0000
0000
0030
0000
0000
0100
,
0000
0000
0010
0000
1000
0100
0000
0010
,
0000
1100
0010
0100
,
0001
0002
0000
0010
0020
0000
0003
0000
,
0002
0000
0000
0000
0033
0000
0000
0002
,
0000
0000
0103
0000
0010
1000
0000
0100
,
0000
1010
0010
0100
,
0010
1000
0000
1000
0100
0000
0000
0000
,
1000
0000
0001
0100
0010
0000
0000
0000
,
0010
0000
0010
1000
0100
0000
0000
0000
,
1000
0001
0100
0000
0100
0001
0010
0000
,
0011
0000
1100
0000
0001
0010
0100
2000
,
0000
0000
0000
3000
,
1000
0100
1000
0000
0010
0000
0100
0000
,
0001
0100
0001
0000
0100
0000
0010
0000
,
1000
0100
0001
0000
0001
0010
0100
0000
,
1000
0010
0100
0000
0001
0000
1000
0000
,
0001
0100
0010
0000
1000
0000
0100
0000
,
0100
1000
0100
0000
1000
0000
0010
0000
,
0100
0001
0100
0000
0001
0000
0010
0000
,
2000
0000
0000
0000
0000
3010
0100
1001
;

//---------------dance-single - ----------------
#NOTES:
     dance-single:
     :
     Easy:
     4:
     0.299,0.423,0.140,0.326,0.000:
0000
0000
0000
0000
,
0000
0000
0000
0000
,
0000
0000
0000
0000
,
0000
0000
0000
0000
,
0000
0000
0000
0000
,
0001
1000
0100
0100
,
1000
0001
0010
0010
,
0001
0100
0010
0010
,
0100
0010
1000
0001
,
2200
0000
0000
3300
,
1000
0010
0100
0010
,
1000
0000
0001
0000
,
0100
0010
1000
0000
,
0001
0000
1000
0000
,
1000
0010
0100
0000
,
0110
0000
1001
0000
,
0001
0001
1000
0000
,
0100
1000
0010
0100
,
0001
0010
0100
0000
,
2100
0100
0100
0100
,
3100
0000
0000
0000
,
0102
0100
0100
0100
,
0103
0000
0000
0000
,
0210
0010
0010
0010
,
0310
0000
0010
0000
,
0002
0000
2003
0000
,
3200
0000
0320
0000
,
0032
0000
0003
0000
,
1000
0001
0100
0010
,
0100
1001
0010
0100
,
0020
0000
1030
0001
,
2000
0000
3000
0000
,
0001
0000
1000
0000
,
0010
0101
0010
0100
,
0010
0000
1000
0000
,
0002
0000
0003
0000
,
2000
0000
3000
0000
,
0010
1000
0010
0100
,
0001
0001
1000
0001
,
0100
0100
0010
1000
,
0001
0010
0100
1000
,
1100
0000
0011
0000
,
2002
0000
3003
0000
,
0001
0001
1000
0010
,
0110
0000
0100
0000
,
0020
0000
2030
0000
,
3020
0000
2030
0000
,
3020
2030
3020
2030
,
3020
2030
3020
2030
,
0200
0000
3300
0000
,
1000
0001
0100
0001
,
0010
0011
0001
0010
,
0200
0000
0300
0010
,
0002
0000
0003
0000
,
0001
0100
0010
1000
,
0010
1001
0001
0100
,
0020
0000
0030
0000
,
0200
0000
0300
0000
,
0020
0000
0030
0000
,
1000
1000
0001
0001
,
1001
0000
0000
0000
,
0001
0000
1000
0000
,
0010
0010
1000
0000
,
0100
0000
1000
0000
,
0100
1000
0010
0100
,
0001
0000
0100
0000
,
0100
0010
1000
0001
,
1000
0000
0010
0000
,
0100
0001
0010
0100
,
2000
0000
0000
0000
0000
0000
0000
3000
;

//---------------dance-single - ----------------
#NOTES:
     dance-single:
     :
     Beginner:
     1:
     0.165,0.288,0.093,0.130,0.000: // measure 1
0000
0000
0000
0000
,  // measure 2
0000
0000
0000
0000
,  // measure 3
0000
0000
0000
0000
,  // measure 4
0000
0000
0000
0000
,  // measure 5
0000
0000
0000
0000
,  // measure 6
0001
0000
0000
0000
,  // measure 7
1000
0000
0000
0000
,  // measure 8
0010
0000
0000
0000
,  // measure 9
0100
0000
0000
0000
,  // measure 10
0020
0000
0000
0000
,  // measure 11
0000
0000
0000
0030
,  // measure 12
0100
0000
0000
0000
,  // measure 13
0010
0000
0000
0000
,  // measure 14
1000
0000
1000
0000
,  // measure 15
1000
0000
0000
0000
,  // measure 16
0001
0000
0000
0000
,  // measure 17
0100
0000
0000
0000
,  // measure 18
0010
0000
1000
0000
,  // measure 19
0001
1000
0100
0000
,  // measure 20
1001
0000
0000
0000
,  // measure 21
0000
0000
0000
0000
,  // measure 22
0110
0000
0000
0000
,  // measure 23
0000
0000
0000
0000
,  // measure 24
0200
0000
0000
0000
,  // measure 25
0300
0000
0000
0000
,  // measure 26
0010
0000
0010
0000
,  // measure 27
0010
0000
0010
0000
,  // measure 28
1001
0000
0000
0000
,  // measure 29
1000
0000
0001
0000
,  // measure 30
1000
1001
0001
0000
,  // measure 31
0100
0100
0100
0000
,  // measure 32
0010
0000
0000
0000
,  // measure 33
0010
0000
1000
0000
,  // measure 34
0001
1001
1000
0000
,  // measure 35
1000
0000
0001
0000
,  // measure 36
0200
0000
0300
0000
,  // measure 37
0020
0000
0030
0000
,  // measure 38
0100
0000
0010
0000
,  // measure 39
1001
0000
0000
0000
,  // measure 40
1000
0000
0000
0000
,  // measure 41
0000
0000
0000
0000
,  // measure 42
0001
0000
0001
0000
,  // measure 43
0001
0000
0000
0000
,  // measure 44
1000
0000
0000
0000
,  // measure 45
0100
0000
1000
0000
,  // measure 46
0010
0000
0000
0000
,  // measure 47
0100
0000
0000
0000
,  // measure 48
1001
0000
0010
0000
,  // measure 49
1001
1001
1001
0000
,  // measure 50
0010
0000
0000
0000
,  // measure 51
1000
0000
0001
0000
,  // measure 52
0100
0000
0000
0000
,  // measure 53
0010
0010
0010
0000
,  // measure 54
1000
0000
0000
0000
,  // measure 55
0100
0000
1000
0000
,  // measure 56
0010
0000
0000
0000
,  // measure 57
0100
0100
0100
0000
,  // measure 58
0002
0000
1003
0000
,  // measure 59
2000
0000
3001
0000
,  // measure 60
0100
0000
0100
0000
,  // measure 61
0010
0010
1000
0001
,  // measure 62
0200
0000
0000
0300
,  // measure 63
0020
0000
0000
0030
,  // measure 64
2000
0000
0000
3000
,  // measure 65
0002
0000
0000
0003
,  // measure 66
1000
1000
2000
3000
,  // measure 67
0001
0001
0002
0003
,  // measure 68
0100
0100
0200
0300
,  // measure 69
0010
0010
0020
0030
;
