#TITLE:PKMN;
#SUBTITLE:;
#ARTIST:Kitsune^2;
#TITLETRANSLIT:;
#SUBTITLETRANSLIT:;
#ARTISTTRANSLIT:;
#CREDIT:;
#BANNER:bn.png;
#BACKGROUND:bg.png;
#LYRICSPATH:;
#CDTITLE:PandemiXium-cdtitle.png;
#MUSIC:Kitsune^2 PKMN.mp3;
#OFFSET:-0.047;
#SAMPLESTART:13.280;
#SAMPLELENGTH:12.000;
#SELECTABLE:YES;
#BPMS:0.000=144.980,103.000=36.250,104.000=145.000,209.000=72.500,209.500=145.000,239.000=72.500,239.500=145.020;
#STOPS:28.000=1.241
,59.000=0.103
,59.250=0.103
,59.500=0.103
,59.750=0.103
,90.000=0.414
,116.000=0.207
,116.250=0.207
,149.000=0.103
,149.250=0.103
,149.500=0.103
,149.750=0.103
,180.000=0.207
,180.500=0.187
,209.500=0.621
,239.500=0.207
,240.000=0.207
,240.500=0.207
,269.000=0.207
,269.250=0.207
,269.500=0.103
;
#BGCHANGES:;

//---------------dance-single - ----------------
#NOTES:
     dance-single:
     :
     Hard:
     9:
     0.515,0.598,0.499,0.324,0.129:
0000
0000
0000
0000
,
0000
0000
0000
0000
,
0000
0000
0000
0000
,
0000
0000
0000
0000
,
2000
3020
0130
0000
,
0000
0000
0000
0000
,
0200
0000
0302
0000
0013
0000
0000
0001
,
1001
0000
1000
0010
0100
0010
1000
0000
,
0001
1000
0100
1000
,
0010
0000
0100
0010
1000
0001
0100
0000
,
0000
0001
0010
0100
1100
0000
0000
0000
,
0000
0000
1000
1000
0010
0100
0001
0000
,
1000
1000
0001
0010
,
0001
0000
0001
0100
0010
0100
0001
0000
,
0000
0000
1000
0000
0020
0000
0000
0000
0130
0000
0000
0000
1000
0001
0100
0001
,
0020
0001
0031
0100
0110
0000
0100
0000
,
0010
0000
1000
0000
0001
0100
0010
0000
,
0100
0100
0010
1000
0002
0000
0000
1003
,
2000
3100
1000
0101
,
0100
0010
1000
0100
0010
0000
0001
0000
,
0100
0010
1000
0100
,
1000
0100
0001
0100
1000
0000
0010
0010
,
0200
0000
1300
0000
0000
0000
1000
0001
,
0100
0001
0011
0000
1100
0000
1000
0001
,
0100
0010
1010
1000
1010
0000
1000
0100
,
0010
0000
0001
0000
0100
0000
0000
0000
0010
0000
0000
0000
2002
0000
3000
0003
,
0100
0010
1000
0100
0010
0000
0011
0000
,
0001
0100
0010
0010
0100
1000
0100
0001
,
0010
0001
0100
0100
0110
0000
1001
0000
,
2000
3002
0023
0030
0010
0000
0000
0000
0110
0000
0000
0000
0110
0000
0000
0000
,
0110
0000
0000
1001
0000
0000
0001
0000
0100
0000
1000
0000
0100
0000
0000
0000
,
0110
0000
0000
1001
0000
0000
1000
0000
0100
0000
0001
0000
0011
0000
0000
0000
,
1100
0000
0000
1100
0000
0000
1000
0000
0001
0000
0100
0000
0001
0000
0000
0000
,
0011
0000
0000
1100
0000
0000
1000
0000
0001
0000
0010
0000
1200
0000
0000
0000
,
1000
0000
0000
1300
0000
0000
1000
0000
0010
0000
0100
0000
0102
0000
0000
0000
,
0010
0000
0000
0013
0000
0000
0001
0000
0010
0000
0100
0000
2100
0000
0000
0000
,
0010
0000
0000
3010
0000
0000
0100
0000
0010
0000
1000
0000
1002
0000
0000
0000
,
0010
0000
0000
0013
0001
1000
0100
0010
1002
0000
0000
0000
0103
0000
0000
0101
,
0000
0000
0001
0000
0100
0000
0010
0000
2000
0000
0000
0000
3100
0000
0000
1100
,
0000
0000
1000
0000
1000
0000
0001
0000
0202
0000
0000
0303
0101
0000
0000
1100
,
0000
0000
1000
0000
0001
0000
0010
0000
0200
0000
0000
0000
0310
0000
0000
1001
,
0000
0000
0001
0000
0100
0000
0001
0000
0011
0000
0000
0000
0011
0000
0000
0011
,
0000
0000
0001
0000
0100
0000
0010
0000
1010
0000
0000
0000
1010
0000
0000
1010
,
0000
0000
1000
0000
0010
0000
0100
0000
1001
0000
0000
0000
1001
0000
0000
1100
,
0000
1000
0001
0100
0002
0000
0023
0000
,
0230
0310
0010
0001
0100
0010
0100
0000
,
0000
0000
0000
0000
,
0000
0000
0001
0100
1000
0001
0010
0000
,
0000
0000
0001
1000
0002
0000
0000
0000
0013
0000
0000
0000
0000
0000
0000
0000
,
0000
0000
0001
0001
0100
0010
1000
0000
,
0000
0000
0000
0000
,
0000
0000
1000
0100
0001
0100
1000
0000
,
0000
0000
0010
0100
0020
0000
0030
0000
1001
0000
0000
0000
1000
0000
0001
0000
,
0010
0001
0100
0000
0001
0000
0000
0001
,
0000
0001
0000
0000
0000
0000
1001
0000
0000
0101
0000
0000
0001
0000
0100
0000
,
0010
0000
1000
0000
0100
0000
0000
0000
1000
0000
0000
0000
1000
0000
1000
0100
,
0000
0100
0010
0000
0000
0000
0001
0000
0000
0010
0000
0000
2002
0000
0000
0000
,
0003
0020
0000
3030
0000
0000
0000
1100
,
0000
0101
0000
0000
0000
0000
0110
0000
0000
1001
0000
0000
0220
0000
0000
0000
,
0300
0200
0000
0330
0000
0000
0002
0003
,
1100
0011
0001
0100
0001
0100
0010
0000
,
0110
0000
0010
1000
0001
0010
0001
0000
,
0011
0000
0001
0100
0010
1000
0001
0000
,
0011
0002
0013
2000
,
3100
0000
0010
1000
0100
1000
0010
0100
,
0001
0101
1000
1100
,
0010
0000
1000
0100
0010
0001
0100
0010
,
1000
0000
0000
0000
1000
0001
0010
0022
0000
0000
0000
0000
0000
0000
0000
0000
,
0000
0000
0033
0000
;

//---------------dance-single - ----------------
#NOTES:
     dance-single:
     :
     Medium:
     6:
     0.350,0.484,0.432,0.191,0.033:
0000
0000
0000
0000
,
0000
0000
0000
0000
,
0000
0000
0000
0000
,
0000
0000
0000
0000
,
0010
0010
0010
0000
,
0000
0000
0000
0000
,
0100
0100
0100
0000
,
1001
0001
0100
0110
,
0000
0000
0000
0000
,
0000
0010
1000
1100
,
0000
1000
0002
0000
0013
0000
0000
0000
,
0000
0101
0100
0100
,
0000
0000
0000
0000
,
0000
1010
1000
1000
,
0000
1000
0001
0000
0100
0000
0110
1001
,
0110
0010
0010
0000
,
0000
0000
0000
0000
,
1100
0000
1000
0000
0100
0000
0000
1000
,
0002
0013
0000
0000
,
0001
0010
1100
0000
,
0000
0000
0000
0000
,
1100
0000
0010
0000
0101
0000
0000
0001
,
2000
0000
3100
0000
0000
0000
1000
0001
,
0100
0000
0101
0000
1100
0000
1000
0010
,
1000
0000
1000
0010
0100
0000
0100
1000
,
0010
0000
1010
0000
0011
0000
2002
3003
,
1000
0001
0001
0000
1000
0000
0100
0000
,
1000
0010
0100
0000
0100
0010
1000
1000
,
0001
0000
0100
0000
0010
1000
0001
0000
,
2002
0000
3003
0001
,
1000
0000
0001
0000
1000
0100
1000
0000
,
1000
0000
1000
0000
1000
0010
0100
0000
,
0100
0000
0100
0000
0100
0010
1010
0000
,
0101
1100
0011
1100
,
0010
0000
0100
0010
1000
0000
1100
0000
,
0010
0000
0001
0100
0010
0000
1100
0000
,
0101
0000
0001
0100
0010
0000
1010
0000
,
0101
1000
1001
0101
,
0011
0000
0001
0100
0010
0000
1010
0000
,
1100
0000
0100
1000
0010
0000
1010
0000
,
0101
0000
0001
0100
0010
0000
0110
0000
,
0110
0110
0110
1001
,
1100
0000
1000
0010
0100
0000
0101
0000
,
1010
0000
1000
0100
0010
0000
0011
0000
,
1100
0000
0001
0100
0010
0000
1000
0000
,
0001
0100
0010
0000
2000
0000
3100
0000
,
0000
0000
0000
0000
,
0000
1000
0020
0130
,
0000
0100
0002
0000
0013
0000
0000
0000
,
0000
0001
2000
3010
,
0000
0000
0000
0000
,
0000
1000
0020
0130
,
0000
0010
0001
0000
0000
0000
1000
0001
,
1000
0001
0001
0101
,
0010
0000
1010
0000
1000
0000
0100
1000
,
0100
1000
0010
0202
,
0000
0303
0000
1002
,
0000
2000
0000
0000
3003
0000
0000
0000
,
0010
0000
0010
0220
,
0000
0000
0330
1001
,
1000
0001
0100
0000
0000
0010
0000
0000
,
0000
0000
0000
0000
0000
0000
1000
0000
0000
0001
0000
0000
0000
0000
1000
0000
,
0000
0010
0000
0000
0200
0000
0000
0000
0000
0000
0002
0000
0000
0000
0000
0000
,
0303
0000
0000
0000
0001
0000
0000
1000
0000
0000
0010
0000
0000
0000
1000
0000
,
0000
1000
0000
0000
1010
0000
0000
0000
0000
0000
0200
0000
0000
0000
0000
0000
,
0300
0000
0000
0000
0000
0000
0010
0000
0000
1000
0000
0000
0000
0000
0001
0000
,
0000
0010
0000
0000
0001
0000
0000
0000
0000
0000
0200
0000
0000
0000
0000
0000
,
0300
0000
0000
0000
0010
1000
0001
0020
0000
0000
0000
0000
0000
0000
0000
0000
,
0000
0000
0030
0000
;

//---------------dance-single - ----------------
#NOTES:
     dance-single:
     :
     Easy:
     4:
     0.270,0.427,0.266,0.175,0.004: // measure 1
0000
0000
0000
0000
,  // measure 2
0000
0000
0000
0000
,  // measure 3
0000
0000
0000
0000
,  // measure 4
0000
0000
0000
0000
,  // measure 5
0001
0001
0010
0000
,  // measure 6
0000
0000
0000
0000
,  // measure 7
0010
0100
0010
0000
,  // measure 8
1100
0001
0100
1000
,  // measure 9
0000
0000
0000
0000
,  // measure 10
0000
1000
0100
0001
,  // measure 11
0000
0220
0330
0000
,  // measure 12
0000
0010
1000
0001
,  // measure 13
0000
0000
0000
0000
,  // measure 14
0000
0100
0010
1000
,  // measure 15
0000
0000
0101
0000
0000
0000
0001
1000
,  // measure 16
0100
1000
1010
0000
,  // measure 17
0000
0000
0000
0000
,  // measure 18
0100
0010
1000
0000
,  // measure 19
0101
1100
0000
0000
,  // measure 20
0010
1000
0001
0000
,  // measure 21
0000
0000
0000
0000
,  // measure 22
0001
0010
0100
0000
,  // measure 23
0100
0000
0000
0010
,  // measure 24
1100
0010
0101
0010
,  // measure 25
0010
0100
0110
0001
,  // measure 26
1100
0000
0010
0000
0011
0000
0202
0303
,  // measure 27
0010
0100
0010
0010
,  // measure 28
1000
0001
0101
1100
,  // measure 29
0010
0001
0010
0100
,  // measure 30
1000
0000
0000
1000
,  // measure 31
0100
0010
0011
0001
,  // measure 32
0010
0100
1100
1000
,  // measure 33
0010
0100
0101
2000
,  // measure 34
3100
0020
0031
0100
,  // measure 35
0010
1000
1001
0001
,  // measure 36
0100
0010
1100
1000
,  // measure 37
0001
0100
0110
0010
,  // measure 38
1000
0000
0001
1000
0100
0000
1000
0000
,  // measure 39
0100
0011
0001
0100
,  // measure 40
0010
1001
0001
0100
,  // measure 41
0010
1010
0010
0011
,  // measure 42
1000
1010
1000
0001
,  // measure 43
0100
1100
1000
0100
,  // measure 44
0001
0011
0001
0010
,  // measure 45
1000
0011
0001
0100
,  // measure 46
0010
1000
0001
0000
0001
0000
0001
0000
,  // measure 47
0000
0000
0000
0000
,  // measure 48
0000
1000
0010
0100
,  // measure 49
0000
0020
0030
0000
,  // measure 50
0000
0100
0010
1000
,  // measure 51
0000
0000
0000
0000
,  // measure 52
0000
0001
1000
0100
,  // measure 53
0000
0101
0000
0010
,  // measure 54
1000
0001
0000
1000
,  // measure 55
0000
0001
0000
0100
,  // measure 56
0010
1000
0000
0202
,  // measure 57
0000
0303
0000
0000
0000
0000
0010
0000
,  // measure 58
1000
0001
0000
1000
,  // measure 59
0000
1000
0000
0010
,  // measure 60
0100
0001
0000
0001
,  // measure 61
0000
0000
2000
0000
0000
0200
0000
0000
,  // measure 62
3300
0000
0010
0000
,  // measure 63
0010
0000
0002
0000
0000
0020
0000
0000
,  // measure 64
0033
0202
0000
0303
,  // measure 65
0000
0000
0020
0000
0000
0200
0000
0000
,  // measure 66
0330
0000
0010
0000
,  // measure 67
0010
0000
2000
0000
0000
0200
0000
0000
,  // measure 68
3300
0000
0000
0000
0000
0000
0000
2002
0000
0000
0000
0000
0000
0000
0000
0000
,  // measure 69
0000
0000
0000
0000
0000
0000
0000
3003
0000
0000
0000
0000
0000
0000
0000
0000
;

//---------------dance-single - ----------------
#NOTES:
     dance-single:
     :
     Beginner:
     2:
     0.201,0.252,0.224,0.000,0.004: // measure 1
0000
0000
0000
0000
,  // measure 2
0000
0000
0000
0000
,  // measure 3
0000
0000
0000
0000
,  // measure 4
0000
0000
0000
0000
,  // measure 5
0001
0000
0000
0000
,  // measure 6
0000
0000
0000
0000
,  // measure 7
0001
0000
0000
0000
,  // measure 8
1001
0010
0010
0010
,  // measure 9
0000
0000
0000
0000
,  // measure 10
0000
1000
1000
1000
,  // measure 11
0000
1001
0000
0000
,  // measure 12
0000
0100
0100
0100
,  // measure 13
0000
0000
0000
0000
,  // measure 14
0000
0010
0010
0010
,  // measure 15
0000
0000
1001
0000
0000
0000
1000
1000
,  // measure 16
1000
1000
1000
0000
,  // measure 17
0000
0000
0000
0000
,  // measure 18
0010
0010
0010
0000
,  // measure 19
0110
0000
0000
0000
,  // measure 20
0100
0100
0100
0000
,  // measure 21
0000
0000
0000
0000
,  // measure 22
0001
0001
0001
0000
,  // measure 23
1001
0000
0000
0010
,  // measure 24
0010
0000
0000
1000
,  // measure 25
1000
0001
1001
0000
,  // measure 26
0001
0000
0000
1001
,  // measure 27
0010
0010
0000
0000
,  // measure 28
0100
0100
0010
0100
,  // measure 29
0000
0010
0000
0000
,  // measure 30
1001
0000
0000
1000
,  // measure 31
0000
1000
0000
0001
,  // measure 32
1000
0001
1000
0001
,  // measure 33
0000
0001
0000
1001
,  // measure 34
0000
0110
0000
0010
,  // measure 35
0000
0010
0000
0010
,  // measure 36
0100
0010
0100
0010
,  // measure 37
0000
0010
0000
1000
,  // measure 38
0000
0000
0001
0001
0001
0000
0000
0000
,  // measure 39
1000
0000
0001
0001
,  // measure 40
1000
0000
0010
0000
,  // measure 41
0100
0000
0010
0010
,  // measure 42
1000
1000
1001
0000
,  // measure 43
0010
0000
0001
1000
,  // measure 44
1000
0000
1001
0000
,  // measure 45
0100
0000
0010
0010
,  // measure 46
1000
0001
0001
0001
,  // measure 47
0000
0000
0000
0000
,  // measure 48
0000
1000
1000
1000
,  // measure 49
0000
0010
0000
0000
,  // measure 50
0000
0100
0100
0100
,  // measure 51
0000
0000
0000
0000
,  // measure 52
0000
0010
0010
0010
,  // measure 53
0000
1001
0000
1000
,  // measure 54
1000
1000
0000
1001
,  // measure 55
0000
0110
0000
0010
,  // measure 56
0010
0010
0000
1001
,  // measure 57
0000
0000
0000
0010
,  // measure 58
0010
0010
0000
0000
,  // measure 59
1001
0000
0110
0010
,  // measure 60
0010
0010
0000
1001
,  // measure 61
0000
1000
1000
1000
,  // measure 62
0000
1001
0000
1001
,  // measure 63
0000
0100
0100
0100
,  // measure 64
0000
0110
0000
1001
,  // measure 65
0000
0110
0010
0010
,  // measure 66
0000
1001
0000
0110
,  // measure 67
0000
0010
0010
0010
,  // measure 68
0000
0000
0000
0000
0000
0000
0000
1001
0000
0000
0000
0000
0000
0000
0000
0000
;
