#TITLE:PARANOiA TCN;
#SUBTITLE:;
#ARTIST:TCN190;
#TITLETRANSLIT:;
#SUBTITLETRANSLIT:;
#ARTISTTRANSLIT:;
#CREDIT:;
#BANNER:bn.png;
#BACKGROUND:bg.png;
#LYRICSPATH:;
#CDTITLE:;
#MUSIC:PARANOiA TCN TCN190.mp3;
#OFFSET:0.063;
#SAMPLESTART:40.640;
#SAMPLELENGTH:12.000;
#SELECTABLE:YES;
#BPMS:0.000=190.381,61.000=190.021;
#STOPS:61.000=0.947
,122.000=0.967
;
#BGCHANGES:;

//---------------dance-single - ----------------
#NOTES:
     dance-single:
     :
     Hard:
     9:
     0.532,0.647,0.531,0.000,0.182:
0000
0000
0000
0000
,
0000
0000
0000
0000
,
0000
0000
0000
0000
,
0000
0000
0000
0000
,
0000
0000
0000
0000
,
0000
0000
0000
0000
,
0000
0000
0000
0000
,
0000
0000
0000
0000
,
0000
0000
0101
0000
0011
0000
0001
0001
,
0100
0010
0100
0000
0110
0000
0010
0010
,
1000
0100
1000
0000
1010
0000
1000
0001
,
0001
0010
0001
0000
0011
0000
0001
0001
,
0001
0100
0010
0000
0110
0000
1000
0001
,
0001
0010
0100
0000
1100
0000
1000
1000
,
1000
0001
0100
0000
0010
1000
0001
0000
,
0001
0100
0010
0000
0001
0000
0001
0000
,
0001
0000
0000
0001
0000
1000
0001
0001
,
0100
0010
0100
0000
0110
0000
0010
0000
,
0010
0000
0000
0010
0000
0010
0010
0010
,
0100
0010
0100
0000
1010
0000
1000
0000
,
1000
0000
0000
1000
0000
1000
1000
1000
,
0010
0100
0010
0000
1001
0000
0001
0000
,
0001
0000
0000
0001
0000
1000
1000
1000
,
1000
1000
0001
0000
0001
0100
0100
0001
,
0100
0100
0100
0000
0010
0100
0100
0100
,
0010
0100
0100
0000
0010
1000
1000
0010
,
1000
1000
1000
0000
0100
1000
1000
0100
,
1000
1000
1000
0000
1000
0100
1000
0000
,
0010
0001
0010
0000
0100
0100
0100
0000
,
0010
0010
0010
0000
0010
0100
0010
0100
,
0010
0100
0010
0100
0010
0000
1001
0000
,
0101
0000
0011
0000
0000
0001
0000
0001
,
0100
1000
0100
0001
0010
0000
0011
0000
,
0011
0000
0011
0000
0000
0001
0000
0001
,
0010
1000
0010
0001
0010
0000
0110
0000
,
0110
0000
0110
0000
0000
0010
0000
0010
,
0001
0010
0100
1000
0100
0000
0110
0000
,
1001
0000
1100
0000
0000
1000
0000
0001
,
0001
0100
0010
0100
0010
0000
1010
0000
,
0101
0000
1010
0000
0000
1000
0000
0100
,
1000
0100
0100
1000
0100
0000
0010
0000
,
0010
0000
0010
0000
0000
0100
0000
0010
,
0100
0001
0100
0010
0001
0000
0011
0000
,
0011
0000
0011
0000
0000
0001
0000
0001
,
0010
0100
0010
0100
0001
0000
0001
0000
,
0001
0000
1000
0000
0000
0010
0000
1000
,
0100
0010
0001
0010
0100
0000
0010
0000
,
0010
0000
0100
0000
0010
0001
0010
0000
,
0100
0010
1000
1001
,
0001
0000
0100
0000
0010
0100
0010
0000
,
0100
0000
0010
1000
0001
0010
0001
0000
,
0010
0001
0100
0010
,
1000
0000
0100
0000
1000
0010
0100
0000
,
0010
0000
1000
0000
0010
1000
0001
0000
,
0001
0000
0001
1000
0001
1000
1001
0000
,
0001
0100
0010
1000
,
0100
0000
1000
0010
0100
0001
0100
0000
,
0010
0100
1000
0100
,
0010
0001
0100
0101
,
0010
0100
0001
1001
,
0001
0100
0010
1010
,
0010
0011
0100
0101
,
1100
0101
1100
1001
,
0000
0000
0000
0000
,
0000
0000
0000
0110
,
0000
0000
0000
0000
,
0000
0000
0000
0000
0000
0000
0000
0000
0010
1000
0000
0000
,
0000
0000
0000
0000
,
0000
0000
0000
0011
,
0000
0000
0000
0001
,
0001
1000
1000
1001
,
0000
0000
0000
0000
0000
0000
0000
0000
0010
0100
0000
0000
,
0000
0000
0000
0000
0000
0000
0000
0000
0010
1000
0000
0000
,
0000
0000
0000
0000
0000
0000
0000
0000
0010
0100
0000
0000
,
0000
0000
0000
0000
0000
0000
0000
0000
1000
0100
0000
0000
,
0000
0011
0000
0101
,
0000
0000
0000
1010
0000
0000
0000
0000
0001
0100
0000
0100
,
0010
0000
0010
1000
0000
1000
0001
0000
0001
0010
0000
0000
,
0011
1100
0101
1010
,
1000
0000
0000
1100
0000
1000
0001
0000
0001
0010
0000
0000
,
0011
0000
0000
0001
0000
0001
0100
0000
0100
0010
0000
0000
,
1001
0000
0000
1000
0000
0000
0001
0000
0001
0010
0000
0010
,
0100
0000
0100
1000
0000
1000
0001
0000
0001
0100
0000
0000
,
0110
0000
0000
0010
0000
0001
1000
0000
0001
1000
0000
0000
,
0101
0000
0000
0001
0000
0001
0010
0000
0100
1000
0000
0000
,
1001
0000
0000
0100
0000
0010
1000
0000
1000
0100
0000
0000
,
1100
0011
1100
1001
,
0110
0000
0000
0110
0000
0010
0100
0000
0100
0010
0000
0010
,
1000
0000
0010
1000
0000
1000
0100
0000
0010
0001
0000
0001
,
0100
0000
0100
0010
0000
0000
0110
0000
0000
1001
0000
0000
,
1100
0000
0000
0011
0000
0000
0101
0000
0001
0100
0000
0100
,
0010
0000
0000
0000
0000
0010
1000
0000
1000
0001
0000
0001
,
0010
0000
0000
0000
0000
0001
0010
0000
0100
1000
0000
1000
,
0001
0000
0001
0010
0000
0010
0100
0000
0100
1000
0000
1000
,
1001
0000
0001
1001
0000
1000
1001
0000
0001
0101
0000
0000
;

//---------------dance-single - ----------------
#NOTES:
     dance-single:
     :
     Medium:
     8:
     0.455,0.575,0.652,0.000,0.000:
0000
0000
0000
0000
,
0000
0000
0000
0000
,
0000
0000
0000
0000
,
0000
0000
0000
0000
,
0000
0000
0000
0000
,
0000
0000
0000
0000
,
0000
0000
0000
0000
,
0000
0000
0000
0000
,
0000
1001
0001
0100
,
0010
0000
0100
0000
0010
0000
1000
0100
,
1000
1010
0010
0100
,
0001
0001
0100
0000
0010
0000
1000
0100
,
1000
1100
0010
0100
,
0001
1000
1000
0100
,
0010
0011
0001
0100
,
0010
0000
1000
0001
,
0100
0000
0000
0100
0000
0010
1000
0100
,
0010
0001
0010
0000
0011
0000
0001
0000
,
0100
0000
0000
0100
0000
0100
0010
1000
,
0001
0001
1000
0000
0001
0000
0001
0000
,
0001
0000
0000
0001
0000
1000
0001
0100
,
0001
0010
0001
0000
0100
0000
0100
0000
,
0100
0000
0000
0010
0000
0010
1000
0001
,
1000
0010
1000
0000
1000
0000
1000
0000
,
1000
0100
0010
0000
0010
0000
0010
0000
,
0010
0001
0010
0000
0100
0000
0100
0000
,
0100
0010
1000
0000
1000
0000
1000
0000
,
1000
0001
0100
0000
0001
0100
0010
0000
,
0010
1000
0100
0000
0100
1000
0010
0000
,
0010
0100
0010
0000
0010
1000
0010
1000
,
0001
0010
0100
1000
0100
0000
1000
0000
,
1000
0000
1000
0000
0000
1000
0000
1000
,
0001
1000
0001
1000
0001
0000
0100
0000
,
0100
0000
0100
0000
0000
0100
0000
0010
,
0100
0010
0100
0010
0100
0000
0010
0000
,
0010
0000
0010
0000
0000
0010
0000
0010
,
1000
0010
0001
0010
0100
0000
0100
0000
,
0100
0000
0100
0000
0000
0100
0000
0100
,
1000
0010
0100
0001
0100
0000
0101
0000
,
0001
0000
0001
0000
0000
0100
0000
0010
,
0100
0010
0100
0010
0100
0000
0010
0000
,
0010
0000
0010
0000
0000
1000
0000
0001
,
1000
0001
1000
0001
1000
0000
0001
0000
,
0001
0000
0001
0000
0000
0001
0000
0001
,
0100
0010
1000
0100
1000
0000
1100
0000
,
1100
0000
1100
0000
0000
0010
0000
0010
,
1000
0010
0100
0001
0000
0000
0010
0000
,
0010
0010
0010
0100
,
0100
0100
0100
1000
,
1000
1000
1000
0001
,
0001
0000
1000
0001
1000
0001
1000
0000
,
1000
0001
0100
0010
,
0010
0100
0010
1000
,
0001
0010
0001
0100
,
0010
1000
0100
1100
,
1000
0100
1000
0010
,
0100
0001
0100
0110
,
0010
1000
0010
0100
,
0100
0010
0010
1001
,
0010
0100
0001
0010
,
0100
0010
0001
0100
,
0010
1000
0010
0011
,
1010
0011
1010
1001
,
0000
0000
0000
0000
,
0000
0000
0000
0010
,
0000
0000
0000
0000
,
0000
0000
0000
0100
,
0000
0000
0000
0000
,
0000
0000
0000
0010
,
0000
0000
0000
1000
,
1000
0001
0001
1001
,
0000
0000
0000
1001
,
0000
0000
0000
1001
,
0000
0000
0000
1001
,
0000
0000
0000
1001
,
0000
1001
0000
1001
,
0000
1001
0000
1001
,
1001
1001
1001
0110
,
1001
0110
1001
0101
,
0011
0000
0011
1100
,
1001
0000
0101
1010
,
1100
0000
1010
1001
,
1001
0101
0101
0011
,
0011
0000
0101
0110
,
1001
0000
0101
1010
,
1100
0000
1100
0110
,
0110
1001
1001
0101
,
0011
0000
0101
0110
,
1010
0000
1100
1010
,
0110
0000
0110
1010
,
0011
1010
0011
1001
,
1001
0000
0110
0110
,
0110
0000
1001
1001
,
1001
0000
0101
1100
,
1010
0011
0110
1001
;

//---------------dance-single - ----------------
#NOTES:
     dance-single:
     :
     Beginner:
     3:
     0.249,0.287,0.227,0.000,0.000:
0000
0000
0000
0000
,
0000
0000
0000
0000
,
0000
0000
0000
0000
,
0000
0000
0000
0000
,
0000
0000
0000
0000
,
0000
0000
0000
0000
,
0000
0000
0000
0000
,
0000
0000
0000
0000
,
0000
0010
0000
0010
,
0000
1000
0000
0010
,
0100
0100
0000
0010
,
0000
1000
0000
0001
,
0000
1001
0000
0010
,
0000
0100
0000
0010
,
0000
1001
0000
0010
,
0000
0000
0001
0001
,
0001
0000
0001
0000
,
0001
0000
1001
1000
,
1000
0000
1000
0000
,
1000
0000
0110
0010
,
0010
0000
0010
0000
,
0010
0000
0110
0100
,
0100
0000
0010
0000
,
0100
0000
0010
0010
,
0010
0010
0100
0100
,
0100
0100
0010
0000
,
0010
0000
0010
0010
,
1000
1000
0001
0000
,
1000
0000
0001
0000
,
1000
0000
0001
0001
,
0001
0001
0000
1000
,
1000
1000
0000
1000
,
1000
1000
0000
0001
,
0001
0001
0000
0100
,
0100
0100
0100
0010
,
0010
0010
0000
0100
,
0100
0100
0000
0010
,
0010
0010
0000
0100
,
0100
0010
1000
1001
,
0000
0001
0000
1000
,
1000
0001
0001
1001
,
0000
0010
0000
0010
,
0000
1000
1000
1001
,
0000
0100
0000
0010
,
0000
0100
0100
0110
,
0000
0010
0000
0010
,
0010
0010
0000
1001
,
0000
0110
0000
0110
,
0000
0010
0010
0110
,
0000
0100
0000
0001
,
0000
1000
1000
1001
,
0000
0010
0000
0100
,
0000
0010
0010
1001
,
0000
0100
0000
0010
,
0000
1000
1000
1001
,
0000
0100
0000
1001
,
0000
0010
0000
1001
,
0000
0010
0000
1001
,
0000
0100
0000
1001
,
0000
0000
0000
0110
,
0000
0000
0000
1001
,
0000
0000
0000
0110
,
1001
0110
1001
0110
,
0000
0000
0000
0000
,
0000
0000
0000
0010
,
0000
0000
0000
0000
,
0000
0000
0000
1000
,
0000
0000
0000
0000
,
0000
0000
0000
0001
,
0000
0000
0000
0001
,
0000
0001
0000
1001
,
0000
0000
0000
1000
,
0000
0000
0000
0010
,
0000
0000
0000
0100
,
0000
0000
0000
0001
,
0000
1000
0000
0010
,
0000
0100
0000
0001
,
0000
1000
0000
0001
,
0001
0001
0001
1001
,
0000
1000
0000
1000
,
0000
0010
0000
0100
,
0000
0010
0000
1000
,
1000
1000
1000
1000
,
0000
0001
0000
0100
,
0000
0010
0000
0100
,
0000
0010
0000
0100
,
0100
0100
0100
0100
,
0000
0010
0000
1000
,
0000
0001
0000
1000
,
0000
0010
0000
0100
,
0100
0100
0100
0100
,
0000
0010
0000
1000
,
0000
0001
0000
1000
,
0000
0010
0000
0100
,
0100
0100
0100
1001
;

//---------------dance-single - ----------------
#NOTES:
     dance-single:
     :
     Easy:
     6:
     0.413,0.575,0.629,0.000,0.000: // measure 1
0000
0000
0000
0000
,  // measure 2
0000
0000
0000
0000
,  // measure 3
0000
0000
0000
0000
,  // measure 4
0000
0000
0000
0000
,  // measure 5
0000
0000
0000
0000
,  // measure 6
0000
0000
0000
0000
,  // measure 7
0000
0000
0000
0000
,  // measure 8
0000
0000
0000
0000
,  // measure 9
0000
0110
0010
1000
,  // measure 10
0010
0100
0001
1000
,  // measure 11
0100
1100
1000
0010
,  // measure 12
0100
0001
0001
1000
,  // measure 13
1000
0110
0010
1000
,  // measure 14
0010
0100
0001
0010
,  // measure 15
0100
0110
0010
0001
,  // measure 16
0100
0010
0100
0100
,  // measure 17
0100
0000
0100
0100
,  // measure 18
0100
0010
0100
0000
0010
0000
0010
0000
,  // measure 19
0010
0000
0010
0010
,  // measure 20
0010
1000
0010
0000
1000
0000
1000
0000
,  // measure 21
1000
0000
1000
1000
,  // measure 22
1000
0001
1000
0000
0001
0000
0001
0000
,  // measure 23
0001
0000
0001
0001
,  // measure 24
0001
1000
0001
0000
0001
0100
0001
0100
,  // measure 25
0001
0100
0001
0000
0001
0100
0001
0100
,  // measure 26
0001
0100
0001
0000
0010
1000
0010
1000
,  // measure 27
0010
1000
0010
0000
0010
1000
0010
1000
,  // measure 28
0010
1000
0010
0000
1000
0000
0100
0000
,  // measure 29
0001
0100
1000
0100
,  // measure 30
0001
0000
0100
0000
1000
0010
1000
0010
,  // measure 31
1000
0010
1000
0010
1000
0000
1010
0000
,  // measure 32
1010
1010
0000
0010
,  // measure 33
1000
0000
0001
1000
0001
0000
0101
0000
,  // measure 34
0101
0101
0000
0001
,  // measure 35
0100
0000
0010
1000
0100
0000
1100
0000
,  // measure 36
1100
1100
0000
0100
,  // measure 37
1000
0000
0010
0100
0010
0000
1010
0000
,  // measure 38
1010
1010
0000
0010
,  // measure 39
0100
0000
0001
1000
0001
0000
1001
0000
,  // measure 40
1001
1001
0000
0001
,  // measure 41
0100
0000
0010
0100
0010
0000
0110
0000
,  // measure 42
0101
1010
0000
0010
,  // measure 43
1000
0000
0100
1000
0100
0000
1100
0000
,  // measure 44
0110
0011
0000
0001
,  // measure 45
0100
0000
0010
1000
0010
0000
0110
0000
,  // measure 46
0110
0110
0000
0010
,  // measure 47
0010
0000
0010
0010
0010
0000
0100
0000
,  // measure 48
0010
1000
0001
0100
,  // measure 49
0001
0100
0010
1000
,  // measure 50
0100
0100
1000
0010
,  // measure 51
0100
0000
0001
0100
0001
0100
0001
0000
,  // measure 52
0100
0010
1000
0001
,  // measure 53
0001
1000
1000
0010
,  // measure 54
0100
0010
1000
0010
,  // measure 55
0100
0000
0001
0100
0010
1000
0100
0000
,  // measure 56
0100
0100
1000
0010
,  // measure 57
0100
0001
1000
1001
,  // measure 58
0001
0100
0010
1000
,  // measure 59
1000
0001
0001
1001
,  // measure 60
0000
0000
0000
0101
,  // measure 61
0000
0000
0000
1010
,  // measure 62
0000
0000
0000
0110
,  // measure 63
1001
0101
1010
1100
,  // measure 64
0000
0000
0000
0000
,  // measure 65
0000
0000
0000
0010
,  // measure 66
0000
0000
0000
0000
,  // measure 67
0000
0000
0000
0100
,  // measure 68
0000
0000
0000
0000
,  // measure 69
0000
0000
0000
0010
,  // measure 70
0000
0000
0000
1000
,  // measure 71
1000
0001
0001
1001
,  // measure 72
0000
0000
0000
0010
,  // measure 73
0000
0000
0000
0010
,  // measure 74
0000
0000
0000
0010
,  // measure 75
0000
0000
0000
0010
,  // measure 76
0000
0010
0000
0010
,  // measure 77
0000
0010
0000
0010
,  // measure 78
0000
0010
0000
0010
,  // measure 79
0010
0010
0010
0110
,  // measure 80
0110
0110
0110
0110
,  // measure 81
0110
0110
0000
1001
,  // measure 82
1001
1001
1001
0101
,  // measure 83
1001
0101
1001
1100
,  // measure 84
0000
0011
0000
0101
,  // measure 85
1010
0101
0000
0110
,  // measure 86
0000
1001
0000
0101
,  // measure 87
0110
1010
1100
0110
,  // measure 88
0000
0011
0000
0110
,  // measure 89
0000
1100
0000
1010
,  // measure 90
0000
0101
0000
0101
,  // measure 91
1010
1100
0011
1001
,  // measure 92
0000
0010
0000
1001
,  // measure 93
0000
0100
0000
1001
,  // measure 94
0000
0110
0000
1010
,  // measure 95
0101
1100
0011
1001
;
