#TITLE:Overdrive;
#SUBTITLE:;
#ARTIST:Iosys;
#TITLETRANSLIT:;
#SUBTITLETRANSLIT:;
#ARTISTTRANSLIT:;
#CREDIT:foamysminion;
#BANNER:bn.png;
#BACKGROUND:0c8e28188ca845379e333483f376829f_StreamSound1-bg.png;
#LYRICSPATH:;
#CDTITLE:PandemiXium-cdtitle.png;
#MUSIC:0c8e28188ca845379e333483f376829f_StreamSound1.MP3;
#OFFSET:0.031;
#SAMPLESTART:19.380;
#SAMPLELENGTH:10.000;
#SELECTABLE:YES;
#BPMS:0.000=200.002;
#STOPS:;
#BGCHANGES:1.000=bgaod.avi=1.000=0=0=1,
99999=-nosongbg-=1.000=0=0=0 // don't automatically add -songbackground-
;

//---------------dance-single - ----------------
#NOTES:
     dance-single:
     :
     Hard:
     9:
     0.616,0.952,0.160,0.183,0.099:
0000
0000
0000
0000
,
0000
0000
0000
0000
,
0000
0000
0000
0000
,
0000
0000
0000
0000
,
0000
0000
0000
0000
,
0000
0000
0000
0000
,
0000
0000
0000
0000
,
0000
0000
0000
0000
,
0000
1000
1000
0001
,
0001
0100
0100
0010
,
0010
0100
0010
1000
,
0001
0010
0001
0100
,
0010
0000
0100
0010
1000
0001
0010
0001
,
0100
0001
0010
0100
1000
0001
0100
0010
,
1000
0000
0001
0000
0010
0000
0000
0001
0010
0000
0000
0010
0100
0000
0000
0100
,
1000
0000
0000
0000
0000
0000
0000
0000
0000
1000
0000
0000
0001
0000
0000
0000
1000
0000
0000
0000
0010
0000
0000
0000
0100
0000
0000
0000
0010
0000
0000
0000
1000
0000
0000
0000
0100
0000
0000
0000
0020
0000
0000
0000
0002
0000
0000
0000
,
0000
0033
1000
0100
1000
0010
1000
0100
,
1000
0010
1000
0100
1000
0010
1000
0100
,
1000
0010
1000
0000
0001
0000
0010
0000
,
0001
0101
0000
0010
,
0000
0000
0001
0100
0001
0010
0001
0100
,
0001
0010
0001
0100
0001
0010
0001
0100
,
0001
0000
0010
0000
0001
0000
0000
0001
1000
0000
0000
1000
0001
0000
0000
0001
,
0100
0000
0000
0100
0010
0000
0000
0000
0000
0000
0000
0000
0100
0000
0000
0000
,
0000
0010
0010
0100
,
0100
0010
1000
0001
,
0001
0000
1000
0001
1000
0001
0100
0010
,
1000
0001
0020
0000
0000
0000
0031
0000
,
0000
0000
1000
0100
0010
0100
1000
0001
,
0010
0001
0100
0010
1000
0010
0100
0001
,
0010
0001
1000
0100
0010
0001
0010
0001
,
0100
0010
1000
0000
0001
0000
2002
0000
,
3003
0000
1000
0001
1000
0001
0100
0001
,
0100
0000
0001
0000
0010
0000
0001
0000
0010
0000
0001
0000
0010
0000
0000
0001
,
0000
0100
0001
0100
0001
0100
0010
0100
,
0010
0100
0010
1000
0010
1000
0010
0100
,
0001
1000
0000
0000
0001
0100
0020
0000
,
0130
0000
0010
0000
0010
1000
0000
0010
,
0100
0000
0010
0000
0010
1000
0001
0000
,
1000
0000
0001
0000
0100
0000
0010
1000
,
0001
0100
0010
0000
0100
0000
0010
0000
,
1000
0001
0010
0001
,
0100
0010
1000
0010
,
0100
0010
1000
0010
,
0010
1000
0100
0000
1000
0000
0100
0000
,
0010
0010
0010
0001
,
0010
0001
0100
0010
,
1000
2002
0000
0000
,
3003
0000
1000
0000
0001
0000
0000
1000
,
0001
0000
0001
0000
1000
0000
0000
0001
,
1000
0000
1000
0000
0001
0000
0000
0001
,
1000
0000
1000
0000
0001
0000
0000
0001
,
1000
0001
1000
0001
,
1000
0000
0001
1000
0001
1000
0001
1000
,
0001
0000
1000
0000
0001
0010
0100
1000
0001
0010
0100
1000
0001
0010
0100
1000
,
0001
0010
0100
1000
0001
0000
0000
0000
0000
0000
0001
0010
0100
0000
0001
0000
,
0010
0100
2002
0000
3003
0000
0010
0000
,
0001
0100
0010
1000
0001
0010
0002
0000
,
0003
0001
1000
0001
,
0100
0001
0000
0001
0010
0100
2000
0000
,
3000
1001
0010
1001
,
0100
1010
0001
0011
,
1100
0000
0001
1000
0001
0100
0010
1000
,
0001
0020
0200
0000
0000
0000
0000
0000
,
0330
0000
0100
0010
0001
0100
0001
0010
,
0100
0010
0001
0100
0010
1000
0100
1000
,
0010
0100
0010
0000
0010
0000
0100
0000
,
0100
0010
0001
0001
,
1000
0000
0001
1000
0001
0100
0001
1000
,
0001
0010
0001
1000
0001
0100
0001
0010
,
0001
0100
0010
0000
0010
0000
0100
0000
,
0100
0020
0000
0000
,
0030
0000
0010
1000
0010
0100
0010
1000
,
0010
1000
0100
1000
0010
0100
0001
0010
,
0001
0100
0010
0000
0100
0000
0010
0000
,
1000
0001
0010
0001
,
0100
1020
0130
0120
,
1030
2100
3001
0012
,
0103
0101
1010
1100
,
0011
0202
0000
0000
,
0303
0001
1000
0001
,
0100
0001
0100
0010
1000
0010
0100
0000
,
0000
0010
0000
0010
0100
0010
1000
0001
,
0100
0010
0000
0010
0100
0010
0100
0000
,
0000
0000
1010
0000
0010
1000
0010
0000
,
1000
0100
0010
0001
0010
0100
1000
0000
,
0000
0001
0000
0001
0100
0010
1000
0010
,
0100
0001
2000
0000
0000
0000
0000
0000
,
3000
0000
1001
0000
0001
0100
0001
0100
,
0000
0001
0000
0001
0100
0010
0100
0100
,
0000
0000
0010
0000
0010
0100
0010
1000
,
0000
0000
0010
0000
0000
0000
0010
0000
0100
0000
0010
0000
1000
0100
1000
0100
,
1000
0000
1000
0000
0001
0100
0001
0100
,
0000
0001
0000
0001
0010
0001
0100
0100
,
0000
0000
0010
0000
0010
1000
0001
1000
,
0000
0010
0000
0010
1000
0100
2000
0000
,
3000
0000
1000
0100
0010
0001
0010
0001
,
0000
0001
0000
0010
0001
0010
0001
0000
,
0000
0001
0000
0001
0100
0010
1000
0001
,
1000
0010
0000
0010
0010
0100
0010
0000
,
0000
0000
0110
0000
0010
1000
0001
0000
,
0001
1000
0001
0100
0010
1000
0010
0000
,
0000
1000
0000
1000
0100
0010
0001
0010
,
0100
1000
0020
0000
0000
0000
0000
0000
,
0000
0030
0000
0000
;

//---------------dance-single - ----------------
#NOTES:
     dance-single:
     :
     Medium:
     7:
     0.389,0.516,0.137,0.205,0.000:
0000
0000
0000
0000
,
0000
0000
0000
0000
,
0000
0000
0000
0000
,
0000
0000
0000
0000
,
0000
0000
0000
0000
,
0000
0000
0000
0000
,
0000
0000
0000
0000
,
0000
0000
0000
0000
,
0000
0202
0000
0000
,
0000
0000
0000
0300
,
0000
0020
0000
0000
,
0000
0000
0000
0003
,
0000
0200
0000
0000
,
0000
0000
0000
0030
,
0000
1000
1000
1000
,
1000
2000
0000
0000
,
3300
1000
1000
1000
,
1000
1000
1000
1000
,
1000
2002
0000
0000
,
0000
3003
0000
0000
,
0000
0001
0001
0001
,
0001
0001
0001
0001
,
0001
0202
0000
0000
,
0000
0303
0000
0000
,
0000
0010
0010
0010
,
0010
0010
0010
0010
,
0010
0220
0000
0000
,
0000
0300
0000
0100
,
0000
0130
0010
1000
,
0001
0010
0001
0001
,
0010
0000
0100
0000
0001
0000
0100
0010
,
1000
0002
2000
0000
0000
0000
0000
0000
,
3003
0001
1000
0001
,
0100
0010
1000
1100
,
0000
1000
0001
0100
,
0010
0000
1000
0000
0010
0000
0010
1000
,
0001
1000
0001
0000
1000
0000
1000
0000
,
0001
0100
0010
0100
,
0010
1000
0001
0010
,
0001
0000
0100
0000
0010
0000
0001
1000
,
0001
1000
0001
0000
0000
0000
0001
0000
,
0000
1000
0000
1000
,
0000
0010
0000
0100
,
0000
0010
0000
1000
,
0000
0010
0000
0100
,
0000
0010
0000
1000
,
0000
0001
0000
0010
,
0000
0000
0202
0000
0000
0000
0000
0303
,
0000
0000
0001
0000
1000
0000
0000
0001
,
1000
0000
0001
0000
1000
0000
0000
0001
,
1000
0000
0001
0000
1000
0000
0000
0001
,
1000
0000
0001
0000
1000
0000
0000
0001
,
1000
0001
1000
0001
,
1000
0000
0001
1000
0001
1000
0001
1000
,
0001
2000
0002
0000
0000
0000
0000
0000
,
0000
3003
0000
0000
,
0000
0001
0000
0100
,
0010
0000
1000
0000
0001
0000
0010
0001
,
0001
0001
0010
0000
0001
0000
0100
0000
,
0010
0100
0000
0010
1000
0001
1000
0000
,
0000
1001
0000
0010
,
0000
1001
0000
0100
,
0000
1010
0011
1100
,
0101
2020
0000
0000
,
3030
0010
0010
0010
,
0010
0010
0010
0010
,
0010
0100
0010
1000
,
0001
0010
0001
0100
,
0010
1000
1000
1000
,
1000
1000
1000
1000
,
1000
0010
0100
0010
,
2000
0002
0000
0000
,
3003
0001
0001
0001
,
0001
0001
0001
0001
,
0001
1000
0010
0100
,
0010
1000
0100
0010
,
0001
0011
0100
1100
,
0010
0101
0010
1010
,
0010
0000
1000
0100
0010
0001
0010
0100
,
0001
2000
0020
0000
0000
0000
0000
0000
,
3030
1000
0100
1000
,
0100
0010
0001
0010
,
0000
0001
0100
0010
,
1000
0001
0100
0010
,
0000
0100
0010
1000
,
0010
0100
0010
1000
,
0001
0010
0001
0100
,
0020
2000
0000
0000
,
3030
0010
0100
0010
,
1000
0001
1000
1001
,
0000
0001
0100
0010
,
1000
0000
0100
0000
1000
0000
0100
1000
,
0100
1000
0001
0100
,
0010
0100
0010
1000
,
0000
1000
0001
0100
,
0010
2000
0000
0000
,
3000
0010
1000
0010
,
0100
0010
1000
0001
1000
0001
1000
0000
,
0000
0001
0000
0001
0100
0000
0010
0000
,
0100
0010
0000
0010
1000
0001
1000
0000
,
0000
0000
0001
0000
1000
0001
1000
0000
,
0100
1000
0100
0000
0010
0001
0010
0000
,
0000
0001
0000
0001
0010
0100
0001
1000
,
0010
0100
0020
0000
0000
0000
0000
0000
,
0000
0030
0000
0000
;

//---------------dance-single - ----------------
#NOTES:
     dance-single:
     :
     Easy:
     6:
     0.342,0.516,0.213,0.183,0.000:
0000
0000
0000
0000
,
0000
0000
0000
0000
,
0000
0000
0000
0000
,
0000
0000
0000
0000
,
0000
0000
0000
0000
,
0000
0000
0000
0000
,
0000
0000
0000
0000
,
0000
0000
0000
0000
,
0000
2020
0000
0000
,
0000
0000
0000
3000
,
0000
2000
0000
0000
,
0000
0000
0000
0030
,
0000
0002
0000
0000
,
0000
0000
0000
3003
,
0000
1001
1001
1001
,
1001
2002
0000
0000
,
3003
0001
0001
0001
,
0001
0001
0001
0001
,
0001
1000
1000
1000
,
1000
1010
0000
0101
,
0000
0100
0100
0100
,
0100
0100
0100
0100
,
0100
0010
0010
0010
,
0010
0110
0000
1001
,
0000
1000
1000
1000
,
1000
1000
1000
1000
,
1000
0100
0100
0100
,
0100
1000
0000
1010
,
0000
0001
0100
0001
,
0001
1000
1000
0010
,
0100
0000
0010
0000
1000
0000
0001
1000
,
0001
1000
0002
0000
0010
0000
0020
0000
,
0033
0001
1000
0001
,
0100
0010
1000
1100
,
0000
1000
1000
0001
,
0001
0100
0010
1000
,
0100
1000
0000
1000
,
0000
0001
0000
0100
,
0000
0010
1000
0100
,
0000
0000
1000
0000
0000
0001
0000
0000
,
0010
0001
0000
0001
,
0000
1000
0000
1000
,
0000
0010
0000
0100
,
0000
0010
0000
1000
,
1000
1000
0000
0001
,
0000
0010
0000
0001
,
0000
0100
0000
0010
,
0000
2002
0000
0000
,
3003
0001
0000
0000
,
0000
1000
0000
0000
,
0000
0001
0000
0000
,
0000
1000
0000
0000
,
0000
0001
0000
1000
,
0000
0001
1000
0001
,
1000
0000
0001
1000
0001
1000
0001
1000
,
0001
1000
0001
0000
0000
0000
0000
0000
,
0000
0200
0000
0301
,
0000
0001
0001
1001
,
0000
0010
0000
0100
,
0000
0010
1000
0100
,
0000
1100
0000
0000
,
0000
0011
0000
0000
,
0000
0101
0000
1001
,
0000
2020
0000
0000
,
3030
1000
1000
1000
,
1000
1000
1000
1000
,
1000
1000
0000
0001
,
0000
0100
0000
0010
,
0000
0100
0100
0100
,
0100
0100
0100
0100
,
0100
0010
0000
1000
,
0000
0002
0000
0003
,
0000
0010
0010
0010
,
0010
0010
0010
0010
,
0010
0001
0000
0100
,
0000
0010
0000
1000
,
0000
0002
0003
2000
,
3000
0020
0030
0200
,
0300
0010
1000
0100
,
0020
0002
0000
0000
,
0033
0001
0000
0001
,
0000
1000
0100
1000
,
0000
0100
1000
0010
,
0100
0001
0010
0011
,
0000
0001
0000
1001
,
0000
1000
1000
1001
,
0000
0001
0100
0010
,
0100
0002
0000
0000
,
0003
1000
0000
1000
,
0000
1000
1000
0001
,
0000
0100
0000
0010
,
0000
0000
0010
0000
1000
0000
0100
1000
,
0100
1000
0000
0100
,
0000
0100
0100
1000
,
0000
0010
0100
0001
,
0010
0001
1000
2001
,
3000
0001
0001
0001
,
1000
0001
0100
0020
,
0030
0100
0010
1000
,
0100
0010
0001
0002
,
0003
0001
0100
0010
,
1000
0100
1000
0010
,
0100
0010
0010
0010
,
0010
1001
1100
0011
,
1010
1001
0000
0000
;

//---------------dance-double - ----------------
#NOTES:
     dance-double:
     :
     Challenge:
     9:
     0.636,0.833,0.342,0.266,0.042:
00000000
00000000
00000000
00000000
,
00000000
00000000
00000000
00000000
,
00000000
00000000
00000000
00000000
,
00000000
00000000
00000000
00000000
,
00000000
00000000
00000000
00000000
,
00000000
00000000
00000000
00000000
,
00000000
00000000
00000000
00000000
,
00000000
00000000
00000000
00000000
,
00000000
01010000
00010000
00010000
,
00010000
01000000
00010000
00100000
,
00010000
00101000
00001000
00001000
,
00001000
00001000
00100000
00000100
,
00010000
00000000
00000010
00000100
00000010
00001000
00000001
00000010
,
00000100
00000010
00000001
00000100
00000010
00001000
00000100
00010000
,
00001000
00100000
00010000
00000000
00110000
00000000
00110000
00000000
,
00110000
00110000
00011000
00001100
,
00000110
00000000
00000001
00000100
00000001
00000010
00000001
00000100
,
00000001
00000010
00000001
00000100
00000001
00000010
00000001
00000100
,
00000001
00000010
00000100
00000000
00001000
00000000
00000100
00000000
,
00010000
00011000
00000000
00110000
,
00000000
00000000
00010000
01000000
00010000
00100000
00010000
01000000
,
00010000
00100000
00010000
01000000
00010000
00100000
00010000
01000000
,
00100000
01000000
00010000
00000000
10000000
00000000
01000000
00000000
,
00100000
01100000
00000000
00101000
,
00000000
00000000
00100000
00001000
00100000
00010000
00100000
00001000
,
00100000
00010000
00100000
00001000
00100000
00010000
00100000
00001000
,
00100000
00010000
00100000
00010000
01000000
00100000
10000000
01000000
,
10000000
01000000
10000000
00100000
01000000
00010000
00200000
00000000
,
00300000
00100000
00110000
00010000
,
00110000
00100000
00101000
00001000
,
00011000
00001100
00000110
00000101
,
00000110
00000000
00000010
00001000
00000100
00000001
00000100
00001000
,
00000020
00000000
00000130
00000010
00001000
00000100
00000010
00000001
,
00000100
00000000
00000010
00000000
00001000
00000000
00000100
00000000
00010000
00000000
00001000
00000000
00100000
00000000
00000000
00010000
,
00000000
01000000
00100000
10000000
01000000
10000000
00010000
01000000
,
00010000
00100000
00001000
00010000
00000010
00000100
00000001
00000010
,
00000100
00000000
00000100
00000000
00001000
00000010
00000100
00000000
,
00000110
00000000
00000010
00000000
00000010
00002000
00000000
00003100
,
00002000
00000000
00003100
00000000
00000100
00010000
00001000
00000000
,
00011000
00000000
00001000
00000000
00001000
00100000
00010000
00000000
,
00010000
01000000
00100000
00000000
01000000
00000000
00100000
00000000
,
10000000
00010000
00100000
00001000
,
00010000
00000100
00001000
00000010
,
00000100
00000000
00000001
00000000
00000001
00001000
00000100
00000000
,
00000100
00001000
00000100
00010000
,
00001000
00100000
00010000
01000000
,
00100000
10000000
10000000
00010000
,
00010000
00000000
01000000
00100000
00010000
00000000
00022000
00000000
,
00033000
00000000
00010000
00000000
00001000
00000000
00000000
00001000
,
00010000
00000000
00010000
00000000
00001000
00000000
00000000
00001000
,
00010000
00000000
00010000
00000000
00010000
00000000
00000000
00010000
,
00001000
00000000
00001000
00000000
00001000
00000000
00000000
00001000
,
00010000
00000100
00010000
00001000
,
00100000
00000000
00000100
00010000
00001000
00100000
00001000
00010000
,
00000100
00000000
00010000
00000000
00001000
00100000
00001000
00100000
00001000
00100000
00001000
00100000
00001000
00100000
00001000
00100000
,
00001000
00100000
00001000
00200000
00002000
00000000
00000000
00000000
00000000
00000000
00000000
00000000
00000000
00000000
00000000
00000000
,
00303000
01010000
00000000
00010000
,
00010000
01000000
00100000
10000000
01000000
00100000
00020000
00000000
,
00100000
00100000
00130000
00000000
00010000
00000000
01000000
00000000
,
00010000
00100000
00000000
00100000
00001000
00010000
00000200
00000000
,
00001300
00001100
00000010
00000101
,
00000010
00001001
00001000
00001100
,
00000010
00000000
00000010
00001000
00000001
00000010
00000001
00000010
,
00000100
00001000
00000020
00000000
00000000
00000000
00000000
00000000
,
00000000
00000000
00001030
00000010
00001000
00000100
00001000
00000010
,
00001000
00000100
00001000
00000010
00001000
00000100
00001000
00000010
,
00001000
00000100
00001000
00000000
00000100
00000000
00010000
00000000
,
00001000
00100000
00010000
01000000
,
00100000
00000000
10000000
01000000
10000000
00100000
10000000
01000000
,
10000000
00100000
10000000
01000000
10000000
00100000
10000000
01000000
,
10000000
00100000
10000000
00000000
00010000
00000000
00100000
00000000
,
00010000
02020000
00000000
00000000
,
03030000
00000000
00010000
00100000
00010000
01000000
00010000
00100000
,
00010000
01000000
00010000
00100000
00010000
01000000
00010000
00100000
,
00010000
01000000
00010000
00000000
00110000
00000000
00100000
00001000
,
00010000
00000000
00010000
00000100
00001000
00000010
00000200
00000000
,
00000300
00000020
00001030
00002000
,
00003100
00002000
00003010
00000200
,
00000310
00001000
00000010
00000001
00000010
00001000
00000010
00000100
,
00001000
00000200
00020000
00000000
00000000
00000000
00000000
00000000
,
00030300
00012000
00010000
00013000
,
00001000
00100000
00010000
02000000
,
03000000
00100000
10000000
00010000
,
00100000
00010000
01000000
00200000
,
00300000
00100000
01100000
10000000
,
10010000
00100000
00110000
00100000
,
00101000
00000000
00100000
00001000
00010000
00000100
00001000
00000010
,
00000100
00000001
00000020
00000000
00000000
00000000
00000000
00000000
,
00000000
00000000
00000031
00000000
00000001
00000100
00000010
00000010
,
00000000
00000110
00000000
00000010
00001000
00000001
00000010
00000010
,
00000000
00000000
00000110
00000000
00000001
00000100
00000010
00001000
,
00000000
00000000
00001010
00000000
00000000
00000000
00001000
00000000
00001000
00000000
00000010
00000000
00000100
00000010
00010000
00001000
,
00100000
00000000
00010000
00000000
00100000
00010000
01000000
00100000
,
00000000
00100000
00000000
00100000
10000000
00010000
00100000
00100000
,
00000000
00110000
01100000
11000000
,
10010000
02200000
00000000
00000000
,
03300000
00000000
10000000
00010000
00100000
00010000
00200000
00000000
,
00310000
01000000
00100000
10000000
00010000
00100000
00002000
00000000
,
00003000
00011000
00000000
00010000
00000100
00001000
00000010
00000100
,
00000001
00000020
00000000
00000031
00000100
00000020
00002000
00000000
,
00003030
00000000
00000010
00001000
00000100
00010000
00002000
00000000
,
00013000
00001000
00100000
00010000
01000000
00100000
02000000
00000000
,
03000000
00000000
00100000
10000000
00010000
00100000
00001000
00010000
,
00000100
00000020
00002000
00000000
00000000
00000000
00000000
00000000
,
00000000
00003030
00000000
00000000
;

//---------------dance-single - ----------------
#NOTES:
     dance-single:
     :
     Beginner:
     2:
     0.191,0.399,0.076,0.076,0.000: // measure 1
0000
0000
0000
0000
,  // measure 2
0000
0000
0000
0000
,  // measure 3
0000
0000
0000
0000
,  // measure 4
0000
0000
0000
0000
,  // measure 5
0000
0000
0000
0000
,  // measure 6
0000
0000
0000
0000
,  // measure 7
0000
0000
0000
0000
,  // measure 8
0000
0000
0000
0000
,  // measure 9
0000
0010
0000
0000
,  // measure 10
0000
0000
0000
0000
,  // measure 11
0000
1000
0000
0000
,  // measure 12
0000
0000
0000
0000
,  // measure 13
0000
0001
0000
0000
,  // measure 14
0000
0000
0000
0000
,  // measure 15
0000
0100
0100
0100
,  // measure 16
0100
0110
0110
0110
,  // measure 17
0000
0010
0000
0000
,  // measure 18
0000
0010
0000
0000
,  // measure 19
0000
1000
0000
1000
,  // measure 20
0000
1000
0000
0000
,  // measure 21
0000
0001
0000
0000
,  // measure 22
0000
1000
0000
0000
,  // measure 23
0000
0010
0000
0010
,  // measure 24
0000
0010
0000
0000
,  // measure 25
0000
0100
0000
0000
,  // measure 26
0000
0100
0000
0000
,  // measure 27
0000
0010
0000
0010
,  // measure 28
0000
1000
0000
1001
,  // measure 29
0000
0001
0000
0001
,  // measure 30
0000
1000
0000
1000
,  // measure 31
0000
0001
1000
0001
,  // measure 32
1000
0001
1000
1001
,  // measure 33
0000
0010
0000
0000
,  // measure 34
0000
0000
0000
0110
,  // measure 35
0000
0110
0000
0000
,  // measure 36
0000
0010
0000
0010
,  // measure 37
0000
1000
0000
0000
,  // measure 38
0000
0001
0000
0000
,  // measure 39
0000
0100
0000
0000
,  // measure 40
0000
0010
0000
0010
,  // measure 41
0000
0010
0000
0000
,  // measure 42
0000
0010
0000
0000
,  // measure 43
0000
1000
0000
0000
,  // measure 44
0000
0001
0000
0000
,  // measure 45
0000
0100
0000
0000
,  // measure 46
0000
0010
0000
0000
,  // measure 47
0000
0100
0000
0000
,  // measure 48
0000
0220
0000
0000
,  // measure 49
0330
0001
0000
0000
,  // measure 50
0000
1000
0000
0000
,  // measure 51
0000
0001
0000
0000
,  // measure 52
0000
1000
0000
0000
,  // measure 53
0000
0001
0000
1000
,  // measure 54
0000
0001
1000
0001
,  // measure 55
1000
0001
0010
0100
,  // measure 56
1000
0100
0000
0000
,  // measure 57
0000
2000
0000
0000
,  // measure 58
0000
0000
0000
3000
,  // measure 59
0000
0002
0000
0000
,  // measure 60
0000
0000
0000
0003
,  // measure 61
0000
0200
0000
0000
,  // measure 62
0300
0020
0000
0000
,  // measure 63
0030
0010
0000
0100
,  // measure 64
0000
1001
0000
0000
,  // measure 65
0000
0001
0000
0001
,  // measure 66
0000
0001
0000
0001
,  // measure 67
0000
1000
0000
0000
,  // measure 68
0000
0010
0000
0000
,  // measure 69
0000
0100
0000
0100
,  // measure 70
0000
0100
0000
0100
,  // measure 71
0000
0010
0000
0000
,  // measure 72
0000
1000
0000
0000
,  // measure 73
0000
0001
0000
0001
,  // measure 74
0000
0001
0000
0001
,  // measure 75
0000
1000
0000
0000
,  // measure 76
0000
0010
0000
0000
,  // measure 77
0000
0100
0000
0100
,  // measure 78
0000
0100
0000
0100
,  // measure 79
0000
0010
0010
0010
,  // measure 80
0010
0020
0000
0000
,  // measure 81
0030
0100
0000
0000
,  // measure 82
0000
0010
0000
0000
,  // measure 83
0000
1000
0000
1000
,  // measure 84
0000
1000
1000
1000
,  // measure 85
0000
0001
0000
1000
,  // measure 86
0000
0010
0000
0100
,  // measure 87
0000
0001
0001
0001
,  // measure 88
0000
2000
0000
0000
,  // measure 89
3000
0001
0000
0000
,  // measure 90
0000
1000
0000
0000
,  // measure 91
0000
0010
0000
0000
,  // measure 92
0000
0100
0000
0010
,  // measure 93
0010
1000
0000
0000
,  // measure 94
0000
0001
0000
0000
,  // measure 95
0000
0100
0000
0000
,  // measure 96
0000
0010
0000
0000
,  // measure 97
0000
1000
1000
1000
,  // measure 98
0000
0001
0001
0001
,  // measure 99
0000
1000
1000
1000
,  // measure 100
0000
0001
0001
0001
,  // measure 101
0000
0100
0100
0100
,  // measure 102
0000
0010
0010
0010
,  // measure 103
0000
0100
0100
0100
,  // measure 104
0100
0100
0100
0100
,  // measure 105
0100
2002
0000
0000
,  // measure 106
3003
0000
0000
0000
;
