#TITLE:Overdrive remix;
#SUBTITLE:;
#ARTIST:IOSYS;
#TITLETRANSLIT:;
#SUBTITLETRANSLIT:;
#ARTISTTRANSLIT:;
#CREDIT:;
#BANNER:bn.png;
#BACKGROUND:bg.png;
#LYRICSPATH:;
#CDTITLE:PandemiXium-cdtitle.png;
#MUSIC:Overdrive remix by IOSYS.mp3;
#OFFSET:-0.082;
#SAMPLESTART:52.840;
#SAMPLELENGTH:12.000;
#SELECTABLE:NO;
#BPMS:0.000=100.000,14.000=50.000,15.000=399.998,71.000=199.999,75.000=399.998,195.000=199.999,199.000=399.998,263.000=200.000,323.000=399.998,391.000=100.000,392.000=799.991,395.000=199.999,455.000=799.996,471.000=400.018,531.000=100.000,532.000=599.997,604.000=399.998;
#STOPS:326.000=0.075
,326.500=0.525
,392.000=0.150
,393.000=0.037
,393.500=0.113
,394.000=0.075
;
#BGCHANGES:0.000=OVRMIX.avi=1.000=0=0=1,
612.250=bg.png=1.000=0=0=1,
99999=-nosongbg-=1.000=0=0=0 // don't automatically add -songbackground-
;

//---------------dance-single - ----------------
#NOTES:
     dance-single:
     :
     Hard:
     10:
     0.923,1.000,0.301,0.283,0.425: // measure 1
0000
0000
0000
0000
,  // measure 2
0000
0000
0000
0000
,  // measure 3
0000
0000
0000
0000
,  // measure 4
0000
0000
0000
1000
,  // measure 5
0100
1000
0010
0100
,  // measure 6
0001
0010
0001
0100
,  // measure 7
0010
1000
0001
0010
,  // measure 8
0001
0100
0010
1000
,  // measure 9
0001
0010
0001
0100
,  // measure 10
0010
1000
0100
1000
,  // measure 11
0001
0100
0001
0100
,  // measure 12
0010
2002
3003
1000
,  // measure 13
0100
1000
0010
0100
,  // measure 14
0001
0010
0001
0100
,  // measure 15
0010
1000
0001
0010
,  // measure 16
0001
0100
0010
1000
,  // measure 17
0100
0010
0001
0010
,  // measure 18
0100
0000
1000
0000
0001
0000
0010
0001
,  // measure 19
0100
0000
0010
1000
0101
0000
1000
0000
,  // measure 20
0001
0100
0001
1000
,  // measure 21
0100
1000
0010
0100
,  // measure 22
0010
1000
0001
0010
,  // measure 23
0001
0000
0100
0000
0010
0100
0010
0000
,  // measure 24
0100
0010
1000
0001
,  // measure 25
0010
0001
0100
0010
,  // measure 26
1000
0100
1000
0010
,  // measure 27
0100
0022
0033
0001
,  // measure 28
0100
0010
0100
0001
,  // measure 29
0010
0001
1000
0100
,  // measure 30
1000
0010
0100
0010
,  // measure 31
1000
0000
0001
0000
0001
1000
0001
0000
,  // measure 32
1000
0100
1000
0010
,  // measure 33
0100
0000
0001
0000
0010
0000
0001
1000
,  // measure 34
0001
1000
0001
1000
0001
0100
0001
0100
,  // measure 35
0001
0010
0001
0000
0000
0000
0001
0000
,  // measure 36
0001
1000
1000
1000
,  // measure 37
0010
1000
0100
1000
,  // measure 38
0010
0100
0001
0010
,  // measure 39
0001
0000
0100
0000
0010
0000
0100
0010
,  // measure 40
0100
0000
0010
0100
0010
0000
1000
0001
,  // measure 41
1000
0000
0001
1000
0001
0000
0100
0001
,  // measure 42
0100
0001
0010
0001
0010
0001
0200
0000
,  // measure 43
0000
0000
0300
0000
0000
0000
0010
1000
,  // measure 44
0010
1000
0010
1000
0010
1000
0010
1000
,  // measure 45
0010
1000
0010
1000
0010
1000
0010
0000
,  // measure 46
1010
0000
1000
0001
1000
0000
0001
0100
,  // measure 47
0001
0000
0010
0001
0010
0000
0001
0000
,  // measure 48
1000
0001
0100
0010
,  // measure 49
1000
0000
0100
0000
0010
0000
0001
0001
,  // measure 50
0100
0000
0010
0000
1000
0001
0100
0000
0000
0000
0000
0000
0010
0000
0000
0000
,  // measure 51
0010
0100
0100
0010
,  // measure 52
0010
1000
1000
0001
,  // measure 53
0100
0000
0000
0000
0010
0000
1000
0010
,  // measure 54
0100
0001
0010
0001
0010
0000
0010
0001
,  // measure 55
0010
0000
0001
0000
0100
0000
0010
0100
,  // measure 56
0010
0000
0100
0000
0010
0000
1000
0010
,  // measure 57
1000
0010
1000
0001
0010
0000
0001
0000
,  // measure 58
2002
0000
3003
0000
0000
0000
1000
0001
,  // measure 59
0100
0000
0001
0000
0011
0000
0001
0100
,  // measure 60
0010
0000
0100
0000
0110
0000
0010
1000
,  // measure 61
0001
0000
1001
0000
0101
0000
0001
0100
,  // measure 62
0010
0000
0100
0000
0110
0000
0010
0100
,  // measure 63
1000
0100
0010
0001
0100
0010
1000
0100
,  // measure 64
1000
0010
0100
0001
0010
0001
1000
0000
,  // measure 65
0000
0001
0000
2001
,  // measure 66
0002
0000
3003
1001
,  // measure 67
0001
0100
0100
0001
0000
0001
0000
0001
,  // measure 68
1000
1000
0100
1000
0000
0000
1000
0000
,  // measure 69
0001
0100
0010
0010
0000
0010
0000
0100
,  // measure 70
0010
0000
1000
0000
0001
1000
0100
1000
0010
0000
0000
0000
1001
0000
0000
0000
,  // measure 71
0100
0100
0010
1000
0000
0010
0000
0010
,  // measure 72
1000
0001
0010
0010
0000
0000
0001
0000
,  // measure 73
0001
0100
0010
0010
0000
0010
0000
0010
,  // measure 74
1000
0000
0001
0000
1000
0001
0100
0010
1000
0000
0000
0000
1000
0000
0100
0000
,  // measure 75
1000
0010
0100
0001
0010
0001
0100
0010
,  // measure 76
1000
0000
0001
0000
0001
0000
0100
0000
0000
0000
0000
0100
0010
0000
0100
0000
,  // measure 77
0010
1000
0001
0010
0001
0100
0010
1000
,  // measure 78
0001
0000
1000
0000
0100
1000
0100
0010
0001
0000
0000
0000
1001
0000
0001
0000
,  // measure 79
0100
0010
1000
0100
1000
0010
0100
0001
,  // measure 80
0010
0001
0010
0100
1000
0001
0100
0010
,  // measure 81
1000
0000
0000
0100
0000
0000
1000
0000
0000
0010
0000
0000
0100
0000
0000
0001
0000
0000
0010
0000
0000
0000
0001
0000
,  // measure 82
0000
0000
0100
0000
0000
0000
0010
0000
0000
0000
2000
0000
0000
0000
0000
0001
3000
0000
1000
0000
0000
0000
0000
0000
,  // measure 83
0001
0000
0101
0000
0001
0100
0000
0100
,  // measure 84
0010
0000
0010
0100
0010
0000
0100
0010
,  // measure 85
0100
0010
0100
0001
1000
0000
1001
0000
,  // measure 86
0001
0000
0001
1000
0100
0000
1000
0000
,  // measure 87
0001
0100
0010
0000
0010
1000
0001
0010
,  // measure 88
0001
0100
0010
0000
0100
0000
0010
0100
,  // measure 89
0010
0000
0110
0000
0010
1000
0001
0010
,  // measure 90
0001
0100
0010
0000
0100
0000
0010
0000
,  // measure 91
0100
0010
1000
0000
0001
0000
1000
0000
,  // measure 92
0001
0100
0001
0000
0001
0000
1000
0001
,  // measure 93
1000
0000
1000
0001
0100
0000
0010
1000
,  // measure 94
0001
0000
0001
0010
0001
0000
0001
0010
,  // measure 95
0100
1000
0001
0010
0100
1000
0001
0010
,  // measure 96
0100
0000
0000
0000
0000
0000
0000
0000
1000
0000
0000
0000
0000
0000
0000
0000
0000
0001
0000
0000
0000
0000
0000
0000
0000
0100
0000
0000
0000
0000
0000
0000
0000
0010
0000
0000
0000
0000
0000
0000
0000
1000
0000
0000
0000
0000
0000
0000
0000
0100
0000
0000
0000
0000
0000
0000
0000
1000
0000
0000
0000
0000
0000
0000
,  // measure 97
0000
0010
0000
0000
0000
0000
0000
0000
0000
0100
0000
0000
0000
0000
0000
0000
0000
0001
0000
0000
0000
0000
0000
0000
0000
0010
0000
0000
0000
0000
0000
0000
0000
0001
0000
0000
0000
0000
0000
0000
0000
0100
0000
0000
0000
0000
0000
0000
0000
0010
0000
0000
0000
0000
0000
0000
0000
1000
0000
0000
0000
0000
0000
0000
,  // measure 98
0000
0000
0000
0001
0000
0000
0000
0000
0000
0000
0000
0000
0000
0000
0000
0000
0000
0000
0000
0000
0000
0000
0000
0000
0000
0000
0000
1000
0000
0000
0000
0000
0000
0000
0000
0000
0000
0000
0000
0000
0000
0000
0000
0000
0000
0000
0000
0000
0000
0000
0000
0001
0000
0000
0000
0000
0000
0000
0000
0000
0000
0000
0000
0000
0000
0000
0000
0000
0000
0000
0000
0000
0000
0000
0000
0000
0000
0000
0000
0000
1000
0000
0000
0000
0000
0000
0000
0000
0000
0000
0000
0000
0000
0000
0000
0000
0000
0000
0000
0000
0000
0000
0000
0000
0000
0000
0000
0000
0000
0000
0000
0000
0100
0000
0000
0000
0000
0000
0000
0000
0000
0000
0000
0000
0000
0000
0000
0000
0000
0000
0000
0000
0000
0000
0000
0000
0000
0000
0000
0000
0000
0000
0000
0000
0020
0000
0000
0000
0000
0000
0000
0000
0000
0000
0000
0000
0000
0000
0000
0000
0000
0000
0000
0000
0000
0000
0000
0000
0000
0000
0000
0000
0000
0000
0000
0000
0000
0000
0000
0000
0000
0000
0000
0000
0000
0000
0000
0000
0000
0000
0000
0000
,  // measure 99
0032
0000
2003
3002
0203
0000
0310
0000
,  // measure 100
0100
0000
0000
0010
0000
0010
1000
0000
1000
0100
0000
0010
,  // measure 101
0001
0000
0001
0100
0000
0000
0000
0000
1001
0000
0000
0001
,  // measure 102
0100
0000
0100
0010
0000
0010
1000
0000
0001
0000
0000
0001
,  // measure 103
0010
0000
0001
0100
0000
0000
0000
0000
0000
1001
0000
0001
,  // measure 104
0100
0000
0100
0010
0000
0000
0010
0000
0010
1000
0000
1000
,  // measure 105
0100
0000
0100
0010
0000
0000
0000
0000
0011
0000
0000
0001
,  // measure 106
0100
0000
0100
0010
0000
0010
1000
0000
0001
2000
0000
0000
,  // measure 107
0000
0000
0000
0000
0000
0000
3000
0000
0000
0011
0000
1000
,  // measure 108
0100
0000
0001
0100
0000
0000
1001
0000
0001
0200
0000
0310
,  // measure 109
0200
0000
0310
0200
0000
0000
0300
0000
1001
0000
0000
0001
,  // measure 110
0020
0000
0031
0200
0000
0310
2000
0000
3100
0000
0000
1000
,  // measure 111
0200
0000
0301
0200
0000
0000
0300
0000
0000
1100
0000
1000
,  // measure 112
0100
0000
0001
0100
0000
0010
0100
0000
0010
1000
0000
1000
,  // measure 113
0100
0000
0100
0010
0000
0000
0000
0000
1001
0000
0000
0001
,  // measure 114
0100
0000
0010
1000
0000
1000
0100
0000
0001
0020
0000
0000
,  // measure 115
0000
0000
0000
0000
,  // measure 116
0000
0000
0000
0000
,  // measure 117
0000
0000
0000
0000
,  // measure 118
0000
0000
0000
0031
,  // measure 119
0000
0001
0000
0100
0000
0000
0000
0010
0000
0100
0000
0000
,  // measure 120
0000
0000
0000
0110
0000
0000
0000
0010
0000
1000
0000
0000
,  // measure 121
0000
0001
0000
1000
0000
0000
0000
1000
0000
0100
0000
0000
,  // measure 122
0000
0000
1100
0000
,  // measure 123
0000
0001
0000
0100
0000
0000
0000
0100
0000
0010
0000
0000
,  // measure 124
0000
0010
0000
1000
0000
0000
0000
1100
0000
0000
0000
0000
,  // measure 125
0000
0100
0000
1000
0000
0000
0000
1000
0000
0001
0000
0000
,  // measure 126
0000
0000
0000
1001
,  // measure 127
0000
0001
0000
1000
0000
0000
0000
1000
0000
0100
0000
0000
,  // measure 128
0000
0000
0000
1100
0000
0000
0000
1000
0000
0001
0000
0000
,  // measure 129
0000
0001
0000
0010
0000
0000
0000
0001
0000
0100
0000
0000
,  // measure 130
0000
0000
0000
0000
0000
0000
0000
0110
0000
0000
0000
0000
,  // measure 131
0000
0010
0000
1000
0000
0000
0000
0010
0000
0100
0000
0000
,  // measure 132
0000
0100
0000
0001
0000
0000
0000
0001
0000
0020
0000
0000
,  // measure 133
0000
0001
0000
0031
,  // measure 134
1000
0000
1000
0100
,  // measure 135
0000
0010
0001
0000
,  // measure 136
0000
0011
0000
0100
,  // measure 137
0001
0000
0100
0010
,  // measure 138
0000
0100
0010
0000
,  // measure 139
0000
0000
0000
0110
,  // measure 140
0000
0000
0010
1000
,  // measure 141
0000
0010
1000
0000
,  // measure 142
0010
0100
0000
0110
,  // measure 143
0000
0000
0010
1000
,  // measure 144
0000
1000
0010
0000
,  // measure 145
0000
0000
0000
0000
,  // measure 146
1000
0000
2000
0001
,  // measure 147
0000
3002
0100
0000
,  // measure 148
0003
0002
0000
1003
,  // measure 149
0200
0000
0310
0200
,  // measure 150
0000
0320
0001
0000
,  // measure 151
0000
0000
0030
0000
,  // measure 152
0001
0000
0000
0000
0001
0000
0100
0000
0000
0000
0010
0000
,  // measure 153
1000
0000
0000
0000
1001
0000
0000
0000
0000
0000
1000
0000
,  // measure 154
0200
0000
0000
0000
,  // measure 155
0000
0300
0000
0000
0000
0000
0000
0000
0000
0000
0000
0000
;

//---------------dance-single - ----------------
#NOTES:
     dance-single:
     :
     Medium:
     9:
     0.662,1.000,0.421,0.120,0.133:
0000
0000
0000
0000
,
0000
0000
0000
0000
,
0000
0000
0000
0000
,
0000
0000
0000
1000
,
0100
0010
0001
0100
,
0001
0100
0010
0100
,
0010
1000
0010
0100
,
0010
1000
0001
0010
,
0001
0100
0010
1000
,
0100
1000
0010
0100
,
0001
0010
0100
1000
,
0001
0200
0300
0001
,
0001
0100
0010
0100
,
0100
0010
1000
0100
,
0100
1000
0100
0010
,
0010
0001
0100
0010
,
0010
0100
0010
1000
,
1000
0001
0100
0002
,
0000
0000
0003
0001
,
0100
0010
0010
0100
,
0010
1000
1000
0001
,
0100
0001
0010
0001
,
0100
0020
0030
0010
,
1000
0010
0100
0010
,
1000
0100
0010
0001
,
1000
0100
0010
0001
,
0001
2002
3003
0010
,
0100
0010
1000
0001
,
0010
0010
0000
0010
,
0001
0100
0010
1000
,
1000
0010
0000
1000
,
0100
0010
0001
0010
,
0100
1000
0001
0100
,
0000
0010
0000
1000
,
0000
0001
0000
1000
,
0001
0100
0001
0010
,
0000
0011
0000
1100
,
0000
0101
0000
0110
,
0000
1001
0000
0001
,
0100
1000
0100
0001
,
0010
0001
0100
0110
,
0010
0110
0010
1001
,
0000
0000
0000
0001
,
0100
0010
1000
0100
,
1000
0100
0010
0001
,
0001
1000
1000
0001
,
0100
0010
1000
1010
,
0000
0000
0000
0101
,
0000
0000
0000
1100
,
0011
0000
0001
0100
0010
0000
0100
0000
,
0010
1000
0010
0100
,
0001
0010
0001
0100
,
0010
1000
0010
0100
,
0001
1000
0000
0001
,
1000
0100
1000
0010
,
0100
0001
0010
0001
,
0100
0000
0010
0000
1000
0000
0010
1000
,
0010
1010
0000
1000
,
1000
0001
0001
0100
,
0100
0010
0010
0100
,
0010
1000
0001
0100
,
0010
1000
0001
1000
,
0100
0000
0010
0000
0001
0000
1000
0100
,
1000
0100
1000
0100
1000
0100
1000
0000
,
0000
0100
0000
0010
,
0000
0001
0000
0101
,
0100
0000
0010
0100
0000
0010
0000
0010
,
1000
0000
0001
1000
0000
0000
0001
0000
,
0100
0001
0100
0001
0000
0100
0000
0010
,
0100
0020
0030
0110
,
0010
0100
0010
0000
0000
0010
0000
0000
,
0010
1000
0000
1001
,
0001
1000
0001
0000
0000
0001
0000
0001
,
1000
0000
1000
0100
1000
0000
1100
0000
,
0100
0010
0001
0100
,
0010
0000
0010
1000
0001
0000
0010
0000
,
1000
0000
0001
0100
0010
0000
0100
0000
,
0010
0000
0100
0010
0100
0000
1001
0000
,
0010
0100
1000
0100
,
0010
0001
0010
0001
,
0100
0010
1000
2002
,
0000
0000
0000
0000
0000
3003
1000
0000
,
0000
0001
0000
0000
,
1000
0001
0000
1000
,
0000
0001
0000
0000
,
0001
1000
0000
1000
,
0000
1000
0000
0000
,
1000
0001
0000
1000
,
0000
0001
0000
0000
,
1000
0001
0000
1000
,
0000
0001
0000
1000
,
0000
0001
0000
1000
,
0001
1000
0001
0000
,
1000
0001
1000
0001
,
0010
0100
1000
0001
,
0010
0000
0000
0000
0000
0000
0000
0000
0000
0000
0000
0000
0000
0000
0000
0000
0100
0000
0000
0000
0000
0000
0000
0000
0000
0000
0000
0000
0000
0000
0000
0000
0000
1000
0000
0000
0000
0000
0000
0000
0000
0100
0000
0000
0000
0000
0000
0000
0000
1000
0000
0000
0000
0000
0000
0000
0000
0100
0000
0000
0000
0000
0000
0000
,
0000
1000
0000
0000
0000
0000
0000
0000
0000
0100
0000
0000
0000
0000
0000
0000
0000
1000
0000
0000
0000
0000
0000
0000
0000
0100
0000
0000
0000
0000
0000
0000
0000
1000
0000
0000
0000
0000
0000
0000
0000
0100
0000
0000
0000
0000
0000
0000
0000
1000
0000
0000
0000
0000
0000
0000
0000
0100
0000
0000
0000
0000
0000
0000
,
0000
1000
0000
0000
0000
0000
0000
0000
0000
0100
0000
0000
0000
0000
0000
0000
0000
1000
0000
0000
0000
0000
0000
0000
0000
0100
0000
0000
0000
0000
0000
0000
0000
1000
0000
0000
0000
0000
0000
0000
0000
0100
0000
0000
0000
0000
0000
0000
2000
0000
0000
0000
0000
0000
0000
0000
0000
0000
0000
0000
0000
0000
0000
0000
,
0200
3000
0000
0310
,
0001
1000
0100
0010
,
0100
1000
0000
0010
,
1000
0001
0010
0001
,
0100
0010
0000
1001
,
0001
0100
0010
1000
,
1000
1000
0000
1000
,
0010
0100
0001
0010
,
0000
0000
0000
0011
,
0100
0010
1000
0001
,
0100
0010
0010
0100
,
0010
1000
0001
1000
,
0100
1000
0000
1100
,
1000
0100
0010
0001
,
0001
0001
0000
0001
,
0100
0010
1000
2002
,
0000
0000
0000
0000
,
0000
0000
0000
0000
,
0000
0000
0000
0000
,
0000
0000
3003
1001
,
0000
0101
0000
0110
,
0000
1001
0000
1100
,
0000
0011
0000
0110
,
0000
0000
0000
1001
0000
0000
0000
0001
0000
1000
0000
0000
,
0000
1100
0000
0101
,
0000
1010
0000
0011
,
0000
0000
0100
0010
0000
0000
0000
0010
0000
0001
0000
0000
,
0000
0001
0000
0100
0000
0000
0000
0100
0000
0010
0000
0000
,
0000
0110
0000
1100
,
0000
0011
0000
0101
,
0000
1010
0000
0101
,
0000
0110
0000
1001
,
0000
0001
0000
0100
0000
0000
0000
0010
0000
1000
0000
0000
,
0000
1000
0000
0100
0000
0000
0000
0010
0000
0001
0000
0000
,
0000
0101
0000
1001
,
1000
0000
0000
0001
,
0000
0000
0100
0000
,
0000
0010
0000
0010
,
0100
0000
0010
1000
,
0000
0001
0100
0000
,
0000
0000
0000
0001
,
0000
0000
0001
1000
,
0000
1000
0100
0000
,
0010
0001
0000
0010
,
0000
0000
0001
0100
,
0000
0100
0010
0000
,
0000
0000
0000
0000
,
0110
0000
0010
1000
,
0000
1000
0100
0000
,
0000
1100
0000
1000
,
0100
0000
0010
0001
,
0000
0001
0100
0000
,
0000
0000
0000
1001
,
0000
0000
0000
0000
0001
0000
0100
0000
0000
0000
0010
0000
,
0100
0000
0000
0000
0010
0000
0000
0000
0000
0000
2000
0000
,
0002
0000
0000
0000
,
3003
0000
0000
0000
;

//---------------dance-single - ----------------
#NOTES:
     dance-single:
     :
     Easy:
     7:
     0.526,0.857,0.309,0.146,0.000:
0000
0000
0000
0000
,
0000
0000
0000
0000
,
0000
0000
0000
0000
,
0000
0000
0000
0010
,
0100
0010
0000
0010
,
1000
0010
0000
0001
,
0100
0001
0000
0010
,
0001
0010
0000
0100
,
1000
0100
0000
0010
,
0100
0010
0000
0010
,
1000
0010
0000
0001
,
0000
1001
0000
0001
,
0100
0001
0000
0010
,
1000
0010
0000
1000
,
0100
1000
0000
0010
,
0001
0010
0000
0001
,
0100
0001
0000
0010
,
1000
0010
0000
2002
,
0000
0000
3003
0001
,
1000
0001
0000
0001
,
0100
0001
0000
0010
,
1000
0010
0000
1000
,
0100
1000
0000
0010
,
0100
0010
0000
0001
,
1000
0001
0000
0001
,
0100
0001
0000
0001
,
0100
0010
0000
0010
,
1000
0001
0000
0001
,
0010
0001
0000
0001
,
0100
0010
0000
0010
,
1000
0100
0000
0100
,
1000
0010
0000
0010
,
0100
0001
0000
2002
,
0000
0000
0000
0000
,
0000
3003
0000
1001
,
0000
1001
0000
0001
,
0000
0100
0000
0010
,
0000
0010
0000
0010
,
0000
0010
0000
0010
,
1000
0010
0000
0001
,
0100
0001
0000
0001
,
0100
0010
1000
0100
,
0000
0000
0000
1000
,
0100
1000
0000
0010
,
0001
0010
0000
0101
,
0000
1100
0000
0101
,
0000
1100
0000
0001
,
0100
0010
0000
0010
,
1000
0001
0000
1000
,
0001
0000
0001
0100
0001
0000
0001
0000
,
1000
0010
0000
0010
,
1000
0010
0000
0010
,
1000
0010
0100
0001
,
0010
0001
0000
0010
,
0001
0010
0000
0001
,
0100
0001
0000
0100
,
0001
0100
0010
1000
,
2000
0000
0000
3010
,
0100
0010
0000
0010
,
1000
1001
0000
0001
,
0100
0010
0000
1000
,
0100
1100
0000
1000
,
0000
0100
0000
0010
,
0000
0001
0000
1000
,
0100
0010
0001
0010
,
0010
0000
0000
0011
,
0000
0010
0000
0010
,
0001
0100
0000
0010
,
0000
0010
0000
0010
,
1000
0100
0000
1100
,
0000
1000
0000
0010
,
0100
0001
0000
1000
,
0000
1000
0000
0010
,
1000
0100
0000
1100
,
0100
0010
0000
0010
,
0001
0100
0000
0010
,
1000
0001
0001
1000
,
0001
0000
0001
0100
0010
0000
0110
0000
,
0010
1000
0001
0010
0000
0010
0000
0010
,
0001
0010
0100
1000
0000
0000
1100
0000
,
0010
0011
0001
0220
,
0000
0000
0330
0001
,
0000
1000
0000
0000
,
0001
1000
0000
1000
,
0000
0001
0000
0000
,
1000
0001
0000
1000
,
0000
0001
0000
0000
,
1000
0001
0000
1000
,
0000
0001
0000
1000
,
0001
1000
0000
0001
,
0000
1000
0000
0001
,
0000
1000
0000
0001
,
1000
0001
1000
0001
,
1000
0001
1000
0001
,
0010
0100
1000
0001
,
0010
0100
1000
0001
,
0010
0100
1000
0001
,
0010
0100
1000
0001
,
1000
0000
0000
0010
,
0100
0010
1000
0101
,
1010
0101
0000
1000
,
0001
0100
0010
0010
,
0100
0010
0000
1001
,
0001
0001
1000
0010
,
0100
0001
0000
0001
,
0100
0010
1000
0010
,
0000
0000
0000
1001
,
1000
0100
0010
0001
,
0001
0001
0000
0010
,
0001
0100
0010
1000
,
0010
0100
0000
0110
,
0010
1000
0001
0010
,
0001
0010
0000
0001
,
0100
0010
1000
0002
,
0000
0000
0000
0000
,
0000
0000
0000
0000
,
0000
0000
0000
0000
,
0000
0000
0000
1003
,
0000
0001
0000
0100
,
0000
0001
0000
0011
,
0000
0011
0000
0011
,
0000
0000
0000
0001
,
0000
0100
0000
0010
,
0000
1000
0000
1000
,
0000
0010
0000
1010
,
0000
0000
0000
1000
,
0000
1000
0000
0001
,
0000
0100
0000
0110
,
0000
0110
0000
0110
,
0000
0000
0000
0010
,
0000
1000
0000
0001
,
0000
0100
0000
0101
,
0000
1100
0000
1001
,
0010
0000
0000
0010
,
0000
0000
0010
0000
,
0000
1000
0000
0000
,
0001
0000
0000
0100
,
0000
0000
0010
0000
,
0000
0000
0000
0000
,
1000
0000
0000
0100
,
0000
0000
0010
0000
,
0000
0001
0000
0000
,
0010
0000
0000
0100
,
0000
0000
1000
0000
,
0000
0000
0000
0000
,
0002
0000
0000
0200
,
0000
0003
0020
0000
,
0300
2030
0000
0000
,
0200
0000
3000
0020
,
0000
0300
0002
0000
,
0000
0000
0000
0033
,
1001
0000
0001
0000
,
0100
0000
0010
0000
,
2002
0000
3003
0000
;

//---------------dance-single - ----------------
#NOTES:
     dance-single:
     :
     Beginner:
     4:
     0.234,0.591,0.163,0.052,0.000:
0000
0000
0000
0000
,
0000
0000
0000
0000
,
0000
0000
0000
0000
,
0000
0000
0000
0010
,
0000
0000
0000
0000
,
0000
0000
0000
0010
,
0000
0000
0000
0000
,
0000
0000
0000
0010
,
0000
0000
0000
0000
,
0000
0000
0000
1000
,
0000
0000
0000
0001
,
0000
1001
0000
1000
,
0000
0000
0000
0000
,
0000
0000
0000
0010
,
0000
0000
0000
0000
,
0000
0000
0000
0100
,
0000
0000
0000
0000
,
0000
0000
0000
0010
,
0000
0010
0000
0110
,
0000
0000
0000
0000
,
0000
0000
0000
1001
,
0000
0000
0000
0000
,
0000
0000
0000
0110
,
0000
0000
0000
0000
,
0000
0000
0000
0110
,
0000
0000
0000
0010
,
0000
0010
0000
0110
,
0000
0000
0000
0000
,
0000
0000
0000
1001
,
0000
0000
0000
0000
,
0000
0000
0000
1001
,
0000
0000
0000
0010
,
0000
0000
0000
2002
,
0000
0000
0000
0000
,
0000
3003
0000
0001
,
0000
0001
0000
0001
,
0000
0001
0000
0001
,
0000
0001
0000
0001
,
0000
0001
0000
1000
,
0000
0000
1000
0000
,
0000
0000
0000
1000
,
0000
1000
0000
1000
,
0000
0000
0000
0010
,
0000
0000
0000
0010
,
0000
0000
0000
0010
,
0000
0010
0000
0010
,
0000
0000
0000
0100
,
0000
0000
0000
0100
,
0000
0000
0000
0100
,
0100
0100
0000
0010
,
0000
0000
0000
0010
,
0000
0000
0000
0010
,
0000
0000
0000
1000
,
0000
1000
0000
0001
,
0000
0000
0000
1000
,
0000
0000
0000
0100
,
0000
0100
0000
0110
,
0000
0000
0000
0010
,
0000
0000
0000
0010
,
0000
0000
0000
0100
,
0000
0000
0000
0100
,
0000
0000
0000
0100
,
0000
1000
0000
0010
,
0000
0100
0000
0001
,
0000
0001
0000
1000
,
0001
0000
0000
2002
,
0000
0000
0000
0000
,
0000
3003
0000
0001
,
0000
0000
0000
0000
,
0000
0000
0000
1001
,
0000
0000
0000
0000
,
0000
0000
0000
0010
,
0000
0000
0000
0000
,
0000
0000
0000
0110
,
0000
0000
0000
0000
,
0000
0000
0000
0100
,
0000
0000
0000
0000
,
0000
0000
0000
0110
,
0000
0000
0000
0010
,
0000
0000
0000
0100
,
0100
0100
0100
0100
,
0000
0000
0000
0010
,
0000
0010
0000
0000
,
0000
0000
0000
0100
,
0000
0100
0000
0000
,
0000
0000
0000
0010
,
0000
0010
0000
0000
,
0000
0000
0000
0100
,
0000
0100
0000
0000
,
0000
0000
0000
0001
,
0000
0000
0000
1000
,
0000
0000
0000
0001
,
0000
1000
0000
0001
,
0000
1000
0000
0001
,
1000
0001
1000
0001
,
1000
0001
1000
0001
,
1000
0001
1000
0000
,
0001
1000
0001
1000
,
0000
0000
0000
1001
,
0000
0000
0000
0010
,
0000
0000
0000
0010
,
0000
0100
0000
0010
,
0010
0010
0000
0110
,
0000
0000
0000
0100
,
0000
0000
0000
0010
,
0000
0010
0000
0010
,
0000
0000
0000
1001
,
0000
0000
0000
0010
,
0000
0000
0000
0100
,
0000
0100
0000
0100
,
0000
0000
0000
0110
,
0000
0000
0000
0010
,
0000
0000
0000
0100
,
0000
0100
0000
0100
,
0000
0000
0000
0000
,
0000
0000
0000
0000
,
0000
0000
0000
0000
,
0000
0000
0000
0010
,
0000
0010
0000
0010
,
0000
0010
0000
0010
,
0000
0010
0000
0010
,
0000
0000
0000
0000
,
0100
0000
0100
0000
,
0100
0000
0100
0000
,
0100
0000
0100
0000
,
0100
0000
0000
0010
,
0000
0010
0000
0010
,
0000
0000
0000
0010
,
0000
0010
0000
0010
,
0000
0000
0000
0010
,
0000
1000
0000
0001
,
0000
1000
0000
0001
,
0000
0000
0000
0000
,
1000
0000
0000
0000
,
0000
0000
0000
0000
,
0000
0000
0000
0000
,
0001
0000
0000
0000
,
0000
0000
0000
0000
,
0000
0000
0000
0000
,
0100
0000
0000
0000
,
0000
0000
0000
0010
,
0000
0000
0000
0000
,
0100
0000
0000
0000
,
0000
0000
0010
0000
,
0000
0000
0000
0000
,
0100
0000
0000
0000
,
0000
0000
0000
0000
,
0000
0000
0000
0000
,
0010
0000
0000
0000
,
0000
0000
0000
0000
,
0000
0000
0000
0000
,
2002
0000
0000
0000
,
0000
0000
0000
0000
,
3003
0000
0000
0000
;
