#TITLE:Omen;
#SUBTITLE:;
#ARTIST:The Prodigy;
#TITLETRANSLIT:;
#SUBTITLETRANSLIT:;
#ARTISTTRANSLIT:;
#CREDIT:;
#BANNER:bn.PNG;
#BACKGROUND:bg.PNG;
#LYRICSPATH:;
#CDTITLE:PandemiXium-cdtitle.png;
#MUSIC:02 - Omen.mp3;
#OFFSET:-0.272;
#SAMPLESTART:72.240;
#SAMPLELENGTH:12.000;
#SELECTABLE:YES;
#BPMS:0.000=139.980;
#STOPS:;
#BGCHANGES:;

//---------------dance-single - ----------------
#NOTES:
     dance-single:
     :
     Hard:
     8:
     0.457,0.546,0.309,0.206,0.103:
0000
0000
0000
0000
,
0000
0000
0000
0000
,
0001
0000
1000
0001
,
0002
0003
0100
0100
,
0020
0030
1000
0001
,
0002
0000
0003
0000
0001
0010
0100
0000
,
1010
0000
0000
0100
1000
0001
1000
0010
,
0100
0000
0000
0010
1000
0100
1000
0001
,
0200
0000
0300
0001
1000
0010
0100
0001
,
0200
0000
0300
0010
0202
0000
0303
0000
,
1010
0000
0000
0001
0010
0001
0010
0010
,
0002
0000
0003
0001
1000
0010
0100
0010
,
0200
0000
0300
0010
0100
0010
1000
0010
,
0200
0000
0300
0100
0001
0010
0110
0000
,
1000
0000
0100
0000
0000
0000
0010
0000
0000
0000
0001
0000
0000
0001
0000
0000
,
0100
0000
0000
0001
0000
0000
0100
0000
0000
0010
0000
0000
1000
0000
0000
0000
,
1001
0000
0000
0100
1000
0010
1000
0100
,
0020
0000
0000
0000
0030
0000
0001
0000
1000
0010
0100
0001
0200
0000
0000
0000
,
0301
0000
1000
0000
0000
0000
0001
0000
0000
0000
0100
0000
0000
0001
0000
0000
,
0100
0000
0000
0001
0000
0000
0010
0000
0000
0100
0000
0000
1000
0000
0000
0000
,
0110
0000
0000
0001
0010
0100
1000
0001
,
0101
0000
0000
0110
0000
0000
0110
0000
0000
0101
0000
0000
0100
0000
0010
0000
,
1000
1000
0001
0001
,
0100
0100
0010
0010
,
1000
1000
0001
0001
,
0100
0100
0010
0010
,
0110
0000
0000
0000
0000
0000
0000
1000
,
0100
0000
0010
0000
0001
0000
0100
0001
,
0200
0000
0000
0300
0000
0000
0000
0000
,
0010
0100
0000
0010
0000
1000
0001
0000
,
1001
0000
0000
0000
,
1000
0100
0000
1000
0000
1001
0000
0000
,
0010
0100
0000
0010
0000
1000
0000
0000
,
0001
0001
0000
0001
0000
1000
0000
0000
,
1000
0000
1100
0000
0010
0100
0010
0000
,
0100
0000
0110
0000
0001
1000
0010
0000
,
1020
2030
3020
0230
,
0310
0100
0000
0010
0000
0100
0010
0000
,
0110
0001
1000
1100
,
0010
1000
0000
0010
0000
0100
0010
0000
,
0110
0000
1001
0000
1000
0100
0001
0000
,
0011
0000
1010
0000
0001
1000
0010
0100
,
0101
0000
0000
0010
0100
0001
1000
0010
,
1010
0000
0000
0100
0010
1000
0001
0100
,
0011
0000
0000
0100
0010
1000
0001
1000
,
0002
0000
0000
1003
0020
0000
0030
0000
,
0120
0000
0000
0130
0010
1000
0001
1000
,
0200
0000
0000
1300
0100
0010
0001
0010
,
0200
0000
0000
0310
0001
1000
0100
0010
,
0001
0000
0000
0001
1000
0010
0100
0000
,
0101
0000
1100
0000
0010
0010
0110
0000
,
1001
0000
1100
0000
0010
0010
0010
0000
,
0001
0000
0000
0100
0000
0000
0010
0000
0000
1000
0000
0000
0010
0000
0100
0000
,
0110
0000
0000
0010
0000
0000
0010
0000
2000
0000
0000
0000
0000
0000
0000
0000
,
3001
0000
0110
0000
0010
1000
0010
0000
,
0100
0000
0000
0000
0001
0000
0000
0001
1000
0000
0001
0000
1000
0000
0000
0000
,
1000
0000
0000
0100
0000
0000
0010
0000
0000
0001
0000
0000
0010
0000
0100
0000
,
1001
0000
0000
1100
0000
0000
0011
0000
0001
0010
0001
0010
0001
0000
0010
0000
,
0001
0000
0000
0000
0100
0000
0000
0000
0010
0000
0000
0000
1000
0000
0000
0010
,
0100
0000
0010
0000
1000
0000
0010
0010
,
1000
0010
0100
0010
,
1000
0000
0000
0000
0001
0000
0000
0000
1000
0000
0000
1000
0000
0000
1000
0001
,
0100
0000
0000
0000
0100
0000
0000
0000
0100
0000
0000
0000
0100
0000
0000
0100
,
0100
0000
0100
0000
0100
0000
0100
0100
,
0100
0100
0100
0100
,
0100
0000
0000
0000
0100
0000
0000
0000
0100
0000
0000
0010
0000
0000
1000
0000
,
0002
0000
0000
0000
,
0003
0000
0000
0000
;

//---------------dance-double - ----------------
#NOTES:
     dance-double:
     :
     Challenge:
     8:
     0.480,0.574,0.274,0.189,0.064:
00000000
00000000
00000000
00000000
,
00000000
00000000
00000000
00000000
,
01010000
00000000
00000000
00100000
00001000
00010000
00000100
00001000
,
00000010
00000000
00000000
00000010
00001000
00000001
00000010
00000100
,
00001000
00000000
00000000
00000100
00010000
00001000
01000000
00100000
,
10000000
00000000
00000000
10000000
01000000
01000000
22000000
33000000
,
10010000
00000000
00000000
00010000
00100000
00001000
00010000
00000010
,
00000100
00000000
00000000
00000010
00000100
00000010
00001000
00000100
,
00010000
00000000
00001000
01000000
00010000
01000000
00100000
00010000
,
00100000
00000000
01000000
00010000
00200000
00000000
00300000
00000000
,
00110000
00000000
00010000
00100000
00001000
00010000
00000010
00000100
,
00000020
00000000
00000030
00000100
00000010
00001000
00000100
00010000
,
00002000
00000000
00003000
00010000
00001000
00100000
00010000
01000000
,
00200000
00000000
00300000
01000000
10010000
00000000
11000000
00000000
,
10000000
01000000
10000000
00000000
00010000
01000000
00010000
00000000
,
00110000
01010000
10010000
00110000
,
00120000
00000000
00030000
00100000
00001000
00010000
00000010
00000100
,
00000002
00000000
00000003
00001000
00000100
00000100
00010000
00001000
,
00200000
00000000
00310000
00000000
00010000
10000000
00010000
10000000
,
00020000
00000000
00130000
00000000
00010000
01000000
00010000
01000000
,
00020000
00000000
00130000
00000000
00100000
00001000
00010000
00000100
,
00001000
00000000
00000000
00001000
00000000
00000000
00000010
00000000
00000000
00000100
00000000
00000000
00000001
00000000
00001000
00000000
,
00000100
00000100
00001000
00001000
,
00000100
00000100
00010000
00010000
,
00001000
00001000
00100000
00100000
,
00010000
00010000
01000000
01000000
,
01100000
00100000
10000000
00010000
,
00100000
00001000
00010000
00000010
,
00000200
00000310
00000200
00000310
,
00000200
00000310
00000200
00000310
,
00000010
00001000
00000100
00010000
,
00001000
00100000
00010000
01000000
,
00100000
10000000
01000000
00100000
,
00001000
00010000
00000100
00001000
,
00000010
00000000
00000100
00000000
00000000
00000010
00001000
00000000
,
00000100
00001000
00000100
00000000
00000000
00000100
00010000
00001000
,
00100000
00010000
01000000
00000000
00000000
00100000
01000000
00000000
,
00100000
20000000
00000000
30010000
00000000
00100000
00010000
00000000
,
00110000
00102000
00010000
00013000
,
00010000
00000100
00001000
00000010
00000100
00000001
00000011
00000000
,
00001001
00000000
00000101
00000000
00000001
00001000
00000001
00000010
,
00000011
00000000
00001100
00000000
00001000
00000010
00000100
00000010
,
00001000
00000000
00000000
00000100
00010000
00001000
00100000
00010000
,
01000000
00000000
00000000
00100000
01000000
00010000
00100000
00001000
,
00010000
00000000
00000000
00001000
01000000
00100000
10000000
00010000
,
00100000
00000000
00000000
00100000
00002000
00000000
00010000
00000000
,
00013000
00000000
00000000
00010000
00000100
00001000
00000010
00000100
,
00000001
00000000
00000000
00000001
00001000
00000100
00010000
00001000
,
01000000
00000000
00000000
00100000
01000000
01000000
00100000
10000000
,
00010000
00000000
00000000
10000000
00020000
00000000
00230000
00000000
,
00301000
00000000
00011000
00000000
00000100
00100000
00001000
00000000
,
00110000
00000000
00110000
00000000
00100000
00001000
00010000
00000000
,
00001000
00000000
00000000
00100000
00000000
00000000
00010000
00000000
00000000
01000000
00000000
00000000
00100000
00000000
10000000
00000000
,
10010000
00000000
00000000
00110000
00000000
00000000
00101000
00000000
00010000
00000100
00001000
00000100
00002000
00000000
00000010
00000000
,
00003010
00000000
00000101
00000000
00000001
00001000
00000010
00000000
,
00001010
00000000
00001100
00000000
00000100
00010000
00011000
00000000
,
00010000
00000000
00000000
01000000
00000000
00000000
00100000
00000000
00000000
10000000
00000000
00000000
00010000
00000000
10000000
00000000
,
11000000
00000000
00000000
01100000
00000000
00000000
00110000
00000000
00100000
00001000
00010000
00000100
00001000
00000000
00000010
00000000
,
00000100
00000100
00000100
00000100
,
00000100
00000000
00000100
00000000
00000100
00000000
00000100
00000010
,
00001000
00001000
00001000
00001000
,
00001000
00000000
00000000
00000000
00000001
00000000
00000000
00000000
00000001
00000000
00000000
00001000
00000000
00000000
00000100
00000000
,
00010000
00000000
00000000
00000000
00010000
00000000
00000000
00000000
00010000
00000000
00000000
00000000
00010000
00000000
00000000
00001000
,
00010000
00000000
00010000
00000000
00010000
00000000
00010000
00001000
,
00010000
00010000
00010000
00010000
,
00010000
00000000
00000000
00000000
00001000
00000000
00000000
00000000
00100000
00000000
00000000
00010000
00000000
00000000
01000000
00000000
,
00200000
00000000
00000000
00000000
,
00300000
00000000
00000000
00000000
;

//---------------dance-single - ----------------
#NOTES:
     dance-single:
     :
     Medium:
     5:
     0.332,0.431,0.206,0.060,0.000:
0000
0000
0000
0000
,
0000
0000
0000
0000
,
1000
0000
0001
0100
,
0001
0000
0001
0100
,
0010
0000
0010
0100
,
0010
0000
2002
3003
,
1001
0000
0000
0000
0001
0000
1000
0100
,
1000
0000
0000
0000
1000
0000
1000
0100
,
0010
0000
0000
0000
0010
0000
0100
0010
,
1000
0000
0000
0001
2000
0000
3000
0000
,
1001
0000
0000
0000
0001
0000
0001
0100
,
0010
0000
0000
0000
0010
0000
0010
0100
,
0001
0000
0000
0001
1000
0100
1000
0010
,
1000
0000
0000
0010
2000
0000
3000
0000
,
1000
0000
0000
0001
0000
1000
0000
0001
,
0000
1000
0000
0001
0000
0100
0000
0001
,
0100
0000
0001
0100
,
0110
0000
0000
0010
2000
0000
3000
0000
,
0001
1000
0001
0100
,
0001
0000
0010
0000
0001
0100
0010
1000
,
0100
1000
0010
0100
,
1001
0000
0000
0110
0000
0000
1010
0000
,
0001
0000
1000
0000
,
0001
0000
1000
0000
,
0010
0000
0100
0000
,
0010
0000
0100
0000
,
0110
0000
0000
0000
,
0010
1000
0001
0010
,
0001
0000
0000
0000
,
1000
0000
0001
0000
,
0100
0000
0000
0000
,
0001
0100
0010
0000
,
0010
0100
0010
1000
,
0001
0100
1000
0100
,
0001
0000
0100
0000
0000
0001
0100
0000
,
0001
0000
0010
0000
0000
0010
0001
0000
,
0001
0000
0100
0000
0000
0100
0010
0000
,
0010
0100
0010
0000
0000
0010
1000
0000
,
0010
0000
1000
0000
0000
1000
0100
0000
,
1000
0010
0100
1001
,
0001
0000
0100
0000
0001
0100
0010
0000
,
0100
0000
0110
0000
0010
1000
0100
0000
,
1100
0000
0000
0000
1000
0000
0100
0001
,
0010
0000
0000
0000
0011
0000
0001
0100
,
0010
0000
0000
0000
0010
0000
0100
0010
,
1000
0000
0000
1000
0002
0000
0003
0000
,
1001
0000
0000
0001
0100
0000
0010
0000
,
0110
0000
0000
0010
1000
0000
0100
0000
,
1100
0000
0000
1000
0100
0000
1000
0000
,
1100
0000
0000
1000
0100
0010
0001
0000
,
0011
0000
1100
0000
0001
0001
0001
0000
,
0101
0000
1010
0000
0010
0010
0010
0000
,
1000
0001
0100
0001
,
0010
0000
0001
0000
0100
0100
0100
0000
,
0110
0000
1010
0000
0010
1000
0100
0000
,
1100
0000
0011
0000
0010
0001
0100
0000
,
0001
0100
0010
1000
,
0001
0000
1000
0000
0001
0010
1000
0000
,
0100
0100
0100
0100
,
0100
0100
0100
0100
,
0100
0100
0100
0100
,
0100
0100
0100
0100
,
0010
0010
0010
0010
,
0010
0010
0010
0010
,
0010
0010
0010
0010
,
0010
0010
0010
0010
,
0020
0000
0000
0000
,
0030
0000
0000
0000
;

//---------------dance-single - ----------------
#NOTES:
     dance-single:
     :
     Easy:
     3:
     0.241,0.373,0.223,0.094,0.000:
0000
0000
0000
0000
,
0000
0000
0000
0000
,
0010
0000
0010
0010
,
1000
0000
0010
0010
,
0100
0000
0100
0100
,
0001
0000
2200
3300
,
1010
0000
1000
0010
,
0100
0000
0010
1000
,
0001
0000
1000
1000
,
0100
0000
2020
3030
,
0010
0000
0100
0001
,
0010
0000
0100
0001
,
0010
0000
0100
1000
,
0010
0000
1000
0001
,
0101
0000
0010
0000
,
0100
0010
1000
0001
,
0001
0000
0100
0000
,
0010
0000
2200
3300
,
1100
0000
0011
0000
,
0001
1000
0100
0100
,
1000
0000
0010
0000
,
0202
0000
0000
0303
,
0001
0000
0001
0000
,
0001
0000
0001
0000
,
1000
0000
1000
0000
,
1000
0000
1000
0000
,
0110
0000
0000
0000
,
0010
1000
0100
1000
,
0010
0000
0000
0000
,
0001
0000
0000
0000
,
1001
0000
0000
0000
,
0010
0000
0000
0000
,
0100
0000
0000
0000
,
0001
0000
0000
0000
,
1000
0000
0010
0000
,
0100
0100
0100
0000
,
0010
0000
1000
0000
,
0001
0001
0001
0000
,
1000
0000
0010
0000
,
0100
0000
0010
1001
,
0100
0000
0010
0000
,
1000
0001
0010
0100
,
0011
0000
0001
0100
,
1010
0000
1000
0100
,
0011
0000
0001
1000
,
1010
0000
0202
0303
,
1001
0000
0010
1000
,
1100
0000
1000
0010
,
0101
0000
0001
1000
,
0110
0000
0010
1000
,
1100
0011
0001
0100
,
1010
0101
0010
1000
,
0001
0000
1000
0000
,
0010
0000
0100
0000
0010
0100
0010
0000
,
1010
0000
0100
0001
,
0011
0000
0100
1000
,
0010
0000
0100
0000
,
0001
1000
0010
0100
,
0001
0000
0001
0000
,
0001
0000
0001
0000
,
0001
0000
0001
0000
,
0001
0000
0001
0000
,
1000
0000
1000
0000
,
1000
0000
1000
0000
,
1000
0000
1000
0000
,
1000
0000
1000
0000
,
0020
0000
0000
0000
,
0030
0000
0000
0000
;

//---------------dance-single - ----------------
#NOTES:
     dance-single:
     :
     Beginner:
     1:
     0.099,0.316,0.086,0.043,0.000: // measure 1
0000
0000
0000
0000
,  // measure 2
0000
0000
0000
0000
,  // measure 3
0000
0000
0000
0000
,  // measure 4
0000
0000
0000
0000
,  // measure 5
0000
0000
0000
0000
,  // measure 6
0000
0000
0000
0000
,  // measure 7
0001
0000
0000
0000
,  // measure 8
1000
0000
0000
0000
,  // measure 9
0010
0000
0000
0000
,  // measure 10
0100
0000
0010
0010
,  // measure 11
0010
0000
0000
0000
,  // measure 12
0100
0000
0000
0000
,  // measure 13
0001
0000
0000
0000
,  // measure 14
1000
0000
1000
0000
,  // measure 15
1000
0000
0000
0000
,  // measure 16
0001
0000
0000
0000
,  // measure 17
0100
0000
0000
0000
,  // measure 18
0010
0000
0100
0000
,  // measure 19
0010
0000
0000
0000
,  // measure 20
1000
0000
0000
0000
,  // measure 21
0100
0000
0000
0000
,  // measure 22
2002
0000
0000
3003
,  // measure 23
0000
0000
0000
0000
,  // measure 24
0000
0000
0000
0000
,  // measure 25
0000
0000
0000
0000
,  // measure 26
0000
0000
0000
0000
,  // measure 27
0110
0000
0000
0000
,  // measure 28
0010
0000
0000
0000
,  // measure 29
1000
0000
0000
0000
,  // measure 30
0001
0000
0000
0000
,  // measure 31
0100
0000
0000
0000
,  // measure 32
0010
0000
0000
0000
,  // measure 33
1000
0000
0000
0000
,  // measure 34
0100
0000
0000
0000
,  // measure 35
1000
0000
0000
0000
,  // measure 36
0001
0000
0000
0000
,  // measure 37
1000
0000
0000
0000
,  // measure 38
0010
0000
0010
0000
,  // measure 39
0010
0000
0000
0000
,  // measure 40
0100
0000
0000
0010
,  // measure 41
0010
0000
0000
0000
,  // measure 42
1000
0000
0000
0000
,  // measure 43
1001
0000
0000
0000
,  // measure 44
0001
0000
0000
0000
,  // measure 45
0010
0000
0000
0000
,  // measure 46
0100
0000
0010
0010
,  // measure 47
0010
0000
0000
0000
,  // measure 48
0100
0000
0000
0000
,  // measure 49
0010
0000
0000
0000
,  // measure 50
0001
0000
1000
1000
,  // measure 51
1001
0000
0000
0000
,  // measure 52
0010
0000
0000
0000
,  // measure 53
1000
0000
1000
0000
,  // measure 54
0001
0000
0100
0100
,  // measure 55
0110
0000
0000
0000
,  // measure 56
0110
0000
0000
0000
,  // measure 57
1001
0000
0010
0000
,  // measure 58
1001
1001
2002
0000
,  // measure 59
3003
0000
0000
0000
,  // measure 60
0000
0000
0000
0000
,  // measure 61
0000
0000
0000
0000
,  // measure 62
0000
0000
0000
0000
,  // measure 63
0010
0000
0000
0000
,  // measure 64
0000
0000
0000
0000
,  // measure 65
0000
0000
0000
0000
,  // measure 66
0000
0000
0000
0000
,  // measure 67
0200
0000
0000
0000
,  // measure 68
0300
0000
0000
0000
;
