#TITLE:Oceanic;
#SUBTITLE:;
#ARTIST:Tranquilly Base;
#TITLETRANSLIT:;
#SUBTITLETRANSLIT:;
#ARTISTTRANSLIT:;
#CREDIT:;
#BANNER:bn.png;
#BACKGROUND:bg.png;
#LYRICSPATH:;
#CDTITLE:PandemiXium-cdtitle.png;
#MUSIC:Oceanic.mp3;
#OFFSET:-0.040;
#SAMPLESTART:27.840;
#SAMPLELENGTH:12.000;
#SELECTABLE:YES;
#BPMS:0.000=138.000;
#STOPS:;
#BGCHANGES:;

//---------------dance-single - ----------------
#NOTES:
     dance-single:
     :
     Hard:
     9:
     0.449,0.583,0.143,0.093,0.606:
0000
0000
0000
0000
,
0000
0000
0000
0000
,
0000
0000
0000
0000
,
0000
0000
0000
0000
,
0000
0000
0000
0000
,
0000
0000
0000
0000
,
0000
0000
0000
0000
,
0000
0000
0000
0000
,
1001
0001
0000
0100
0000
0001
0000
0010
,
0000
0100
0000
0010
0000
0001
0000
1000
,
0000
0100
0000
1000
0000
0010
0000
0100
,
0000
0010
0000
1000
0000
0001
0000
0010
,
0001
0100
0000
0010
1000
0001
0000
0010
,
0001
0100
0000
0010
1000
0010
0000
0100
,
0010
1000
0000
0001
0010
0001
0000
1000
,
0100
1000
0100
0001
0100
0010
0000
0100
0000
1000
0001
1000
0000
0001
1000
0000
,
0101
0100
0010
1000
,
0001
0000
0000
0000
0010
0000
0001
0000
0100
0000
0110
0000
0000
1010
0000
0000
,
1100
0000
1000
0000
0001
0010
0001
0000
,
0100
0000
0010
0000
1000
0000
0001
0000
0010
0000
0011
0000
0000
1100
0000
0000
,
1001
0010
0100
0010
,
0001
0000
0000
0000
0010
0000
0000
0000
0001
0000
0011
0000
0000
1010
0000
0000
,
1001
0000
0100
0000
0010
1000
0001
0010
,
0100
1000
0101
0010
,
1001
0000
1000
0001
0010
0000
0001
1000
,
0010
0000
0000
0000
1000
0000
0100
0000
0010
0000
0002
0000
0000
0203
0000
0000
,
0320
0000
0130
0000
0010
1000
0001
0000
,
0001
0000
0010
0000
1000
0000
0010
0000
0001
0000
2000
0000
0000
3200
0000
0000
,
0320
0000
0031
0000
0001
0100
0010
0000
,
0010
0000
1000
0000
0001
0000
0010
0000
0100
0000
2000
0000
0000
3020
0000
0000
,
0230
0300
0000
0000
,
0000
0000
1010
0000
,
0001
0000
0000
1000
0000
1000
0000
0000
0001
0000
0000
0100
0000
0100
0000
0000
,
0010
0000
0000
0100
0000
0100
0000
0000
0010
0000
0000
1000
0000
1000
0000
0000
,
0001
0000
0000
0100
0000
0100
0000
0000
0010
0000
0000
1000
0000
1000
0000
0000
,
0100
0000
0000
1000
0000
1000
0000
0000
0100
0000
0000
1000
0000
1000
0000
0000
,
0010
0000
0000
0100
0000
0100
0000
0000
0010
0000
0000
1000
0000
1000
0000
0000
,
0001
0000
0000
0100
0000
0100
0000
0000
0010
0000
0000
0100
0000
0100
0000
0000
,
0010
0000
0000
1000
0000
1000
0000
0000
0100
0000
0000
0010
0000
0010
0000
0000
,
0010
0000
0000
0001
0000
0001
0000
0000
1000
0000
0000
0000
0000
0000
0000
0000
,
1001
0000
0000
0010
0000
0100
0000
0000
0010
0000
0000
1000
0000
0100
0000
0000
,
1000
0000
0000
0100
0000
0010
0000
0000
0001
0000
0000
0010
0000
0001
0000
0000
,
0100
0000
0000
0001
0000
0100
0000
0000
0010
0000
0000
0100
0000
0010
0000
0000
,
1000
0000
0000
0100
0000
1000
0000
0000
1000
0000
0000
0001
0000
0100
0000
0000
,
0001
0000
0000
0100
0000
0010
0000
0000
0100
0000
0000
0010
0000
1000
0000
0000
,
0010
0000
0000
1000
0000
0100
0000
0000
1000
0000
0000
0100
0000
1000
0000
0000
,
0100
0000
0000
0010
0000
0001
0000
0000
0010
0000
0000
0001
0000
0100
0000
0000
,
0010
0000
0000
0100
0000
0010
0000
0000
1001
0000
0000
0000
0000
0000
0000
0000
,
0001
0100
0000
0010
0000
0010
0000
0100
0010
1000
0000
0001
0000
0001
0000
1000
,
0001
0100
0000
0010
0000
0010
0000
0100
0010
1000
0000
0100
0000
0100
0000
1000
,
0010
0100
0000
0010
0000
0010
0000
0100
0001
0010
0000
0001
0000
0001
0000
0001
,
1000
0100
0000
1000
0000
1000
0000
0001
0100
0010
0000
0100
0000
0100
0000
0010
,
1000
0010
0000
0100
0000
0100
0000
0010
0100
0001
0000
1000
0000
1000
0000
0001
,
1000
0010
0000
0100
0000
0100
0000
0010
0100
0001
0000
0010
0000
0010
0000
0001
,
0100
0010
0000
0100
0000
0100
0000
0010
1000
0100
0000
1000
0000
1000
0000
1000
,
0001
0010
0000
0001
0000
0001
0000
1000
0010
0100
0000
0010
0000
0010
0000
0100
,
0010
1000
0000
0001
0000
0100
0000
0001
,
0000
0010
0000
0001
0000
0100
0000
0010
,
1000
0001
0000
1000
0000
0001
0000
0100
,
0000
0010
0000
1000
0000
0100
0000
1000
,
0010
0100
0000
0100
0000
0010
0000
0010
,
0000
0100
0000
0010
0000
0100
0010
1000
,
0001
1000
0000
0001
0000
0100
0000
0001
,
0100
0010
1000
0001
0010
0100
1000
0001
0000
0100
0010
1000
0000
0001
1000
0000
,
0202
0000
0000
0000
,
0000
0000
0000
0000
,
0303
0000
0000
0000
;

//---------------dance-single - ----------------
#NOTES:
     dance-single:
     :
     Medium:
     5:
     0.242,0.301,0.067,0.084,0.122:
0000
0000
0000
0000
,
0000
0000
0000
0000
,
0000
0000
0000
0000
,
0000
0000
0000
0000
,
0000
0000
0000
0000
,
0000
0000
0000
0000
,
0000
0000
0000
0000
,
0000
0000
0000
0000
,
0000
0001
0000
0001
0000
0001
0000
0001
,
0000
1000
0000
1000
0000
1000
0000
1000
,
0000
0010
0000
0010
0000
0100
0000
0100
,
0000
0010
0000
1000
0000
0001
0000
0010
,
0000
0001
0000
0100
0000
0010
0000
1000
,
0000
0100
0000
1000
0000
0010
0000
0100
,
0000
0010
0000
1000
0000
0001
0000
0010
,
0002
0000
0000
0003
,
1001
0000
0000
0000
,
0000
0000
0000
0000
0000
0000
0000
0000
0000
0000
0001
0000
0000
1000
0000
0000
,
0100
0000
0000
0000
0000
0000
0000
0000
0000
0000
0100
0000
0000
1000
0000
0000
,
0010
0000
0000
0000
0000
0000
0000
0000
0000
0000
0010
0000
0000
0100
0000
0000
,
0001
0000
0000
0000
0000
0000
0000
0000
0000
0000
0001
0000
0000
1000
0000
0000
,
0100
0000
0000
0000
0000
0000
0000
0000
0000
0000
1000
0000
0000
0001
0000
0000
,
0100
0000
0000
0000
,
0000
0000
0101
0000
,
1001
0000
0000
0000
,
0000
0000
0000
0000
0000
0000
0000
0000
0000
0000
0001
0000
0000
0001
0000
0000
,
0001
0000
0000
0000
0000
0000
0000
0000
0000
0000
0001
0000
0000
1000
0000
0000
,
0100
0000
0000
0000
0000
0000
0000
0000
0000
0000
0100
0000
0000
0100
0000
0000
,
0100
0000
0000
0000
0000
0000
0000
0000
0000
0000
0100
0000
0000
1000
0000
0000
,
0010
0000
0000
0000
0000
0000
0000
0000
0000
0000
0010
0000
0000
0100
0000
0000
,
0001
0000
0000
0000
,
0000
0000
1000
0000
,
1001
0001
0100
0001
,
0010
0000
0000
0000
0001
0000
0000
0000
0100
0000
0010
0000
0000
0100
0000
0000
,
0010
1000
0010
0100
,
0010
0000
0000
0000
1000
0000
0000
0000
0001
0000
0010
0000
0000
0001
0000
0000
,
0100
0110
0010
1000
,
0001
0000
0000
0000
0010
0000
0000
0000
0001
0000
0100
0000
0000
0010
0000
0000
,
1000
0100
1000
0010
,
0100
0001
0010
0000
,
0001
1000
0001
0100
,
0001
0000
0000
0000
0010
0000
0000
0000
0001
0000
0100
0000
0000
0100
0000
0000
,
0100
0001
0100
0010
,
1000
0000
0000
0000
0100
0000
0000
0000
0100
0000
1000
0000
0000
0010
0000
0000
,
0100
0010
1000
0001
,
0010
0000
0000
0000
0001
0000
0000
0000
0100
0000
0010
0000
0000
0100
0000
0000
,
0010
1000
0001
0010
,
0001
0100
0101
0000
,
0001
0000
0000
1000
0000
1000
0000
0000
0001
0000
0000
0000
0000
0000
0000
0000
,
1000
0000
0000
0100
0000
0100
0000
0000
1000
0000
0000
0000
0000
0000
0000
0000
,
0010
0000
0000
0100
0000
0100
0000
0000
0010
0000
0000
0000
0000
0000
0000
0000
,
0010
0000
0000
1000
0000
1000
0000
0000
0001
0000
0000
0000
0000
0000
0000
0000
,
1000
0000
0000
0100
0000
0100
0000
0000
1000
0000
0000
0000
0000
0000
0000
0000
,
0010
0000
0000
0100
0000
0100
0000
0000
0010
0000
0000
0000
0000
0000
0000
0000
,
1001
0000
0000
0000
,
0000
0000
0100
0000
,
0000
0010
0000
0010
0000
0010
0000
0010
,
0000
0100
0000
0100
0000
0100
0000
0100
,
0000
0010
0000
1000
0000
0001
0000
0010
,
0000
0001
0000
0100
0000
0010
0000
1000
,
0200
0300
2000
3000
,
0020
0030
0200
0300
,
0002
0000
0000
0000
0003
0000
0000
0000
0020
0000
0000
0000
0000
0030
0000
0000
,
0002
0000
0000
0000
0003
0000
0000
0000
0000
0000
1000
0000
0000
0001
0000
0000
,
0202
0000
0000
0000
,
0303
0000
0000
0000
;

//---------------dance-single - ----------------
#NOTES:
     dance-single:
     :
     Easy:
     1:
     0.106,0.189,0.059,0.236,0.000:
0000
0000
0000
0000
,
0000
0000
0000
0000
,
0000
0000
0000
0000
,
0000
0000
0000
0000
,
0000
0000
0000
0000
,
0000
0000
0000
0000
,
0000
0000
0000
0000
,
0000
0000
0000
0000
,
0010
0000
0000
0000
,
0000
0000
0000
0000
,
2000
0000
0000
3000
,
0000
0000
0000
0000
,
0002
0000
0000
0003
,
0200
0000
0000
0300
,
0020
0000
0030
0000
,
2002
0000
0000
3003
,
1000
0000
0000
0000
,
0000
0000
0000
0000
0000
0020
0000
0000
,
0030
0000
0000
0000
,
0000
0000
0000
0000
0000
0200
0000
0000
,
0300
0000
0000
0000
,
0000
0000
0000
0000
0000
0002
0000
0000
,
0003
0000
0000
0000
,
0000
0000
1000
0000
,
1010
0000
0000
0000
,
0000
0000
0000
0000
0000
0020
0000
0000
,
0030
0000
0000
0000
0000
0020
0000
0000
,
0030
0000
0000
0000
0000
0200
0000
0000
,
0300
0000
0000
0000
0000
0200
0000
0000
,
0300
0000
0000
0000
0000
0020
0000
0000
,
0030
0000
0000
0000
,
0000
0000
0100
0000
,
1001
0000
0000
0000
,
0000
0000
0000
0000
0000
0002
0000
0000
,
0000
0000
0000
0000
0000
2000
0000
0000
,
3003
0000
0000
0000
0000
2000
0000
0000
,
0000
0000
0000
0000
0000
0020
0000
0000
,
3030
0000
0000
0000
0000
0200
0000
0000
,
0300
0000
0000
0000
,
0000
0000
0001
0000
,
1100
0000
0000
0000
,
0000
0000
0000
0000
0000
2000
0000
0000
,
3000
0000
0000
0000
0000
2000
0000
0000
,
3000
0000
0000
0000
0000
0002
0000
0000
,
0003
0000
0000
0000
0000
0002
0000
0000
,
0003
0000
0000
0000
0000
0200
0000
0000
,
0300
0000
0000
0000
,
0000
0000
0010
0000
,
1001
0000
0010
0000
,
0010
0000
0000
0000
0000
0200
0000
0000
,
0300
0000
0010
0000
,
0010
0000
0000
0000
0000
2000
0000
0000
,
3000
0000
0001
0000
,
0001
0000
0000
0000
0000
0200
0000
0000
,
0300
0000
0000
0000
,
0000
0000
0010
0000
,
1001
0000
0000
0000
,
0001
0000
0000
0000
,
1000
0000
0000
0000
,
0010
0000
0000
0000
,
0100
0000
0000
0000
,
0010
0000
0000
0000
,
1000
0000
0001
0000
,
0020
0000
0000
0030
,
1001
0000
0000
0000
;

//---------------dance-single - ----------------
#NOTES:
     dance-single:
     :
     Beginner:
     1:
     0.072,0.135,0.059,0.000,0.000:
0000
0000
0000
0000
,
0000
0000
0000
0000
,
0000
0000
0000
0000
,
0000
0000
0000
0000
,
0000
0000
0000
0000
,
0000
0000
0000
0000
,
0000
0000
0000
0000
,
0000
0000
0000
0000
,
0100
0000
0000
0000
,
0000
0000
0000
0000
,
0001
0000
0000
0000
,
0000
0000
0000
0000
,
1000
0000
0000
0000
,
0010
0000
0000
0000
,
0100
0000
0000
0000
,
1001
0000
0000
0000
,
0001
0000
0000
0000
,
0000
0000
0000
0000
0000
0100
0000
0000
,
0000
0000
0000
0000
,
0000
0000
0000
0000
0000
0010
0000
0000
,
0000
0000
0000
0000
,
0000
0000
0000
0000
0000
1000
0000
0000
,
0000
0000
0000
0000
,
0000
0000
0001
0000
,
1001
0000
0000
0000
,
0000
0000
0000
0000
0000
0100
0000
0000
,
0000
0000
0000
0000
0000
0100
0000
0000
,
0000
0000
0000
0000
0000
0010
0000
0000
,
0000
0000
0000
0000
0000
0010
0000
0000
,
0000
0000
0000
0000
0000
0100
0000
0000
,
0000
0000
0000
0000
,
0000
0000
0010
0000
,
1001
0000
0000
0000
,
0000
0000
0000
0000
0000
1000
0000
0000
,
0000
0000
0000
0000
0000
0001
0000
0000
,
0000
0000
0000
0000
0000
0001
0000
0000
,
0000
0000
0000
0000
0000
0100
0000
0000
,
0000
0000
0000
0000
0000
0010
0000
0000
,
0000
0000
0000
0000
,
0000
0000
1000
0000
,
0110
0000
0000
0000
,
0000
0000
0000
0000
0000
0001
0000
0000
,
0000
0000
0000
0000
0000
0001
0000
0000
,
0000
0000
0000
0000
0000
1000
0000
0000
,
0000
0000
0000
0000
0000
1000
0000
0000
,
0000
0000
0000
0000
0000
0010
0000
0000
,
0000
0000
0000
0000
,
0000
0000
0100
0000
,
1001
0000
0100
0000
,
0100
0000
0000
0000
0000
0010
0000
0000
,
0000
0000
0100
0000
,
0100
0000
0000
0000
0000
0001
0000
0000
,
0000
0000
1000
0000
,
1000
0000
0000
0000
0000
0010
0000
0000
,
0000
0000
0000
0000
,
0000
0000
0100
0000
,
1001
0000
0000
0000
,
1000
0000
0000
0000
,
0001
0000
0000
0000
,
0100
0000
0000
0000
,
0010
0000
0000
0000
,
0100
0000
0000
0000
,
0001
0000
1000
0000
,
0100
0000
0000
0000
,
1001
0000
0000
0000
;

//---------------dance-double - ----------------
#NOTES:
     dance-double:
     :
     Challenge:
     9:
     0.409,0.620,0.101,0.000,0.362: // measure 1
00000000
00000000
00000000
00000000
,  // measure 2
00000000
00000000
00000000
00000000
,  // measure 3
00000000
00000000
00000000
00000000
,  // measure 4
00000000
00000000
00000000
00000000
,  // measure 5
00000000
00000000
00000000
00000000
,  // measure 6
00000000
00000000
00000000
00000000
,  // measure 7
00000000
00000000
00000000
00000000
,  // measure 8
00000000
00000000
00000000
00000000
,  // measure 9
01000000
00000000
00010000
00000000
,  // measure 10
00100000
00000000
00001000
00000000
,  // measure 11
00010000
00000000
00000100
00000000
,  // measure 12
00000001
00000000
00000100
00000000
,  // measure 13
00001000
00000010
00010000
00001000
,  // measure 14
00100000
01000000
10000000
01000000
,  // measure 15
01000000
10000000
00100000
01000000
00010000
00100000
00001000
00010000
,  // measure 16
00000100
00001000
00000010
00000001
00000010
00000100
00000010
00000001
00000000
00000100
00000010
00001000
00000000
00000100
00010000
00000000
,  // measure 17
00110000
00000000
11000000
00000000
10000000
00010000
01000000
00000000
,  // measure 18
01000000
00000000
00010000
00000000
00100000
00000000
01000000
00000000
10000000
00000000
01000000
00000000
00000000
00100000
00000000
00000000
,  // measure 19
00001000
00000000
00011000
00000000
00010000
00000100
00001000
00000000
,  // measure 20
00001000
00000000
00000010
00000000
00000100
00000000
00000001
00000000
00000010
00000000
00000100
00000000
00000000
00010000
00000000
00000000
,  // measure 21
00001000
00000000
00110000
00000000
00010000
01000000
00100000
00000000
,  // measure 22
01000000
00000000
00100000
00000000
10000000
00000000
01000000
00000000
00100000
00000000
00010000
00000000
00000000
00100000
00000000
00000000
,  // measure 23
00001000
00000000
00010000
00000000
00000010
00000100
00000001
00000000
,  // measure 24
00001000
00000001
00000010
00000100
00001000
00000000
00000000
00000000
,  // measure 25
00000100
00000010
00001000
00000000
00001000
00000100
00001000
00000000
,  // measure 26
00000100
00000000
00010000
00000000
00001000
00000000
00100000
00000000
01000000
00000000
10000000
00000000
00000000
01000000
00000000
00000000
,  // measure 27
00010000
00000000
11000000
00000000
10000000
00100000
01000000
00000000
,  // measure 28
01000000
00000000
00100000
00000000
10000000
00000000
00010000
00000000
00100000
00000000
00001000
00000000
00000000
00001000
00000000
00000000
,  // measure 29
00100000
00000000
00101000
00000000
00100000
00001000
00010000
00000000
,  // measure 30
00010000
00000000
00000100
00000000
00000001
00000000
00000100
00000000
00001000
00000000
00000010
00000000
00000000
00000100
00000000
00000000
,  // measure 31
00001001
00000000
00000000
00000000
,  // measure 32
00000000
00000000
00000010
00000000
,  // measure 33
00000010
00000000
00000000
00000100
00000000
00000100
00000000
00000000
00000001
00000000
00000000
00001000
00000000
00001000
00000000
00000000
,  // measure 34
00000100
00000000
00000000
00001000
00000000
00001000
00000000
00000000
00000010
00000000
00000000
00000100
00000000
00000100
00000000
00000000
,  // measure 35
00000001
00000000
00000000
00001000
00000000
00001000
00000000
00000000
00000100
00000000
00000000
00010000
00000000
00010000
00000000
00000000
,  // measure 36
00001000
00000000
00000000
00100000
00000000
00100000
00000000
00000000
01000000
00000000
00000000
10000000
00000000
10000000
00000000
00000000
,  // measure 37
00010000
00000000
00000000
01000000
00000000
01000000
00000000
00000000
00010000
00000000
00000000
00100000
00000000
00100000
00000000
00000000
,  // measure 38
01000000
00000000
00000000
10000000
00000000
10000000
00000000
00000000
00010000
00000000
00000000
00100000
00000000
00100000
00000000
00000000
,  // measure 39
01000000
00000000
00000000
01000000
00000000
01000000
00000000
00000000
01000000
00000000
00000000
10000000
00000000
10000000
00000000
00000000
,  // measure 40
10000000
00000000
00000000
00010000
00000000
00010000
00000000
00000000
00101000
00000000
00000000
00000000
00000000
00000000
00000000
00000000
,  // measure 41
00010000
00000100
00000000
00001000
00000000
00000100
00000000
00000000
00000001
00000010
00000000
00000100
00000000
00001000
00000000
00000000
,  // measure 42
00000001
00000100
00000000
00000010
00000000
00001000
00000000
00000000
00000100
00001000
00000000
00000100
00000000
00010000
00000000
00000000
,  // measure 43
00001000
00100000
00000000
01000000
00000000
10000000
00000000
00000000
01000000
10000000
00000000
00100000
00000000
01000000
00000000
00000000
,  // measure 44
00010000
01000000
00000000
00100000
00000000
10000000
00000000
00000000
01000000
10000000
00000000
00010000
00000000
00100000
00000000
00000000
,  // measure 45
00100000
00001000
00000000
00010000
00000000
00000100
00000000
00000000
00001000
00000100
00000000
00001000
00000000
00000010
00000000
00000000
,  // measure 46
00000100
00000001
00000000
00000010
00000000
00000100
00000000
00000000
00000100
00000010
00000000
00000001
00000000
00001000
00000000
00000000
,  // measure 47
00001100
00001000
00100000
10000000
,  // measure 48
00100000
00000000
00010000
01000000
01100000
00000000
10000000
00000000
,  // measure 49
00010000
00100000
01000000
00100000
00001000
00010000
00000100
00000010
,  // measure 50
00000001
00000010
00000001
00000100
00000010
00001000
00000100
00001000
,  // measure 51
00000010
00010000
00000100
00010000
00001000
00100000
10000000
00100000
,  // measure 52
00010000
01000000
00100000
10000000
01000000
00100000
01000000
10000000
,  // measure 53
00010000
01000000
00010000
00100000
00001000
00010000
00000100
00000010
,  // measure 54
00000001
00000010
00001000
00000010
00000001
00000010
00000100
00010000
,  // measure 55
00001000
00010000
00100000
01000000
00100000
00010000
01000000
00100000
,  // measure 56
10000000
00010000
00100000
00001000
00010100
00000000
00000000
00000000
,  // measure 57
00000100
00010000
00001000
00100000
,  // measure 58
10000000
00100000
00010000
01000000
,  // measure 59
00010000
00100000
00001000
00010000
,  // measure 60
00000100
00000001
00000100
00000010
,  // measure 61
00000001
00001000
00000100
00000100
,  // measure 62
00001000
00000100
00010000
00100000
,  // measure 63
10000000
00100000
00010000
01000000
,  // measure 64
00010000
01000000
00100000
10000000
01000000
00100000
00001000
00010000
00000000
00010000
00000100
00001000
00000000
00000001
00000010
00000000
,  // measure 65
00001100
00000000
00000000
00000000
;
