#TITLE:More And More;
#SUBTITLE:;
#ARTIST:Hixxy;
#TITLETRANSLIT:;
#SUBTITLETRANSLIT:;
#ARTISTTRANSLIT:;
#CREDIT:;
#BANNER:bn.png;
#BACKGROUND:bg.png;
#LYRICSPATH:;
#CDTITLE:PandemiXium-cdtitle.png;
#MUSIC:More And More.ogg;
#OFFSET:-0.007;
#SAMPLESTART:54.240;
#SAMPLELENGTH:12.000;
#SELECTABLE:YES;
#BPMS:0.000=177.000,175.500=177.240,210.000=177.200;
#STOPS:24.000=2.370
,81.000=2.370
,270.000=1.017
;
#BGCHANGES:;

//---------------dance-single - ----------------
#NOTES:
     dance-single:
     :
     Hard:
     9:
     0.576,0.634,0.676,0.067,0.043:
0000
0000
0000
0000
,
0000
0000
0000
0000
,
0000
0000
0000
0000
,
0000
0000
0000
0000
,
0000
0000
0000
0000
,
0000
0000
0000
0000
,
0000
1001
0001
0100
,
0010
0001
1000
0100
,
0100
0000
1000
0001
,
0010
0001
0100
0010
,
0010
0000
0100
0010
,
1000
0001
0010
0001
,
0001
0000
0001
1000
,
0100
0010
0000
0000
0000
0000
0000
0000
,
0000
0011
0001
0100
,
0010
0000
1000
0000
0010
0000
0100
0010
,
0100
0000
0010
0010
,
1000
0000
0001
0000
0100
0000
0010
1000
,
0001
0000
1000
0001
,
0100
0000
0001
0000
0010
0000
0001
0100
,
0010
1000
0000
0000
1001
0000
0001
0100
,
0010
0000
0010
0000
0000
0000
0100
0000
0010
0000
0000
0010
0000
0000
0100
0000
,
0010
0000
0000
1000
0000
0000
0001
0000
0010
0000
0000
0000
0001
0000
1000
0000
,
0100
0000
0100
0000
0000
0000
1000
0000
0001
0000
0000
0010
0000
0000
0001
0000
,
0100
0000
0000
0010
0000
0000
0100
0000
0010
0000
0000
0000
0010
0000
1000
0000
,
0001
0000
0001
0000
0000
0000
1000
0000
0001
0000
0000
0010
0000
0000
0001
0000
,
0100
0000
0000
0010
0000
0000
0100
0000
0010
0000
0000
0000
0010
0000
1000
0000
,
0001
0000
0001
0000
0000
0000
0001
0000
1000
0000
0000
0001
0000
0000
0010
0001
,
0010
0000
0000
0001
0000
0000
0100
0000
0010
0000
0000
0000
0100
0000
0010
0000
,
1000
0001
0100
0000
0001
1000
0100
1000
,
0001
0100
0001
0010
0001
0000
0001
1000
,
0100
0100
1000
0000
1000
0001
0010
0001
,
0100
0010
1000
0001
0010
0000
0001
1000
,
0100
0100
1000
0000
1000
0001
0010
0001
,
1000
0100
1000
0010
0110
0000
0100
0000
,
1001
1000
0022
0000
,
0000
0033
1001
0101
,
1100
0101
1100
0101
,
0001
0001
0100
0100
0000
0000
0110
0000
,
1001
0110
1001
0110
,
0010
0010
0100
0000
0000
0000
1010
0000
,
0011
1010
0011
1010
,
0010
0010
1000
1000
0000
0000
1001
0000
,
0110
0000
0002
0200
0000
0000
0000
0000
,
0303
0000
1001
0010
,
0010
0010
0010
0010
,
0010
0010
0100
0100
0000
0000
0001
0000
,
0001
0001
0001
0001
,
0001
1000
0001
1000
0000
0000
1000
0000
,
1000
1000
1000
1000
,
0100
1000
0100
1000
0000
0000
0001
0000
,
0100
0000
0010
2000
0000
0000
0000
0000
,
3000
0000
0000
0000
0001
1000
0000
0001
,
0000
0010
0000
0001
0000
0100
0000
0010
,
0000
0010
1000
0001
0010
0001
0000
0001
,
0000
1000
0000
1000
0000
0001
0000
0100
,
0000
0010
1000
0001
0010
0001
0000
0001
,
0000
1000
0000
1000
0000
0001
0000
0100
,
0000
0010
1000
0001
0010
0001
0000
0001
,
0000
1000
0000
1000
0000
0001
0000
1000
,
0000
0001
1000
0001
0100
0000
0010
0000
,
1000
0000
0001
1000
0100
0000
1000
0000
,
0001
0000
0001
0100
0010
0000
0100
0000
,
0010
0000
0010
1000
0001
0000
1000
0000
,
0100
0000
1000
0010
0100
0110
0000
0110
,
0000
0110
0000
0110
0000
1010
0000
1010
,
0000
1010
0000
1010
0000
1100
0000
0011
,
0000
0101
0000
1010
0000
0000
0001
0000
,
1001
0110
1001
0000
,
1100
0011
1100
0000
,
0101
1010
0101
1000
,
0001
0000
0100
0100
0010
0000
0000
0000
,
0110
1001
1010
0000
,
0110
1001
0011
0000
,
1001
0110
1010
0101
,
1000
0000
0001
0001
0100
0010
0000
0000
,
0110
1001
1100
0011
,
0110
0000
0010
0010
0100
0100
0000
0000
,
0110
1001
1100
0011
,
0101
0000
0001
0001
0100
0100
0000
0000
,
0110
1001
1100
0011
,
0101
0000
0010
0010
0100
0100
0000
0000
,
0001
0000
1000
0000
0002
0200
0000
0000
,
0000
0303
0000
0000
;

//---------------dance-single - ----------------
#NOTES:
     dance-single:
     :
     Medium:
     7:
     0.454,0.555,0.429,0.067,0.000:
0000
0000
0000
0000
,
0000
0000
0000
0000
,
0000
0000
0000
0000
,
0000
0000
0000
0000
,
0000
0000
0000
0000
,
0000
0000
0000
0000
,
0000
1001
0000
0001
,
0000
0001
0001
0001
,
0001
0000
1000
0000
,
1000
1000
1000
1000
,
1000
0000
0010
0010
,
0010
0010
0100
0010
,
0100
0000
0010
1000
,
0001
1000
0000
0000
0000
0000
0000
0000
,
0000
1001
0000
0001
,
0000
0100
0000
0010
,
1000
0100
0000
1000
,
0000
0010
0000
0100
,
0001
1000
0000
1000
,
0000
0001
0000
1000
,
0001
0000
0010
0000
,
0100
0000
0010
1000
,
0001
0010
0101
0000
,
0101
0000
0001
0100
,
0010
0000
0010
1000
0010
0000
1000
0000
,
1000
0000
1000
0001
,
0100
0000
0001
0010
0001
0000
0100
0001
,
0100
0100
0000
0000
0110
0000
0000
0000
,
1001
0000
1000
0001
,
0100
0000
0100
0010
,
1000
0001
0010
0001
,
0100
0000
0100
1000
,
0100
0001
0011
0001
,
0010
0000
0100
1000
,
0010
0100
0110
0010
,
1001
0100
2200
0000
,
0000
3300
0000
1000
,
0001
0100
0001
0010
,
0100
0010
0100
0000
0000
0000
0010
0000
,
0001
0100
0010
1000
,
0010
1000
0010
0000
0000
0000
1000
0000
,
0001
0100
0001
0010
,
0001
0010
0001
0000
0000
0000
0011
0000
,
1000
0000
0100
2000
0000
0000
0000
3000
,
0000
0000
0000
0110
,
1001
0010
1000
0010
,
0100
0010
1000
0001
0000
0000
0001
0000
,
0001
1000
1000
1001
,
0001
0100
0010
0000
0000
0000
0110
0000
,
0010
0110
0100
1010
,
0010
1000
0100
1000
0000
0000
1000
0000
,
0001
0000
0200
0002
0000
0000
0000
0000
,
0303
0000
0000
0000
0000
0001
0000
1000
,
0000
0001
0000
0100
0000
0001
0000
0010
,
0000
0001
0100
0001
0000
0100
0000
0010
,
0000
0100
0000
0010
0000
1000
0000
0010
,
0000
0010
1000
0001
0000
1000
0000
0001
,
0000
0100
0000
0001
0000
0010
0000
0001
,
0000
0001
0100
0010
0000
0100
0000
0100
,
0000
0010
0000
0010
0000
1000
0000
0010
,
0000
0010
1000
0100
1000
0000
1000
0000
,
0001
0001
0100
0100
,
0010
0100
0010
0100
0010
0000
0010
0000
,
1000
0001
0100
0001
,
0001
0100
0010
1000
0100
0000
1000
0000
,
0100
1000
0100
0010
0001
0000
0010
0000
,
0001
0010
0001
0100
0010
0000
0110
0000
,
0010
0110
0000
0000
,
1001
1001
1001
0000
,
0110
0110
0110
0000
,
1001
1001
1001
0001
,
1000
0000
1000
0100
0010
0000
0000
0000
,
0011
0011
0011
0000
,
1100
1100
1100
0000
,
0011
0011
0011
0001
,
0100
0000
0010
1000
0001
1000
0000
0000
,
1001
0010
1001
0100
,
0100
0000
0010
0100
0010
0100
0000
0000
,
0110
1010
0101
0001
,
0100
0000
0010
1000
0001
1000
0000
0000
,
1001
1100
0011
0001
,
0100
0000
0001
0100
0010
0100
0000
0000
,
0010
0000
1000
0000
0002
0020
0000
0000
,
0000
0033
0000
0000
;

//---------------dance-single - ----------------
#NOTES:
     dance-single:
     :
     Easy:
     5:
     0.354,0.436,0.114,0.067,0.000:
0000
0000
0000
0000
,
0000
0000
0000
0000
,
0000
0000
0000
0000
,
0000
0000
0000
0000
,
0000
0000
0000
0000
,
0000
0000
0000
0000
,
0000
0010
0000
1000
,
0000
0001
0000
1000
,
0000
0010
0000
0100
,
0000
0001
0000
0010
,
0000
0100
0000
1000
,
0000
0001
0000
0100
,
0000
0001
0000
0010
,
0000
0100
0000
1000
,
0000
1010
0000
0010
,
0000
1000
0000
0001
,
0010
0001
0000
0100
,
0000
0010
0000
1000
,
0010
0100
0000
0010
,
0000
1000
0000
0001
,
0001
0000
1000
0000
,
0001
0000
1000
0001
,
1000
0001
0100
0000
,
0010
0000
0100
0100
,
0010
1000
0100
1000
,
0010
0000
0100
0001
,
0010
0001
0100
0000
,
0010
0000
1001
0010
,
1001
0100
0010
0010
,
0010
0000
0010
1000
,
0100
0010
0001
0010
,
0010
0000
0010
0001
,
0100
0010
1000
0100
,
0100
0000
1100
1000
,
0100
0010
0011
0001
,
1001
0100
0202
0000
,
0000
0303
0000
0001
,
0100
0010
1000
1000
,
0001
0001
0000
0001
,
0100
0010
1010
1000
,
0010
0010
0000
0100
,
0010
1000
0001
0010
,
0100
0100
0000
0100
,
1000
0000
0010
0100
0000
0000
0000
0000
,
0000
0000
0000
0001
,
1000
1000
0010
0100
,
0001
0001
0000
0001
,
0010
0100
0011
0001
,
0100
0100
0000
0010
,
1000
0100
1000
0010
,
0100
0100
0000
1000
,
0001
0000
0200
0002
0000
0000
0000
0000
,
0303
0000
0001
0000
,
1000
0000
0010
1000
,
0100
1000
0010
0000
,
0100
0000
0001
0100
,
0010
1000
0100
0000
,
1000
0000
0010
0000
,
0100
0100
0100
0000
,
0001
0000
0010
0100
,
1000
0010
0100
0100
,
0010
0010
1000
1000
,
0001
0000
1000
0001
1000
0000
0001
0000
,
0100
0010
1000
0100
,
1000
0000
0010
1000
0010
0000
1000
0000
,
0100
0010
0011
0001
,
0100
0010
1010
0001
,
0011
0100
0000
0000
,
0001
0001
0001
0000
,
1000
1000
1000
0000
,
0001
1000
0001
1000
,
0001
0000
1000
0001
1000
0000
0000
0000
,
0010
0100
0010
0000
,
0010
0100
0010
0000
,
0010
0100
0010
0100
,
0010
0000
0100
0010
0100
0010
0000
0000
,
1000
0001
0100
0010
,
0010
0000
1000
0010
1000
0000
0000
0000
,
1000
0100
0010
0001
,
0001
0000
0010
0001
0010
0000
0000
0000
,
0001
0100
0010
1000
,
0001
0010
0100
0000
,
2000
0000
3010
0000
0002
0200
0000
0000
,
0000
0303
0000
0000
;

//---------------dance-double - ----------------
#NOTES:
     dance-double:
     :
     Challenge:
     9:
     0.641,0.672,0.629,0.333,0.071:
00000000
00000000
00000000
00000000
,
00000000
00000000
00000000
00000000
,
00000000
00000000
00000000
00000000
,
00000000
00000000
00000000
00000000
,
00000000
00000000
00000000
00000000
,
00000000
00000000
00000000
00000000
,
00000000
11000000
10000000
01000000
,
00100000
00000000
00001000
00000000
00010000
00000000
00010000
00000010
,
00000100
00000000
00000010
00000100
,
00000010
00000000
00001000
00000000
00000010
00000000
00000010
00010000
,
00001000
00000000
00001000
00100000
,
00010000
00000000
01000000
00000000
00100000
00000000
10000000
00010000
,
00100000
00000000
00101000
00010100
,
00020000
00002000
00000000
00000000
00000000
00000000
00033000
00000000
,
00000000
00110000
00020000
01000000
,
00100000
00000000
01000000
00000000
00130000
00000000
00100000
00100000
,
00001000
00001000
00010000
00000000
00000200
00000000
00001300
00000000
,
00002000
00000000
00003010
00000000
00000100
00000000
00000001
00000100
,
00001000
00000100
00000001
00000000
00001000
00000000
00000010
00000000
,
00010000
00000000
00001000
00000000
01000000
00000000
00100000
10000000
,
00010000
00100000
00001000
00000000
01010000
00000000
00010000
10000000
,
01000000
00000000
01000000
00000000
00000000
00000000
10000000
00000000
00010000
00000000
00000000
00100000
00000000
00000000
00001000
00000000
,
00010000
00000000
00000000
00000010
00000000
00000000
00000100
00000000
00000010
00000000
00000000
00000000
00000010
00000000
00001000
00000000
,
00000001
00000000
00000001
00000000
00000000
00000000
00000001
00000000
00000100
00000000
00000000
00000010
00000000
00000000
00001000
00000000
,
00000100
00000000
00000000
00010000
00000000
00000000
00001000
00000000
00010000
00000000
00000000
00000000
00010000
00000000
01000000
00000000
,
00100000
00000000
00100000
00000000
00000000
00000000
00100000
00000000
10000000
00000000
00000000
00010000
00000000
00000000
00100000
00000000
,
00010000
00000000
00000000
01000000
00000000
00000000
00100000
00000000
01000000
00000000
00000000
00000000
10000000
00000000
00010000
00000000
,
00100000
00000000
00100000
00000000
00000000
00000000
00100000
00000000
00001000
00000000
00000000
00011000
00000000
00000000
00010000
00000100
,
00010000
00000000
00000000
00000100
00000000
00000000
00001000
00000000
00000010
00000000
00000000
00000000
00000100
00000000
00000010
00000000
,
00001000
00000000
00001000
00000000
00000000
00000000
00000100
00000000
00001000
00000000
00000000
00101000
00000000
00000000
00010000
00000000
,
00100000
00000000
00000000
00110000
00000000
00000000
10000000
00000000
01000000
00000000
00000000
00000000
10000000
00000000
00010000
00000000
,
01000000
00000000
01000000
00000000
00000000
00000000
01000000
00000000
00010000
00000000
00000000
01001000
00000000
00000000
00001000
00000000
,
00100000
00000000
00000000
00001000
00000000
00000000
00010000
00000000
00001000
00000000
00000000
00000000
00001000
00000000
00100000
00000000
,
00001000
00000000
00010000
00000000
00000000
00000000
00010000
00000000
00000010
00000000
00000000
00001010
00000000
00000000
00000010
00000000
,
00010000
00000000
00000000
00001000
00000000
00000000
00100000
00000000
00101000
00000000
00000000
00000000
00001000
00000000
00100000
00000000
,
00010000
01000000
00100000
10000000
02000000
00000000
00000000
00000000
,
00000000
03000000
10000000
10010000
,
00110000
10010000
01010000
10010000
,
10000000
00010000
00100000
00001000
00000000
00000000
00101000
00000000
,
00010100
00011000
00010100
00101000
,
00010000
00000100
00001000
00000010
00000000
00000000
00000101
00000000
,
00001010
00001100
00000011
00001001
,
00000001
00000100
00000010
00001000
00000000
00000000
00000010
00000000
,
00010000
00000000
00002000
02000000
00000000
00000000
00000000
03003000
,
00000000
00000000
01100000
20000000
,
30020000
00230000
00320000
02030000
,
03010000
00100000
00001000
00010000
00000000
00000000
00002000
00000000
,
00203000
00302000
00023000
00030020
,
00010030
00001000
00010000
00000010
00000000
00000000
00000200
00000000
,
00000320
00002030
00003002
00000023
,
00000031
00000100
00000010
00001000
00000000
00000000
00000001
00000000
,
00001000
00000000
00000200
00002000
00000000
00000000
00000000
00000000
,
00003300
00000000
00000000
00000000
00000100
00001000
00000010
00000100
,
00000000
00000010
00001000
00000100
00010000
00001000
00100000
00010000
,
00000000
00010000
01000000
00100000
10000000
01000000
00100000
00010000
,
00000000
00010000
00100000
01000000
10000000
00010000
00100000
00001000
,
00000000
00001000
00100000
00001000
00010000
00000010
00000100
00000001
,
00000000
00000001
00000100
00000010
00001000
00001000
00000100
00010000
,
00000000
00000100
00010000
00001000
00100000
00010000
01000000
00100000
,
00000000
00100000
10000000
00010000
00100000
00001000
00010000
00000100
,
00000000
00000100
00001000
00000010
00000200
00000000
00000010
00000000
,
00000010
00000000
00000310
00001000
00000200
00000000
00001000
00000000
,
00001300
00000000
00000100
00010000
00002000
00000000
00010000
00000000
,
00013000
00000000
00001000
00100000
00020000
00000000
00100000
00000000
,
00130000
00000000
00010000
01000000
00200000
00000000
01000000
00000000
,
01300000
00000000
00100000
10000000
02000000
00000000
10000000
00000000
,
13000000
00000000
10000000
00010000
00100000
00000000
00110000
00000000
,
00101000
00000000
00000200
00000020
00000330
00000000
00000000
00000000
,
00000110
00001100
00000110
00000000
,
00001010
00001100
00010100
00000000
,
00001100
00010100
00011000
00110000
,
01010000
00000000
00010000
01000000
10000000
01000000
00010000
00000000
,
00110000
01100000
10100000
00000000
,
11000000
00110000
01010000
00000000
,
01010000
00101000
00001100
00011000
,
00000110
00000000
00000010
00001000
00000100
00010000
00000000
00000000
,
00011000
00110000
01010000
10100000
,
10010000
00000000
10000000
01000000
00100000
00010000
00000000
00000000
,
00110000
00011000
00001100
00001001
,
00000101
00000000
00000001
00000100
00000010
00001000
00000000
00000000
,
00001010
00011000
00110000
01010000
,
10100000
00000000
10000000
10000000
00010000
00010000
00000000
00000000
,
10000000
00000000
00010000
00000000
00020000
00000020
00000000
00000000
,
00030030
00000000
00000000
00000000
;

//---------------dance-single - ----------------
#NOTES:
     dance-single:
     :
     Beginner:
     2:
     0.203,0.349,0.057,0.000,0.000: // measure 1
0000
0000
0000
0000
,  // measure 2
0000
0000
0000
0000
,  // measure 3
0000
0000
0000
0000
,  // measure 4
0000
0000
0000
0000
,  // measure 5
0000
0000
0000
0000
,  // measure 6
0000
0000
0000
0000
,  // measure 7
0000
0010
0000
0000
,  // measure 8
0000
0010
0000
0000
,  // measure 9
0000
1000
0000
0000
,  // measure 10
0000
1000
0000
0000
,  // measure 11
0000
0001
0000
0000
,  // measure 12
0000
0001
0000
0000
,  // measure 13
0000
0100
0000
0100
,  // measure 14
0000
0100
0000
0000
,  // measure 15
0000
0110
0000
0000
,  // measure 16
0000
0010
0000
0010
,  // measure 17
0000
0010
0000
0000
,  // measure 18
0000
1000
0000
1000
,  // measure 19
0000
1000
0000
0001
,  // measure 20
0000
0001
0000
0001
,  // measure 21
0000
0000
0010
0000
,  // measure 22
0010
0000
0010
0000
,  // measure 23
0010
0000
0100
0000
,  // measure 24
0100
0000
0100
0100
,  // measure 25
0100
0000
0001
0000
,  // measure 26
0001
0000
0001
0000
,  // measure 27
0001
0000
1000
0000
,  // measure 28
1000
0000
1000
1000
,  // measure 29
1001
1000
1001
0000
,  // measure 30
0010
0000
0100
0100
,  // measure 31
0100
0000
0010
0000
,  // measure 32
1000
0000
0100
0100
,  // measure 33
0100
0000
1000
0000
,  // measure 34
0001
0000
0010
0010
,  // measure 35
0010
0000
0110
0000
,  // measure 36
0110
0000
0110
0000
,  // measure 37
0000
0000
0000
0010
,  // measure 38
0010
0010
0001
0000
,  // measure 39
0001
0000
0000
1000
,  // measure 40
1000
1000
1000
0000
,  // measure 41
1000
0000
0000
0010
,  // measure 42
0010
0010
0100
0000
,  // measure 43
0100
0000
0000
0010
,  // measure 44
0010
0010
0000
0000
,  // measure 45
0000
0000
1000
0000
,  // measure 46
1000
0000
1000
1000
,  // measure 47
1000
0000
0000
0001
,  // measure 48
0000
0001
0001
0000
,  // measure 49
0001
0001
0000
0100
,  // measure 50
0000
0010
0000
1000
,  // measure 51
0000
0001
0000
0000
,  // measure 52
0000
0000
0000
0000
,  // measure 53
0000
0000
0010
0000
,  // measure 54
0000
0000
1000
0000
,  // measure 55
0000
0000
0001
0000
,  // measure 56
0000
0000
0100
0000
,  // measure 57
0000
0000
0010
0000
,  // measure 58
0000
0000
1000
0000
,  // measure 59
0000
0000
0100
0000
,  // measure 60
0000
0000
1000
0000
,  // measure 61
0000
0000
0001
0000
,  // measure 62
0000
0000
0001
0000
,  // measure 63
0000
0000
1000
0000
,  // measure 64
0000
0000
0010
0000
,  // measure 65
0000
0000
0100
0000
,  // measure 66
0000
0000
0010
0000
,  // measure 67
0000
0000
1000
0000
,  // measure 68
1000
0000
1000
0000
,  // measure 69
0001
0001
0001
0000
,  // measure 70
0001
0001
0001
0000
,  // measure 71
0001
0001
0001
1000
,  // measure 72
0000
0001
0000
0000
,  // measure 73
1000
1000
1000
0000
,  // measure 74
1000
1000
1000
0000
,  // measure 75
1000
1000
1000
0001
,  // measure 76
0000
1000
0000
0000
,  // measure 77
0010
0010
0010
0000
,  // measure 78
0000
0010
0010
0000
,  // measure 79
0100
0100
0100
0000
,  // measure 80
0000
0100
0100
0000
,  // measure 81
0001
0001
0001
0000
,  // measure 82
1000
1000
1000
0000
;
