#TITLE:Mind Mapping;
#SUBTITLE:(Miami Mapping Mix);
#ARTIST:Dirty Androids;
#TITLETRANSLIT:;
#SUBTITLETRANSLIT:;
#ARTISTTRANSLIT:;
#CREDIT:;
#BANNER:bn.PNG;
#BACKGROUND:bg.PNG;
#LYRICSPATH:;
#CDTITLE:;
#MUSIC:Mind Mapping (Miami Mapping Mix).mp3;
#OFFSET:0.002;
#SAMPLESTART:37.500;
#SAMPLELENGTH:12.000;
#SELECTABLE:YES;
#BPMS:0.000=128.000;
#STOPS:;
#BGCHANGES:;

//---------------dance-single - ----------------
#NOTES:
     dance-single:
     :
     Hard:
     7:
     0.384,0.386,0.034,0.300,0.034:
0000
0000
0000
0000
,
0000
0000
0000
0000
,
0000
0000
0000
0000
,
0000
0000
0000
0000
,
0000
0001
0100
0010
0000
0010
1000
0200
,
1000
0000
1000
0300
0010
0000
0001
0000
,
0100
0010
0100
0010
,
1000
0000
0001
0000
0001
2000
3100
0010
,
0100
1000
0010
0200
0000
0310
1000
0002
,
0010
0000
0010
0003
0001
0000
0100
0000
,
0010
0001
0010
0000
0010
0000
1000
0000
,
0100
1000
0010
0000
0100
0010
0010
0000
,
0100
0010
1000
1001
,
0001
0100
0001
0010
0100
0000
1100
0000
,
1000
0001
0000
0010
0000
0001
0000
0100
,
0000
0010
0000
1000
0000
0001
0010
0100
,
2000
0000
0100
0000
3010
0000
0100
0010
,
0002
0000
0100
0000
0010
0000
0103
0010
,
2000
3100
0002
0013
,
2002
0000
0000
3003
,
1000
0001
1000
0100
0010
0000
0010
0100
,
0010
1000
0010
0100
0002
0000
0013
0000
,
0001
0010
0100
1000
0100
0000
1000
0010
,
0200
0000
0000
0010
0020
0000
0330
0000
,
1000
0001
0100
0001
0010
0000
0010
0100
,
1000
0002
0000
0013
0002
0000
0100
0000
,
1003
0100
1000
0010
0100
0000
0010
1000
,
0200
0000
0000
0010
0310
0000
0000
0000
,
1000
0100
1000
0100
0010
0000
0001
0100
,
0010
0001
0010
0001
0010
0000
1000
0000
,
0001
1000
0001
1000
0100
0000
1000
0001
,
0100
0000
0000
0010
0100
0000
0000
0000
,
1000
0001
0100
0001
1000
0000
1000
0010
,
1000
0001
0010
0100
1000
0000
0001
0000
,
0001
1000
0010
1000
0010
0000
1000
0100
,
1000
1000
1000
1000
,
2002
0000
0000
3003
,
0001
0100
0010
1000
0200
0000
0310
0000
,
0000
0000
0000
0000
,
0100
0000
0000
0020
0200
0000
0330
0000
,
0000
0001
0100
0010
0000
0001
0100
0010
,
1000
0001
0100
0001
0020
0000
0130
0000
,
2000
0000
0010
0000
,
3100
0000
0000
1000
0010
0000
0000
0000
,
1000
0000
0000
0001
0000
0000
0010
0000
0000
0000
0001
0000
0100
0000
0010
0000
,
1000
0000
0000
0100
0000
0000
1000
0000
0000
0000
0010
0000
0100
0000
0001
0000
,
1000
0000
0000
1000
0000
0000
1000
0000
0000
0000
0001
0000
0100
0000
0010
0000
,
1000
0000
0000
0100
0000
0000
1000
0000
0000
0000
0010
0000
0100
0000
0001
0000
,
0010
0000
0000
0100
0000
0000
1000
0000
0000
0000
1000
0000
0001
0000
0100
0000
,
0010
0000
0000
0010
0000
0000
0010
0000
0000
0000
0100
0000
0010
0000
1000
0000
,
0001
0000
0000
0010
0000
0000
0100
0000
0000
0000
0100
0000
1000
0000
0010
0000
,
0100
0000
0000
0002
0000
0000
2000
0000
0000
0000
0000
0000
3003
0000
0000
0000
,
1000
0100
1000
0200
0000
1000
0000
1000
,
0000
1000
0000
1000
0000
1000
0000
1300
,
0000
0001
0100
0002
0000
0100
0000
0020
,
0000
0003
0000
0002
0000
0000
0033
0000
,
0001
0100
0001
2000
0000
3001
0000
0020
,
0000
0130
0000
2000
0000
3100
0000
0020
,
0001
0031
0010
0100
0000
2000
0000
0100
,
0000
0010
0000
0002
0000
0000
0000
0000
,
3003
0000
0000
0000
;

//---------------dance-single - ----------------
#NOTES:
     dance-single:
     :
     Medium:
     5:
     0.326,0.437,0.009,0.591,0.000:
0000
0000
0000
0000
,
0000
0000
0000
0000
,
0000
0000
0000
0000
,
0000
0000
0000
0000
,
0010
0000
1000
0000
,
0001
0000
0100
0000
,
0010
0000
1000
0000
,
0001
0000
0000
0000
1000
0001
0100
0000
,
0010
1000
0100
0000
1000
0000
0100
0000
,
0010
1000
0001
0000
1000
0000
0100
0000
,
0100
1000
0010
0000
0100
0000
0010
0000
,
0010
1000
0001
0000
0001
0010
0100
0000
,
0100
1000
0010
0000
0100
0000
0010
0000
,
0010
1000
0100
0000
1000
0000
0010
0000
,
0100
0001
0010
0000
0100
0000
0010
0000
,
0010
1000
0100
0000
1000
0010
0100
0000
,
0001
1000
0010
0000
0010
0000
0010
0000
,
0010
1000
0100
0000
0010
0000
0001
0000
,
0010
0100
0010
0001
,
0200
0000
0000
0300
,
0020
2030
3200
2300
,
3020
0230
0302
0013
,
0002
0203
0320
2030
,
3200
0000
0310
0000
,
0020
0032
0023
0230
,
2300
3020
0230
0310
,
0020
2030
3002
0023
,
0230
0000
1000
0000
,
2300
3020
0230
0302
,
0023
0230
0320
0032
,
0203
0320
2030
3200
,
2300
0000
0000
0010
0020
0000
3030
0000
,
0020
2030
3020
0230
,
0320
2030
3020
0230
,
0302
0023
0032
0203
,
0320
0000
2000
3030
,
2002
0000
0000
3003
,
0001
1000
0001
1000
0001
0000
1000
0000
,
0000
0000
0000
0000
,
0010
0000
0000
0010
0100
0000
0000
0000
,
0000
0000
0000
0000
,
0001
0100
0001
0100
0001
0000
0100
0000
,
0002
0000
0010
0000
,
0200
0000
0000
0303
,
0002
0000
0000
0003
0000
0000
1000
0001
,
2000
0000
0000
3000
0000
0000
0010
0100
,
0020
0000
0000
0030
0000
0000
1000
0100
,
0020
0000
0000
0030
0000
0000
0010
0100
,
2000
0000
0000
3000
0000
0000
0001
0100
,
0020
0000
0000
0030
0000
0000
0100
0010
,
2000
0000
0000
3000
0000
0000
1000
0001
,
0020
0000
0000
0030
0000
0000
0000
0000
,
0001
0000
0000
1000
0000
1000
0000
0001
,
0000
0001
0000
0100
0000
0010
0000
1000
,
0000
0001
1000
0001
0000
0100
0000
0020
,
0000
0000
0000
2000
0000
0000
3030
0000
,
1000
0000
0100
1000
0000
0100
0000
0010
,
0000
0100
0000
1000
0000
0001
0000
0100
,
0010
1000
0001
0010
0000
0100
0000
0010
,
0000
0002
0000
0200
0000
0000
0000
0000
,
0303
0000
0000
0000
;

//---------------dance-double - ----------------
#NOTES:
     dance-double:
     :
     Challenge:
     8:
     0.557,0.694,0.146,1.000,0.103:
00000000
00000000
00000000
00000000
,
00000000
00000000
00000000
00000000
,
00000000
00000000
00000000
00000000
,
00000000
00000000
00000000
00000000
,
10000000
00010000
00100000
00002000
00000000
00013000
00000100
00002000
,
00000000
00000000
00000010
00000000
00000000
00000000
00000010
00000000
00000000
00000000
00000100
00000000
00000000
00000000
00003100
00001000
,
00000000
00000000
00000100
00000000
00000000
00000000
00010000
00000000
00000000
00000000
00001000
00000000
00000000
00000000
00100000
00010000
,
00000000
00000000
00010000
00000000
00000000
00000000
00100000
00000000
00000000
10000000
00010000
10000000
00010000
10000000
00000000
10000000
,
00020000
00000000
00000000
00100000
00000000
00000000
01030000
00000000
00000000
00000000
01000000
00000000
00010000
00000000
00100000
00000000
,
00102000
00000000
00000000
00100000
00000000
00000000
00103000
00000000
00000000
00000000
00100000
00000000
00001000
00000000
00010000
00000000
,
00010200
00000000
00000000
00010000
00000000
00000000
00010300
00000000
00000000
00000000
00010000
00000000
00000010
00000000
00000100
00000000
,
00000102
00000000
00000000
00000010
00000000
00000000
00000013
00000000
00000000
00000000
00000001
00000000
00000100
00000000
00001000
00000000
,
00002100
00000000
00000000
00000100
00000000
00000000
00003100
00000000
00000000
00000000
00000100
00000000
00001000
00000000
00000100
00000000
,
00010200
00000000
00000000
00001000
00000000
00000000
00001300
00000000
00000000
00000000
00000100
00000000
00010000
00000000
00001000
00000000
,
00102000
00000000
00000000
00010000
00000000
00000000
00103000
00000000
00000000
00000000
00010000
00000000
00100000
00000000
01000000
00000000
,
21000000
00000000
00000000
01000000
00000000
00000000
31000000
00000000
00000000
00000000
10000000
00000000
10010000
00000000
00000000
00000000
,
20000000
32000000
03200000
00320000
00230000
00000000
00301000
00000000
,
00020000
00032000
00023000
00030200
00002300
00000000
00003010
00000000
,
00000011
00000000
00001100
00000110
,
00002002
00000000
00000000
00003003
,
00000002
00000203
00002300
00003200
00000320
00000030
00000020
00020030
,
00032000
00203000
02300000
03200000
00320000
00000000
01030000
00000000
,
02000000
03200000
00320000
00230000
20300000
30000000
20000000
32000000
,
03200000
00000000
00000000
00010000
00020000
00000000
00030000
00300000
,
00200000
00302000
00023000
00030020
00000230
00000300
00000200
00000302
,
00000023
00000000
00000230
00000000
00000000
00000000
00010300
00000100
00002000
00000000
00003000
00000000
00021000
00000000
00000000
00000000
,
00032000
02003000
03200000
02300000
03020000
00030000
00020000
20030000
,
00200000
00000000
30000000
01000000
02000000
00000000
03300000
00000000
,
02000000
03020000
00230000
00302000
00020000
00033000
00020000
00030200
,
00002300
00003020
00000230
00000320
00002030
00000000
00003200
00000000
,
00000320
00000032
00000023
00000230
00002300
00003000
00000200
00020300
,
00230000
00000000
00000000
01000000
02000000
00000000
03300000
00000000
,
20000000
30020000
00230000
00320000
02030000
00000000
03020000
00230000
,
00302000
00000000
00023000
00000000
00000000
00000000
00030100
00010000
00002000
00000000
00000000
00000000
00103000
00000000
00000000
00000000
,
00002000
00023000
00030020
00000230
00000302
00000023
00000230
00002300
,
00000020
00000000
00000000
00003030
,
00001200
00000000
00000000
00000000
,
00010000
00010000
00001000
00001000
00020300
00000000
00032000
00000000
,
00203000
00000000
00000000
00000000
,
01000000
00000000
00000000
01000000
01000000
00000000
00300000
00000000
,
00000000
10000000
00010000
00100000
00000000
00100000
00010000
01000000
,
00020000
00230000
02300000
23000000
30020000
00000000
00130000
00000000
,
20020000
30030000
02002000
03003000
,
00020200
00000000
00000000
00030300
,
00000200
00000000
00000000
00010000
00000000
00000000
00010300
00000000
00000000
00000000
00000100
00000000
00010000
00000000
00001000
00000000
,
00200000
00000000
00000000
00010000
00000000
00000000
01300000
00000000
00000000
00000000
01000000
00000000
10000000
00000000
00100000
00000000
,
02000000
00000000
00000000
10000000
00000000
00000000
03010000
00000000
00000000
00000000
00010000
00000000
00100000
00000000
00001000
00000000
,
00020000
00000000
00000000
00000100
00000000
00000000
00030010
00000000
00000000
00000000
00000010
00000000
00000100
00000000
00000001
00000000
,
00000020
00000000
00000000
00001000
00000000
00000000
00000130
00000000
00000000
00000000
00000010
00000000
00000100
00000000
00001000
00000000
,
00000020
00000000
00000000
00000100
00000000
00000000
00000100
00000030
00000000
00000000
00000100
00000000
00000001
00000000
00000100
00000000
,
00000020
00000000
00000000
00010000
00000000
00000000
00010030
00000000
00000000
00000000
00000010
00000000
00010000
00000000
00001000
00000000
,
02000000
00000000
00000000
00100000
00000000
00000000
00020000
00000000
00000000
00000000
00000000
00000000
03030000
00000000
00000000
00000000
,
10000000
01000000
00100000
01000000
10000000
01000000
00100000
00010000
,
00100000
00001000
00010000
00000100
00001000
00010000
00000100
00001000
,
00000010
00000100
00000001
00000100
00000001
00000010
00000100
00001000
,
00000100
00000010
00000002
00000200
00000000
00000000
00000000
00000303
,
00000001
00001000
00000010
00000200
00000000
00000320
00000000
00020030
,
00000000
00030200
00000000
00200300
00000000
00320000
00000000
02030000
,
03100000
10000000
01000000
00010000
01000000
00100000
01000000
00001000
,
00010000
00000100
00000010
00000002
00000000
00000000
00000000
00000000
,
00000003
00000000
00000000
00000000
;

//---------------dance-single - ----------------
#NOTES:
     dance-single:
     :
     Easy:
     3:
     0.209,0.257,0.009,0.180,0.000:
0000
0000
0000
0000
,
0000
0000
0000
0000
,
0000
0000
0000
0000
,
0000
0000
0000
0000
,
0010
0000
1000
0000
,
0001
0000
0100
0000
,
0010
0000
1000
0000
,
0001
0000
1000
0000
,
0100
0100
0100
0000
,
1000
0010
0100
0000
,
0001
0001
0001
0000
,
0001
0100
0010
0000
,
0100
0010
1000
0000
,
0001
1000
0001
0000
,
0100
0010
1000
0000
,
0100
1000
0100
0000
,
2000
0000
0000
3000
0000
0000
0010
0000
,
0200
0000
0000
0300
0000
0000
0001
0000
,
0020
0000
0000
0030
0000
0000
0100
0000
,
0220
0000
0000
0330
,
0010
0010
0010
0001
,
0010
0010
0020
0030
,
0100
0100
0100
1000
,
0200
0000
0020
0330
,
0010
0010
0010
0001
,
0010
0010
0020
0130
,
0100
0100
0100
0100
,
2000
0000
0020
3030
,
0001
0100
0010
0100
,
0001
0100
0020
1030
,
1000
0100
0010
0100
,
2000
0000
0200
3300
,
1000
0001
0100
0001
,
1000
0100
2000
3001
,
0001
0100
0001
0010
,
0200
0000
1000
0000
,
2300
0000
0000
0000
,
3000
0000
0000
0000
,
0000
0000
0000
0000
,
0010
0000
0010
0000
,
0200
0000
0000
0000
,
0301
0000
0001
0000
,
1000
0000
0001
0000
,
0200
0000
0000
0300
,
0010
0000
0000
0001
,
0010
0000
0000
0100
,
0010
0000
0000
0001
,
1000
0000
0000
1000
,
0100
0000
0000
0100
,
1000
0000
0000
0010
,
0100
0000
0000
0100
,
0001
0000
0000
0000
,
0001
0001
0001
0001
,
1000
1000
1000
1000
,
0001
0001
0001
0001
,
1000
1000
1000
1000
,
0001
1000
0001
0001
,
1000
0001
1000
1000
,
0001
1000
0001
1000
,
0001
2000
0200
0000
,
3300
0000
0000
0000
;

//---------------dance-single - ----------------
#NOTES:
     dance-single:
     :
     Beginner:
     1:
     0.083,0.154,0.009,0.000,0.000: // measure 1
0000
0000
0000
0000
,  // measure 2
0000
0000
0000
0000
,  // measure 3
0000
0000
0000
0000
,  // measure 4
0000
0000
0000
0000
,  // measure 5
0010
0000
0000
0000
,  // measure 6
0010
0000
0000
0000
,  // measure 7
1000
0000
0000
0000
,  // measure 8
0001
0000
0001
0000
,  // measure 9
1000
0000
0000
0000
,  // measure 10
0100
0000
0000
0000
,  // measure 11
1000
0000
0000
0000
,  // measure 12
0010
0000
0000
0000
,  // measure 13
0100
0000
0000
0000
,  // measure 14
0001
0000
0000
0000
,  // measure 15
0001
0000
0000
0000
,  // measure 16
1000
0000
1000
0000
,  // measure 17
0010
0000
0000
0000
,  // measure 18
0100
0000
0000
0000
,  // measure 19
0010
0000
0000
0000
,  // measure 20
1000
0000
0000
0000
,  // measure 21
1001
0000
0000
0000
,  // measure 22
0010
0000
0010
0000
,  // measure 23
1000
0000
0000
0000
,  // measure 24
1000
0000
0001
0000
,  // measure 25
0100
0000
0000
0000
,  // measure 26
0010
0000
0010
0000
,  // measure 27
1000
0000
0000
0000
,  // measure 28
1000
0000
1000
0000
,  // measure 29
0001
0000
0000
0000
,  // measure 30
0100
0000
0100
0000
,  // measure 31
0010
0000
0000
0000
,  // measure 32
0010
0000
1000
0000
,  // measure 33
0001
0000
0000
0000
,  // measure 34
1000
0000
0000
0000
,  // measure 35
0010
0000
0000
0000
,  // measure 36
0100
0000
0100
0000
,  // measure 37
0100
0000
0000
0000
,  // measure 38
0000
0000
0000
0000
,  // measure 39
0000
0000
0000
0000
,  // measure 40
0000
0000
0000
0000
,  // measure 41
1000
0000
0001
0000
,  // measure 42
1000
1000
1000
0000
,  // measure 43
0010
0000
0010
0000
,  // measure 44
0010
0000
0000
0000
,  // measure 45
0100
0000
0000
0000
,  // measure 46
0001
0000
0000
0000
,  // measure 47
1000
0000
0000
0000
,  // measure 48
0100
0000
0000
0000
,  // measure 49
1000
0000
0000
0000
,  // measure 50
0010
0000
0000
0000
,  // measure 51
0100
0000
0000
0000
,  // measure 52
0100
0000
0000
0000
,  // measure 53
0001
0000
0000
0000
,  // measure 54
1000
0000
0000
0000
,  // measure 55
0010
0000
0000
0000
,  // measure 56
1000
0000
0000
0000
,  // measure 57
0001
0000
0000
0000
,  // measure 58
0100
0000
0000
0000
,  // measure 59
0010
0000
0000
0000
,  // measure 60
1000
0000
0000
0000
,  // measure 61
0001
0000
0000
0000
;
