#TITLE:Miller Ball Breakers;
#SUBTITLE:;
#ARTIST:Deavid Soul;
#TITLETRANSLIT:;
#SUBTITLETRANSLIT:;
#ARTISTTRANSLIT:;
#CREDIT:;
#BANNER:bn.png;
#BACKGROUND:bg.png;
#LYRICSPATH:;
#CDTITLE:PandemiXium-cdtitle.png;
#MUSIC:Miller Ball Breakers.mp3;
#OFFSET:-1.280;
#SAMPLESTART:62.197;
#SAMPLELENGTH:12.000;
#SELECTABLE:YES;
#BPMS:0.000=127.987;
#STOPS:;
#BGCHANGES:;

//---------------dance-single - ----------------
#NOTES:
     dance-single:
     :
     Hard:
     8:
     0.458,0.469,0.238,0.286,0.162:
0000
0000
0000
0000
,
0000
0000
1001
0000
0011
0100
0010
0100
,
0000
0000
0100
0000
0010
1000
0010
0010
,
0000
0000
1010
0000
0001
1000
0100
1000
,
0000
0000
0010
0000
1000
0100
0010
0001
,
0000
0000
0011
0000
0001
0100
0010
1000
,
0000
0000
0001
0000
0001
0010
0100
0010
,
0000
0000
0011
0000
0001
0100
0010
1000
,
0000
0000
1000
0000
1000
1000
0001
0001
,
1000
0001
1000
0000
2002
0000
3003
0000
,
0000
0000
0001
0100
0010
0100
0010
1000
,
0000
0000
0001
0000
2100
0100
3100
0000
,
0000
0000
1000
0010
0100
0100
0010
1000
,
0000
0000
0011
0000
0001
0010
0100
0010
,
0000
0000
0001
0000
0100
0010
1000
0010
,
0000
0000
0110
0000
0000
0010
1000
0001
,
1000
0100
2000
3200
,
1300
0000
0010
0000
0202
0000
0303
0000
0000
0000
0001
0000
0000
0100
0000
0000
,
0001
0000
0000
0100
0000
0000
0001
0000
0000
0000
0100
0000
0000
0010
0000
0000
,
0100
0000
0000
0010
0000
0000
0100
0000
0000
0000
0010
0000
0000
1000
0000
0000
,
0010
0000
0000
1000
0000
0000
0010
0000
0000
0000
1000
0000
0000
0100
0000
0000
,
1000
0000
0000
0100
0000
0000
1000
0000
0000
0000
0100
0000
0000
1000
0000
0000
,
0010
0000
0000
0100
0000
0000
0001
0000
0000
0000
0001
0000
0000
0100
0000
0000
,
0010
0000
0000
1000
0000
0000
0100
0000
0000
0000
1000
0000
0000
0001
0000
0000
,
1000
0000
0000
0001
0000
0000
1000
0000
0001
0100
0001
0000
1000
0100
1000
0000
,
1001
0000
0000
0000
1001
0000
0000
0000
0000
0000
0001
0000
0000
0001
0000
0000
,
1000
0000
0000
0010
0000
0000
0100
0000
0000
0000
0010
0000
0000
0010
0000
0000
,
0100
0000
0000
0010
0000
0000
1000
0000
0000
0000
0100
0000
0000
0100
0000
0000
,
1000
0000
0000
0010
0000
0000
0100
0000
0000
0000
0010
0000
0000
0010
0000
0000
,
0100
0000
0000
0001
0000
0000
0010
0000
0000
0000
0010
0000
0000
0010
0000
0000
,
0001
0000
0000
0010
0000
0000
0001
0000
0000
0000
0001
0000
0000
0001
0000
0000
,
0100
0000
0000
0010
0000
0000
0100
0000
0000
0000
0010
0000
0000
1000
0000
0000
,
0010
0000
0000
0100
0000
0000
0010
0000
2000
0000
0000
0000
3002
0000
0000
0000
,
0023
0000
0230
0000
1300
0000
0010
1000
,
0100
0000
1100
0000
1000
0100
0010
0000
,
1002
0000
0013
0000
0101
0000
0001
0100
,
0020
0000
0130
0000
0100
0010
1000
0002
,
0023
0000
0000
0000
0130
0000
0000
0001
0010
0000
0000
0001
0010
0000
0000
0001
,
1000
0000
0101
0000
0001
1000
0100
0000
,
1000
0000
1010
0000
0000
1000
0001
0010
,
1000
0010
0001
0000
0001
0001
1000
0001
,
0101
0100
0110
0010
1020
0000
0100
0000
,
2030
0000
3100
0000
1000
0001
0200
0000
,
0302
0013
1002
0100
,
0013
0000
0001
0100
0020
0000
0130
0010
,
0200
0000
0310
0000
0020
0000
1030
0001
,
0020
0000
0031
0000
0001
0100
0010
0000
,
0200
0000
0310
0000
0000
0010
1000
0001
,
0020
0000
0031
0000
0001
0001
1000
1000
,
0100
0100
0010
0010
0001
0000
0001
0100
,
0110
0000
1001
0000
0001
0100
1000
0100
,
0002
0000
0013
0000
1001
0000
0001
0100
,
0010
0000
0110
0000
0010
1000
0100
0001
,
0200
0000
0310
0000
0002
0000
0013
0001
,
0200
0000
0000
0000
0310
0000
0000
0000
0010
0000
1000
0010
0000
0000
0000
0000
;

//---------------dance-single - ----------------
#NOTES:
     dance-single:
     :
     Challenge:
     9:
     0.654,0.655,0.457,0.457,0.566:
0000
0000
0000
0000
,
0000
0000
0000
0000
2020
3030
0000
0000
0001
0000
0100
0000
0010
0000
0100
0000
,
0001
0000
0000
0000
1001
0000
0000
0001
0000
0001
1000
0000
0100
0000
0010
0000
,
0100
1000
1001
0000
0010
1000
0010
0100
,
0001
0000
0000
0000
1000
0000
0000
1000
0000
0001
0010
0000
0001
0000
0100
0000
,
0010
0000
0000
0000
1001
0000
0000
1000
0200
0000
0000
0310
0002
0000
0000
0000
,
0103
0000
0000
0000
0001
0000
0000
0001
0000
0100
0010
0000
1000
0000
0001
0000
,
0010
0100
1100
0000
1000
1000
0001
0010
,
0001
0000
0000
0000
0101
0000
0000
0000
0001
0100
0001
0000
0100
0001
0100
0000
,
0001
0100
0001
0000
0100
0000
0001
0000
2020
0000
0000
0000
0000
0000
3030
0000
,
0000
0000
0000
0000
1000
0000
0000
0001
0000
0010
0001
0000
0100
0000
0010
0000
,
1000
0000
0000
0000
0110
0000
0000
0100
0020
0000
0000
0130
0002
0000
0000
0000
,
0013
0000
0000
0000
0011
0000
0000
0001
0000
1000
0100
0000
1000
0000
0010
0000
,
0100
0100
0110
0000
0010
1000
0001
0010
,
0001
0000
0000
0000
0001
0000
0000
1000
0000
0100
1000
0000
0001
0000
0010
0000
,
0000
0000
0101
0000
0001
0100
0010
0100
,
0001
0000
0000
0000
1000
0000
0000
1000
0100
0000
0000
0100
0010
0000
0000
0010
,
0001
0000
0100
0000
2020
0000
3030
0000
1000
0000
1100
0000
0000
1100
0000
0000
,
1100
0000
0000
1100
0000
0000
1100
0000
0000
0000
2000
0000
0000
3200
0000
0000
,
0320
0000
0000
0230
0000
0000
0320
0000
0030
0000
0011
0000
0000
0011
0000
0000
,
0011
0000
0000
0011
0000
0000
0011
0000
0000
0000
0101
0000
0000
1010
0000
0000
,
0110
0000
0000
1001
0000
0000
1010
0000
0000
0000
0020
0000
0000
2030
0000
0000
,
3200
0000
0000
0320
0000
0000
0032
0000
0003
0000
0011
0000
0000
1100
0000
0000
,
0110
0000
0000
1001
0000
0000
1010
0000
0000
0000
0101
0000
0000
0020
0000
0030
,
0110
0000
0000
2000
0000
0000
3020
0000
1030
0100
0010
0100
0001
1000
0100
0010
,
0002
0000
0000
0000
0000
0000
0000
0000
0000
0000
0000
0000
0000
0000
0000
0003
0102
0000
0000
0000
0000
0000
0000
0000
0003
0000
0000
0000
0000
0000
0000
0000
0001
0000
0000
0000
0000
0000
0000
0000
0010
0000
0000
0000
0000
0000
0000
0000
0001
0000
0000
0000
0010
0000
0000
0000
0000
0000
0000
0000
0010
0000
0000
0000
,
0001
0000
0001
0010
0000
0010
0100
0000
0000
0000
1000
0000
0100
1000
0000
1000
,
0100
0000
0100
1000
0000
1000
0001
0000
0000
0000
0001
0000
0001
0100
0000
0100
,
0001
0000
0001
0100
0000
0100
0010
0000
0000
0000
0010
0000
0010
0100
0000
0100
,
0010
0000
0010
0100
0000
0100
0001
0000
1000
0000
1000
0000
1000
0100
0000
0010
,
0001
0000
1000
0100
0000
0010
0001
0000
0100
0000
0001
0000
0001
0100
0000
0100
,
0010
0000
0010
1000
0000
1000
0100
0000
1000
0000
0010
0000
0100
0010
0000
0010
,
1000
0000
1000
0001
0000
0001
0100
0000
0010
0100
0010
0100
0010
0100
0010
0100
,
0020
0000
2030
0000
3100
0000
1000
0001
,
0100
0000
0110
0000
0010
1000
0002
0000
,
0010
0000
0103
0000
0002
0000
1003
0100
,
0020
0000
0130
0000
0100
0010
0001
1000
,
1000
0000
0002
0200
0303
0000
0000
0001
0100
0000
0000
0010
1000
0000
0000
1000
,
0200
0000
1300
0000
0000
0000
1000
0000
0001
0000
0000
0010
0000
0000
0100
0000
,
1000
0000
1000
0001
0000
0001
0100
0000
0000
0000
0001
0000
1000
0001
1000
0000
,
0001
0100
0010
1000
0100
0100
0100
0010
,
0110
0000
1000
0000
1001
0000
0001
0000
0011
0000
0000
0000
0001
0100
0010
0200
,
0000
0000
0301
0000
0000
0001
0010
0100
2000
0000
0010
3010
0000
0000
0000
0000
,
0000
0000
0000
0000
0000
0000
0000
0000
2002
0000
3003
0000
1000
0001
0100
0020
,
0000
0000
1030
0000
0000
1000
0001
0010
0002
0000
0010
0013
0000
0000
0000
0000
,
0000
0000
0000
0000
0000
0000
0000
0000
0101
0000
0000
0000
0001
0100
0010
2000
,
0000
0000
3100
0000
0000
0100
1000
0010
0200
0000
0010
0310
0000
0000
0000
0000
,
0000
0000
0000
0000
0000
0010
0100
0000
0000
0000
0010
0000
1000
0001
0010
0001
,
0000
0011
0000
0000
0000
0000
0001
1000
0100
1000
0100
1000
0100
0000
1000
0000
,
1001
0000
0001
0100
0010
0000
0110
0000
1001
0000
0000
1000
0100
0000
0010
0000
,
0011
0000
1100
0000
1000
2000
0001
3002
,
0103
0000
0000
0110
0000
0000
0000
0010
0100
0000
0000
1000
0100
0000
0000
0010
,
0002
0000
0013
0000
0000
1000
0001
0100
0020
0000
0100
0130
0000
0000
0010
0000
,
1000
0000
0000
0001
0000
0000
0010
0100
0010
0000
0000
0001
1000
0100
0010
0002
,
0000
0000
0013
0000
0000
0001
0100
0010
2000
0000
0100
0200
0000
0000
0000
0000
,
3300
0000
0000
0000
;

//---------------dance-single - ----------------
#NOTES:
     dance-single:
     :
     Medium:
     5:
     0.298,0.340,0.171,0.209,0.000:
0000
0000
0000
0000
,
0000
0000
0001
1000
,
0000
0001
0100
0010
,
0000
0110
0100
0010
,
0000
1000
0010
0100
,
0000
1010
2000
3100
,
0000
1000
0001
0100
,
0000
0011
0100
0010
,
0000
0000
1000
0000
0001
1000
0001
1000
,
0001
1000
0001
0000
2002
0000
0000
0000
,
3003
0000
0010
0010
,
0000
0100
0020
1030
,
0000
1000
0100
0010
,
0000
1100
1000
0010
,
0000
0100
0001
1000
,
0000
0011
0000
1000
,
0000
0001
0200
0310
,
1000
0001
1001
0000
0001
0000
0000
0000
,
1000
0000
0010
1000
,
0100
0010
0001
0000
,
0100
0000
0010
1000
,
0100
0001
0100
0000
,
1000
0000
0010
0100
,
0001
0100
1000
0000
,
0100
0000
0000
0000
0001
0010
0100
1000
,
0200
0000
1300
0000
0010
1000
0010
1000
,
0020
0000
0000
0000
,
1000
0000
1030
0000
0001
0100
0001
0100
,
0002
0000
0000
0000
,
0010
0000
0013
0000
0010
0100
0010
0100
,
0020
0000
0030
0000
,
0100
0000
0010
0000
1000
0001
1000
0001
,
2000
0000
0001
0010
,
3100
0000
0011
0000
0001
0000
0100
0010
,
1000
0000
0000
1000
0200
0000
0300
0000
,
0000
0000
0000
0000
1001
0000
0001
0100
,
0010
0000
0000
0010
2000
0000
3000
0000
,
0000
0000
1100
0101
,
0002
0000
0003
0000
0001
0100
0000
0000
,
0000
0000
0000
0010
0000
0000
1000
0000
,
0001
0000
0000
0000
1000
0000
0001
0001
,
1000
1000
0001
0000
1001
0000
0001
0100
,
0020
0030
0200
0300
,
0000
0000
0000
0000
1010
0000
0010
1000
,
0200
0300
2000
3000
,
0000
0000
0000
0000
1020
0000
1030
0010
,
0200
0300
0020
0030
,
0000
0001
0000
1000
,
0001
0000
0000
0000
0001
1000
0001
0001
,
1000
1000
0001
1000
0001
0000
0001
0100
,
0010
0000
0100
0100
,
0100
0000
0100
0000
0110
0000
0010
1000
,
0200
0300
1100
0000
,
1000
0000
0000
0000
0101
0000
0001
0010
,
0200
0300
1100
0000
,
1000
0000
0000
0000
;

//---------------dance-single - ----------------
#NOTES:
     dance-single:
     :
     Easy:
     3:
     0.248,0.288,0.228,0.267,0.000:
0000
0000
0000
0000
,
0000
0000
0010
0000
,
0000
0010
1000
0001
,
0000
1001
0001
0001
,
0000
0100
0010
1000
,
0000
1100
2000
0200
,
3300
1100
0100
0010
,
0000
0011
0001
0001
,
0000
0100
0120
0100
,
0100
0130
2002
0000
,
3003
0000
0001
0001
,
0000
1100
0010
0010
,
0000
1001
0100
0100
,
0000
1010
0100
0100
,
0000
1010
0100
0100
,
0000
1001
0000
0010
,
0000
0000
0200
0001
,
0001
0301
0002
0000
,
0000
0000
0000
0003
0000
2000
0000
0000
,
0000
0000
0000
3000
0000
0020
0000
0000
,
0000
0000
0000
0030
0000
0200
0000
0000
,
0000
0000
0000
0300
0000
0020
0000
0000
,
0000
0000
0000
0030
0000
0200
0000
0000
,
0000
0000
0000
0300
0000
0002
0000
0000
,
0000
0000
0000
0003
1000
0000
0001
0000
,
0110
0110
0020
0000
,
0000
0030
0000
0000
,
1000
0001
1000
0000
0200
0000
0000
0000
,
0000
0000
0300
0000
,
0010
0001
0010
0000
0200
0000
0000
0000
,
0000
0300
0000
0000
,
0010
1000
0010
0000
0200
0000
0000
0000
,
0000
0300
0110
2002
,
0000
3003
0001
0100
,
1000
0000
1000
0100
,
0001
0000
0001
0010
,
1000
0000
1000
0010
,
0001
0000
1001
0000
,
0010
0000
0100
0010
,
0000
1000
0000
0001
,
0000
0000
0100
0100
,
0110
0101
0120
1000
,
2000
3030
2200
3300
,
0000
0000
1000
0010
,
0200
0300
0010
1000
,
0002
0003
0010
0010
,
0010
0000
0010
0001
,
0100
0000
0010
0000
,
1000
0000
1001
0010
,
1001
0100
0001
0100
,
1000
0000
2000
0100
,
3100
0000
1000
0100
,
0001
0000
0001
0010
,
0200
0300
1100
0000
,
0011
0000
0002
0000
,
0003
0000
0000
0000
;

//---------------dance-single - ----------------
#NOTES:
     dance-single:
     :
     Beginner:
     1:
     0.147,0.208,0.076,0.171,0.000:
0000
0000
0000
0000
,
0000
0000
0010
0000
,
0000
0000
0010
0000
,
0000
0000
1000
0000
,
0000
0000
0001
0000
,
0000
0001
2000
3000
,
0000
0000
0010
0000
,
0000
0000
1000
0000
,
0000
0000
0100
0000
,
0100
0000
0110
0000
,
0000
0000
0010
0000
,
0000
0000
0001
0001
,
0000
1000
0000
1000
,
0000
0010
0100
0100
,
0000
0010
0000
1000
,
0000
1001
0000
0010
,
0000
0000
0200
0000
,
0000
0300
0010
0000
,
0000
0000
1000
0000
,
0000
0000
0001
0000
,
0000
0000
0100
0000
,
0000
0000
0010
0000
,
0000
0000
1000
0000
,
0000
0000
0001
0000
,
0000
0000
1000
0001
,
1000
1000
2002
0000
,
3003
0000
0000
0000
,
0010
0000
0220
0000
,
0330
0000
0000
0000
,
0100
0000
2002
0000
,
3003
0000
0000
0000
,
1000
0000
2002
0000
,
0000
0000
3003
0000
,
0000
0000
0010
0000
,
0010
0000
0010
0010
,
0000
0000
1000
0000
,
1000
0000
1000
1000
,
0000
0000
0001
0000
,
0001
0000
0001
0001
,
0000
0000
0100
0000
,
0100
0000
0100
0100
,
0100
0100
0010
0000
,
0010
0000
0020
0030
,
0000
0000
1000
0000
,
1000
0000
2000
3000
,
0000
0000
0001
0000
,
0001
0000
0002
0003
,
0000
0000
0100
0000
,
0100
0000
0200
0000
,
0000
0000
0310
0010
,
0010
0000
2002
0000
,
0000
3003
0100
0100
,
0100
0000
0010
0000
,
1000
0000
2002
0000
,
0000
0000
0000
3003
;

//---------------dance-double - ----------------
#NOTES:
     dance-double:
     :
     Challenge:
     9:
     0.518,0.597,0.657,0.162,0.300: // measure 1
00000000
00000000
00000000
00000000
,  // measure 2
00000000
00000000
00101000
00000000
00010000
00000100
00000100
00001000
,  // measure 3
00000000
00000000
00000020
00000000
00000130
00000010
00001000
00000001
,  // measure 4
00000000
00000000
00001001
00000000
00000001
00000010
00000100
00001000
,  // measure 5
00000000
00000000
00000200
00000000
00010300
00001000
00100000
01000000
,  // measure 6
00000000
11000000
10020000
00130000
,  // measure 7
00000000
00000000
12000000
00000000
13000000
00100000
00010000
00100000
,  // measure 8
00000000
00000000
00101000
00000000
00100000
00001000
00010000
00000100
,  // measure 9
00000000
00000000
00001001
00000000
00000010
00000010
00001000
00001000
,  // measure 10
00000100
00000100
00010000
00010000
00022000
00000000
00000000
00033000
,  // measure 11
00000000
00000000
00110000
00000000
00010000
01000000
00100000
00100000
,  // measure 12
00000000
00000000
10010000
00000000
10000000
01000000
00010000
01000000
,  // measure 13
00000000
00000000
10010000
00000000
00100000
00001000
00010000
00000100
,  // measure 14
00000000
00000000
00000011
00000000
00000001
00000010
00000100
00000010
,  // measure 15
00000000
00000000
00000101
00000000
00000001
00000100
00000010
00001000
,  // measure 16
00000000
00000000
11000000
00000000
00100000
01000000
00010000
00100000
,  // measure 17
00001000
00000000
00010000
00000000
00200000
02300000
23000000
30200000
,  // measure 18
02300000
00000000
03020000
00000000
20000000
00000000
30030000
00000000
00000000
00000000
10000000
00000000
00000000
00010000
00000000
00000000
,  // measure 19
00001000
00000000
00000000
00000001
00000000
00000000
00001001
00000000
00000000
00000000
00000001
00000000
00000000
00001000
00000000
00000000
,  // measure 20
00010000
00000000
00000000
10000000
00000000
00000000
10010000
00000000
00000000
00000000
10000000
00000000
00000000
00010000
00000000
00000000
,  // measure 21
00001000
00000000
00000000
00000001
00000000
00000000
00001001
00000000
00000000
00000000
00001001
00000000
00000000
00000101
00000000
00000000
,  // measure 22
00001010
00000000
00000000
00001100
00000000
00000000
00010100
00000000
00000000
00000000
00000100
00000000
00000000
00010000
00000000
00000000
,  // measure 23
01000000
00000000
00000000
10000000
00000000
00000000
00100000
00000000
00000000
00000000
00100000
00000000
00000000
10000000
00000000
00000000
,  // measure 24
01000000
00000000
00000000
00010000
00000000
00000000
00000100
00000000
00000000
00000000
00000010
00000000
00000000
00000001
00000000
00000000
,  // measure 25
00000100
00000000
00000000
00000010
00000000
00000000
00010000
00000000
00001000
00100000
00010000
00100000
10000000
00100000
00010000
00000100
,  // measure 26
00001000
00000000
00000000
00000000
00001100
00000000
00000000
00000000
00000000
00000000
00001000
00000000
00000001
00000010
00000000
00000010
,  // measure 27
00000100
00000000
00000100
00001000
00000000
00000100
00010000
00000000
00000000
00000000
00010000
00000000
00001000
00100000
00000000
00100000
,  // measure 28
01000000
00000000
01000000
00100000
00000000
01000000
10000000
00000000
00000000
00000000
10000000
00000000
10000000
01000000
00000000
01000000
,  // measure 29
00100000
00000000
00100000
00010000
00000000
00100000
00001000
00000000
00000000
00000000
00010000
00000000
00000100
00001000
00000000
00000010
,  // measure 30
00000100
00000000
00000010
00001000
00000000
00001000
00000001
00000000
00000000
00000000
00001001
00000000
00000000
00010100
00000000
00000000
,  // measure 31
00011000
00000000
00000000
00101000
00000000
00000000
10010000
00000000
00000000
00000000
10010000
00000000
00000000
00101000
00000000
00000000
,  // measure 32
00011000
00000000
00000000
00001100
00000000
00000000
00000011
00000000
00000000
00000000
00000101
00000000
00000000
00001010
00000000
00000000
,  // measure 33
00001100
00000000
00000000
00010100
00000000
00000100
00010000
00000000
00000100
00010000
00000100
00010000
00001000
00010000
00001000
00100000
,  // measure 34
00020000
00000000
10030000
00000000
10000000
01000000
00010000
01000000
,  // measure 35
10000000
00000000
00100000
00000000
01000000
00000000
00010000
00000000
00100000
00000000
00010000
00100000
00000000
00000000
00000000
00000000
,  // measure 36
00000000
00000000
00000000
00000000
00001000
00000001
00000010
00000001
,  // measure 37
00000100
00000000
00000010
00000000
00001000
00000000
00000100
00000000
00000010
00000000
00000010
00000100
00000000
00000000
00000000
00000000
,  // measure 38
00000000
00000000
00000000
00000000
00000100
00010000
00001000
00100000
,  // measure 39
01000000
00000000
00100000
00000000
00001000
00000000
00010000
00000000
00000100
00000000
00010000
00001000
00000000
00000000
00000000
00000000
,  // measure 40
00000000
00000000
00000000
00000000
00000000
00010000
00100000
00000000
00000000
00000000
01000000
00000000
01000000
00100000
00010000
00200000
,  // measure 41
00000000
01300000
00000000
01000000
10000000
00100000
01000000
00010000
,  // measure 42
00110000
11000000
01010000
10100000
10010000
00000000
01010000
00000000
,  // measure 43
00101000
00010100
00010010
00001001
,  // measure 44
00000000
00000000
00001001
00001010
,  // measure 45
00010010
00010100
00101000
00101000
,  // measure 46
00000000
00000000
00110000
11000000
,  // measure 47
10100000
01010000
01001000
00011000
,  // measure 48
00000000
00000000
00011000
00001100
,  // measure 49
00011000
00000000
01010000
00000000
01010000
01000000
00001000
00011000
,  // measure 50
00010000
00000000
00000100
00000000
00001100
00000000
00000011
00000000
00000001
00000010
00000000
00000010
00000100
00001000
00000010
00010000
,  // measure 51
00000000
00000000
00000000
00000000
00000000
00001000
00010000
00000100
00100000
00000000
00100000
01000000
00000000
00000000
00000000
00000000
,  // measure 52
00000000
00000000
00000000
00000000
00000000
00000000
00000000
00000000
10000000
00000000
00000000
00000000
00010000
00100000
01000000
00100000
,  // measure 53
00000000
00000000
01010000
00000000
00000000
01000000
00001000
00010000
00000100
00000000
00000010
00000001
00000000
00000000
00000000
00000000
,  // measure 54
00000000
00000000
00022000
00000000
,  // measure 55
00000000
00000000
00033000
00000000
;
