#TITLE:Midnight of the North;
#SUBTITLE:;
#ARTIST:Sanxion7;
#TITLETRANSLIT:;
#SUBTITLETRANSLIT:;
#ARTISTTRANSLIT:;
#CREDIT:;
#BANNER:bn.png;
#BACKGROUND:bg.png;
#LYRICSPATH:;
#CDTITLE:PandemiXium-cdtitle.png;
#MUSIC:midnightofthenorth.ogg;
#OFFSET:-4.021;
#SAMPLESTART:36.020;
#SAMPLELENGTH:15.100;
#SELECTABLE:YES;
#BPMS:0.000=135.000;
#STOPS:;
#BGCHANGES:;

//---------------dance-single - ----------------
#NOTES:
     dance-single:
     :
     Hard:
     8:
     0.508,0.582,0.575,0.142,0.044:
0000
0000
0000
0000
,
0000
0000
0000
0000
,
1000
0100
0001
0100
0020
0000
0030
0100
,
0010
1001
0100
0110
,
1000
0001
0010
0001
0100
0000
0000
0000
,
0010
1001
1000
0011
,
0001
0100
0010
1000
0001
0000
0000
0000
,
1000
0011
1000
0101
,
0001
0100
0010
1000
0100
0000
0000
1000
,
0001
0011
0100
1010
,
1000
0100
0100
1000
0100
0000
0000
1000
,
0010
0000
0110
0000
0010
1000
0001
0010
,
0001
0010
0010
0001
0100
0000
0000
0010
,
0100
0000
1001
0000
0001
0100
0010
0100
,
0001
0010
0010
0001
1000
0000
0000
1000
,
0001
0000
0110
0000
1000
0001
0010
0001
,
0100
0010
0010
0100
0010
0000
0000
0100
,
0010
1001
1000
0011
,
0001
0100
0000
0010
1000
0001
0010
0001
,
0100
0100
0000
0010
0010
0000
0000
0010
,
1000
0001
0000
0001
1000
0100
0000
1000
,
0001
0100
0000
0001
0011
0000
1100
0000
,
1000
0100
0000
0100
0010
0001
0000
0010
,
0100
1000
0010
0100
0010
0001
0010
1000
,
0100
0010
0000
0001
0100
0110
0000
0010
,
1000
1001
0000
1000
0001
0011
1000
1100
,
1001
0101
0000
0001
0100
0100
0010
1000
,
0001
0000
0002
0000
0000
0000
0100
0000
0103
0000
0000
0000
0000
0000
0001
1000
,
0001
0000
1000
0000
0000
0000
1000
0100
0010
0001
0100
0000
0000
0000
0010
0100
,
0010
0100
0000
0010
1000
0001
0010
0001
,
0100
0010
0000
0010
1000
0100
0000
1000
,
0100
1000
0100
0000
1000
0100
0010
0000
0100
0010
0001
0000
0001
0100
0010
0000
,
1000
0000
0001
0000
0000
0000
0001
0000
0100
0000
0010
0000
0000
0000
0010
1000
,
0001
0000
1000
0000
0000
0000
0010
1000
0001
0000
0010
0000
1000
0000
0100
0000
,
0010
0000
0011
0000
0001
0100
0110
0000
,
0110
0000
1001
0000
0001
0100
1010
0000
,
1100
0000
0011
0000
0001
0010
0110
0000
,
1001
0000
1100
0000
0001
0100
0110
0000
,
0110
0000
1001
0000
0110
0110
0110
0000
,
1010
0000
0101
0000
1010
0101
1010
0000
,
1100
0000
0011
0000
1100
0011
1100
0000
,
1001
0000
0110
0000
1100
0010
0001
0010
,
0102
0000
0100
0000
0010
0013
0000
0000
,
0120
0000
1000
0000
0001
0031
0000
0000
,
0210
0000
1000
0000
0001
0301
0000
0000
,
0012
0000
0100
0000
0010
0013
0000
0000
,
0011
0000
2010
0000
0100
3100
0000
0000
,
1020
0000
0230
0000
0010
0310
0000
0000
,
0110
0000
1002
0000
1000
1003
0000
0000
,
1100
0011
0110
1001
,
1000
0001
0100
0001
0010
0001
0010
0001
,
0020
0001
0001
0031
,
0001
0100
0010
1000
0010
0100
1000
0100
,
0020
0001
0001
0031
,
0001
0100
0010
1000
0010
0100
1000
0020
,
0100
0100
0100
0130
,
0010
1000
0001
0010
0100
0001
0100
1000
,
1100
0000
0010
0000
0011
0000
0100
0001
,
0200
0000
0000
0020
0300
0000
2000
0000
,
0000
0000
0000
0000
0000
0000
0000
0000
0000
0000
0000
0000
0000
0000
0000
0000
0000
0000
0000
0000
0000
0000
0000
0000
0000
0000
0000
0000
0000
0000
0000
0000
0000
0000
0000
0000
0000
0000
0000
0000
0000
0000
0000
0000
0000
0000
0000
0000
0000
0000
0000
0000
0000
0000
0000
0000
0000
0000
0000
0000
0000
0000
0000
0000
0000
0000
0000
0000
0000
0000
0000
0000
0000
0000
0000
0000
0000
0000
0000
0000
0000
0000
0000
0000
0000
0000
0000
0000
0000
0000
0000
0000
0000
0000
0000
0000
0000
0000
0000
0000
0000
0000
0000
0000
0000
0000
0000
0000
0000
0000
0000
0000
0000
0000
0000
0000
0000
0000
0000
0000
0000
0000
0000
0000
0000
0000
0000
0000
0000
0000
0000
0000
0000
0000
0000
0000
0000
0000
0000
0000
0000
0000
0000
0000
0000
0000
3030
0000
0000
0000
0000
0000
0000
0000
0000
0000
0000
0000
0000
0000
0000
0000
0000
0000
0000
0000
0000
0000
0000
0000
0000
0000
0000
0000
0000
0000
0000
0000
0000
0000
0000
0000
0000
0000
0000
0000
0000
0000
0000
0000
0000
0000
;

//---------------dance-single - ----------------
#NOTES:
     dance-single:
     :
     Medium:
     5:
     0.348,0.397,0.381,0.150,0.000:
0000
0000
0000
0000
,
0000
0000
0000
0000
,
0001
0000
1000
0001
2000
0000
3100
0000
,
1000
1000
0001
0001
,
0100
0001
0100
0010
0200
0000
0310
0000
,
0100
0100
0010
0010
,
0010
0000
0010
1000
0010
0000
1000
0000
,
0001
0100
0010
1000
,
0100
1000
0100
0000
1000
0000
0001
0000
,
0100
0000
0010
0000
0010
1000
0001
0000
,
0001
0100
1000
0100
0001
0000
0000
0000
,
0001
0000
1000
0000
,
1000
0010
0001
0010
1000
0000
0000
0000
,
0001
0000
1000
0000
,
0001
0100
0010
0100
0001
0000
0000
0000
,
0100
0000
0010
0000
,
0010
1000
0100
1000
0010
0000
0000
0000
,
0110
0000
1001
0000
,
1000
0000
0001
0100
,
0010
0100
0000
0100
0010
0000
0000
0000
,
0110
0000
1100
0000
,
0011
0000
0101
1010
,
1001
0000
0001
0000
,
1000
1000
0001
0100
,
0010
0000
0000
0100
0010
0100
0000
0010
,
0100
0010
0000
0100
0010
0000
0100
0000
,
1001
1001
0000
0001
0100
0000
0010
0000
,
0100
0010
0000
0010
1000
0000
0000
1000
,
0000
0000
0000
0001
0100
0001
0000
0000
,
0100
0000
0110
1001
,
1100
0000
0000
1000
0001
0100
0000
0001
,
0100
0100
0010
0010
,
0100
0010
0000
0010
1000
0010
0000
1000
,
0100
0010
0000
0010
0001
0100
0010
1000
,
0001
0000
1001
0000
1000
0001
1000
0000
,
0100
0000
1100
0000
1000
0100
1000
0000
,
0011
0000
0101
0000
,
0110
0000
0010
1000
,
1001
0000
1000
0000
0001
0100
0010
0000
,
0100
0000
0110
0000
0010
1000
0001
0000
,
1001
0000
0000
0010
0100
0010
0000
0010
,
1000
0001
0000
0001
1000
0000
0100
0000
,
1200
0000
0000
0320
0000
0000
0002
0000
,
0033
0000
0000
0000
,
0021
0000
0000
0230
0000
0000
2000
0000
,
3300
0000
0000
0000
,
1020
0000
0000
0230
0000
0000
0002
0000
,
0303
0000
0000
0000
,
0012
0000
0000
0203
0000
0000
0020
0000
,
0330
0000
0000
0000
,
1001
0010
1001
0100
,
1001
0010
1001
0100
,
0101
0000
1010
0000
0001
0000
0110
0010
,
1000
1001
1000
0100
,
1100
0010
1100
0001
,
0101
0010
0101
1000
,
1001
0010
0110
0010
,
1001
1100
0011
0110
,
0020
0000
0000
2030
0000
0000
0200
0000
,
0000
0000
0000
0000
0000
0000
0000
0000
0000
0000
0000
0000
0000
0000
0000
0000
0000
0000
0000
0000
0000
0000
0000
0000
0000
0000
0000
0000
0000
0000
0000
0000
0000
0000
0000
0000
0000
0000
0000
0000
0000
0000
0000
0000
0000
0000
0000
0000
0000
3300
0000
0000
0000
0000
0000
0000
0000
0000
0000
0000
0000
0000
0000
0000
;

//---------------dance-single - ----------------
#NOTES:
     dance-single:
     :
     Easy:
     3:
     0.209,0.291,0.106,0.089,0.000:
0000
0000
0000
0000
,
0000
0000
0000
0000
,
0001
1000
0100
0000
,
1000
0000
0010
0000
,
0100
0001
0010
0000
,
1000
0000
0010
0000
,
0100
0010
1000
0000
,
0001
0000
0010
0000
,
0010
0001
0100
0000
,
0010
0000
1000
0000
,
0001
0001
0001
0000
,
1001
0000
0101
0000
,
0100
0100
0100
0000
,
0110
0000
1010
0000
,
0100
0100
0100
0000
,
0101
0000
1010
0000
,
0100
0100
0100
0000
,
0010
0000
1000
0000
,
0101
0000
0001
0100
,
0010
0000
1000
0000
,
0010
0000
0100
0000
,
0001
0000
0010
0100
,
1000
0000
0010
0000
,
0100
0001
0010
0001
,
0100
0000
1000
0000
,
0001
0000
0100
0001
,
0011
0000
0010
0100
,
1000
0000
0010
0000
,
0100
0000
0001
0000
,
0100
0000
1000
0100
,
0001
0000
0010
0000
,
0001
0100
0010
1000
,
0100
0000
1000
0000
,
0010
0000
0100
0001
,
0010
0001
0010
0000
,
0001
0100
0010
0000
,
0010
1000
0100
0000
,
1000
0010
0100
0000
,
1001
0000
0000
0000
0001
0100
0000
0000
,
0010
0000
0000
0000
1000
0010
0000
0000
,
1001
0000
0010
0000
,
1001
0000
0010
0000
,
2000
0000
0000
0000
0000
0000
0000
3000
,
0000
0000
0000
0000
,
0020
0000
0000
0030
,
0000
0000
0000
0000
,
0200
0000
0000
0300
,
0000
0000
0000
0000
,
0002
0000
0000
0003
,
0000
0000
0000
0000
,
1002
1000
1000
1000
,
1003
0001
0100
0010
,
2000
0010
0010
3010
,
1000
0100
1000
0010
,
0200
0001
0001
0301
,
0001
0010
0100
1000
,
0020
0100
0100
0130
,
0010
1000
0001
0010
,
0200
0000
0000
1000
0000
0000
0020
0000
,
0000
0000
0000
0330
;

//---------------dance-double - ----------------
#NOTES:
     dance-double:
     :
     Challenge:
     8:
     0.460,0.478,0.398,0.257,0.000:
00000000
00000000
00000000
00000000
,
00000000
00000000
00000000
00000000
,
10000000
01000000
00100000
01000000
20000000
00000000
30000000
00010000
,
00200000
00301000
00010000
00011000
,
00010000
00000100
00000010
00000001
00002000
00000000
00003000
00000010
,
00002000
00003100
00000100
00010100
,
00000100
00010000
00001000
00100000
02000000
00000000
03000000
00000000
,
10000000
11000000
20000000
30010000
,
00100000
01000000
00010000
00100000
00002000
00000000
00003000
00000000
,
00010000
00010100
00010000
00000110
,
00000001
00001000
00001000
00000100
00020000
00000000
00030000
00000000
,
00011000
00110000
01010000
10100000
,
10000000
01000000
01000000
00100000
00020000
00000000
00030000
00000000
,
00010000
00011000
00010000
00101000
,
00010000
00001000
00001000
00010000
00000020
00000000
00000030
00000000
,
00000100
00000101
00000110
00001010
,
00000010
00010000
00010000
00001000
00200000
00000000
00300000
00020000
,
01000000
00100000
10000000
01030000
,
01000000
00001000
00000000
00001000
00010000
00000010
00000100
00000001
,
00001000
00001000
00000000
00000100
00000100
00000000
00000000
00000100
,
00010000
00001000
00000000
00001000
00100000
00010000
00000000
00100000
,
00001000
00010000
00000000
00010000
00000100
00001000
00000100
00000010
,
00000100
00001000
00000000
00000001
00000010
00000100
00000000
00000001
,
00000010
00000100
00001000
00000100
00010000
00001000
00100000
00010000
,
01000000
10000000
00000000
10000000
01000000
00010000
00000000
00010000
,
01000000
00100000
00000000
00100000
10000000
00010000
00100000
01000000
,
10000000
10000000
00000000
10000000
00010000
00100000
00001000
00100000
,
00010000
00020000
00000000
00100000
00130000
00000000
00000000
00020000
,
01000000
01030000
00000000
20000000
01000000
31000000
00000000
02000000
,
00100000
03100000
00000000
00100000
00110000
00000000
00101000
00000000
,
00000100
00000100
00000000
00000100
00001000
00000010
00000000
00000010
,
00002000
00003100
00000200
00010300
,
00000100
00010000
00000000
00001000
00100000
00010000
00000000
00100000
,
00000100
00001000
00000000
00000100
00010000
00001000
00100000
00010000
,
01010000
00000000
10010000
00000000
01000000
10000000
11000000
00000000
,
10010000
00000000
00110000
00000000
00100000
00001000
00101000
00000000
,
00101000
00000000
00001100
00000000
00000100
00010000
00010100
00000000
,
00000110
00000000
00001001
00000000
00000001
00000100
00000101
00000000
,
00000101
00000000
00001010
00000000
00000010
00001000
00001100
00000000
,
00001100
00000000
00010100
00000000
00000100
00010000
00011000
00000000
,
00011000
00000000
00011000
00000000
00001000
00100000
00110000
00000000
,
00010000
01000000
01010000
00000000
10000000
00100000
10000000
01000000
,
00200000
00000000
00010000
00000000
00001000
00301000
00000000
00000000
,
00200000
00000000
00001000
00000000
00010000
00310000
00000000
00000000
,
00000200
00000000
00001000
00000000
00010000
00010300
00000000
00000000
,
00000200
00000000
00010000
00000000
00001000
00001300
00000000
00000000
,
00000020
00000000
00000100
00000000
00001000
00001030
00000000
00000000
,
00000200
00000000
00001000
00000000
00000010
00000310
00000000
00000000
,
00000020
00000000
00000000
00020030
00000000
00000000
00002000
00000000
,
00000000
00033000
00000000
00000000
,
00010000
00100000
00010000
01000000
00100000
10000000
01000000
00100000
,
00001000
00011000
00101000
00110000
,
00100000
00001000
00010000
00000010
00000100
00000010
00001000
00000100
,
00010000
00011000
00001000
01001000
,
00001000
01000000
00100000
01000000
00001000
00010000
00000010
00000100
,
00000001
00001100
00000010
00001001
,
00000001
00000100
00000010
00001000
00000100
00010000
00001000
00100000
,
00010000
00000000
00000000
00000000
,
02000000
00000000
00000000
00001000
00000000
00000000
00000200
00000000
,
00000000
00000000
00000000
00000000
,
03000300
00000000
00000000
00000000
;

//---------------dance-single - ----------------
#NOTES:
     dance-single:
     :
     Beginner:
     1:
     0.144,0.180,0.035,0.000,0.000: // measure 1
0000
0000
0000
0000
,  // measure 2
0000
0000
0000
0000
,  // measure 3
0001
0001
0001
0000
,  // measure 4
1000
0000
0000
0000
,  // measure 5
0010
0010
0010
0000
,  // measure 6
0100
0000
0000
0000
,  // measure 7
0001
0001
0001
0000
,  // measure 8
1000
0000
0000
0000
,  // measure 9
0010
0010
0010
0000
,  // measure 10
1000
0000
0000
0000
,  // measure 11
0100
0100
0100
0000
,  // measure 12
1000
0000
0000
0000
,  // measure 13
0010
0010
0010
0000
,  // measure 14
0100
0000
0000
0000
,  // measure 15
0001
0001
0001
0000
,  // measure 16
1000
0000
1000
0000
,  // measure 17
0010
0010
0010
0000
,  // measure 18
1000
0000
0001
0000
,  // measure 19
1001
0000
0010
0000
,  // measure 20
0010
0000
0100
0000
,  // measure 21
0010
0000
0010
0000
,  // measure 22
0100
0000
0010
0010
,  // measure 23
0010
0000
0100
0000
,  // measure 24
0010
0010
0010
0000
,  // measure 25
0100
0000
0100
0000
,  // measure 26
0100
0000
0100
0100
,  // measure 27
1001
0000
1000
0000
,  // measure 28
1000
0000
1000
0000
,  // measure 29
0001
0000
0001
0000
,  // measure 30
0001
0000
0001
0001
,  // measure 31
1000
0000
1000
0000
,  // measure 32
1000
1000
1000
0000
,  // measure 33
0001
0000
1000
0000
,  // measure 34
0001
0000
1000
0001
,  // measure 35
1001
0000
0000
0000
,  // measure 36
0010
0000
0000
0000
,  // measure 37
1000
0000
0000
0000
,  // measure 38
0001
0000
0000
0000
,  // measure 39
0100
0000
0000
0000
,  // measure 40
0010
0000
0000
0000
,  // measure 41
1000
0000
0000
0000
,  // measure 42
0001
0000
0001
0000
,  // measure 43
0001
0000
0001
0000
,  // measure 44
0000
0000
0000
0000
,  // measure 45
1000
0000
1000
0000
,  // measure 46
0000
0000
0000
0000
,  // measure 47
0010
0000
0010
0000
,  // measure 48
0000
0000
0000
0000
,  // measure 49
0100
0000
0100
0000
,  // measure 50
0000
0000
0000
0000
,  // measure 51
1000
1000
1000
1000
,  // measure 52
1000
0000
0000
0000
,  // measure 53
0001
0001
0001
0001
,  // measure 54
0001
0000
0000
0000
,  // measure 55
0010
0010
0010
0010
,  // measure 56
0010
0000
0000
0000
,  // measure 57
0100
0100
0100
0100
,  // measure 58
0100
0000
0000
0000
,  // measure 59
1001
0000
0000
0000
;
