#TITLE:Marie Antoinette;
#SUBTITLE:;
#ARTIST:Marguerite du Pre;
#TITLETRANSLIT:;
#SUBTITLETRANSLIT:;
#ARTISTTRANSLIT:;
#CREDIT:;
#BANNER:bn.PNG;
#BACKGROUND:bg.PNG;
#LYRICSPATH:;
#CDTITLE:kxlxj.png;
#MUSIC:Marie Antoinette.mp3;
#OFFSET:-3.177;
#SAMPLESTART:63.880;
#SAMPLELENGTH:19.500;
#SELECTABLE:YES;
#BPMS:0.000=215.000,98.000=205.000,380.000=248.000;
#STOPS:;
#BGCHANGES:;

//---------------dance-single - ----------------
#NOTES:
     dance-single:
     :
     Hard:
     9:
     0.553,0.668,0.220,0.251,0.000:
0000
0000
0000
0000
,
0000
0000
0000
0000
,
1000
0000
0001
0100
0010
0000
1000
0000
,
0010
0001
0010
0100
0010
0000
0001
0000
,
0010
0100
1000
0100
,
1000
0100
1000
0100
0010
0001
0010
0100
,
0010
1000
0001
0100
0010
0000
0200
0000
,
0000
0310
1000
0100
,
0010
0001
0010
0100
1000
0100
1000
0000
,
0000
0000
0000
0000
0010
1000
0010
1000
,
0010
0100
0010
0001
0010
0100
1000
0100
,
0010
0001
0010
0100
0010
1000
0001
1000
,
0000
0001
1000
0000
1000
0000
0100
0000
,
0010
0000
0001
0010
0000
0001
0010
0000
,
0001
0000
0010
0000
0100
0000
1000
0100
,
0000
1000
0100
0000
1000
0000
0100
0000
,
0010
0000
0001
0100
0000
0001
0100
0000
,
0010
0000
0100
0000
0010
0000
1000
0100
,
0000
0010
0001
0000
0100
0000
0010
0000
,
1000
0000
0020
0000
1030
0000
0001
0100
,
0001
0000
2000
0000
3010
0000
0010
0100
,
1000
0100
0010
0001
1000
0100
0010
0100
,
0001
0100
0010
0100
0010
1000
0001
0010
,
0200
0000
0000
0310
,
0000
0000
1000
1000
,
1000
1000
1000
1000
,
0001
0000
0100
0001
0100
0001
0100
0000
,
0000
0000
0000
0000
0001
0000
0001
0010
,
0100
1000
0100
0000
0000
0000
0000
0000
,
0010
0000
0010
0100
0001
0100
0001
0000
,
0000
0000
0000
0000
0001
0010
0100
1000
,
0100
0010
0001
0000
0000
0000
0000
0000
,
1010
0000
0010
0100
0010
0100
0110
0000
,
1001
0000
0000
0000
0001
0000
0001
0010
,
0100
1000
1100
0000
1100
0000
0000
0000
,
1100
0000
1000
0100
0010
0001
0011
0000
,
0011
0000
0000
0000
0001
1000
0001
1000
,
0010
0100
0020
0000
0000
0000
0000
0000
,
0130
0010
0000
1000
,
0001
0000
0001
0010
,
0000
0100
1000
0000
,
0100
0100
0000
0010
,
0010
0000
0200
0000
,
0000
2300
0000
0000
,
3020
0000
0000
0230
,
0000
0000
0302
0000
,
0000
2003
0000
0000
,
3100
0100
0000
0010
,
0010
0000
0001
0001
,
0000
1000
1000
0000
,
0020
0000
0000
2030
,
0000
0000
3002
0000
,
0000
0103
0000
0000
,
0001
0100
0001
0100
0010
0100
0020
0000
,
0000
0100
0230
0000
,
0000
0301
0000
0000
,
1000
0001
1000
0001
1000
0000
0020
0000
,
0100
0000
0130
0000
1000
0100
1000
0100
,
1000
0020
0100
0130
,
0010
0100
0010
0100
0010
0000
0200
0000
,
0001
0000
0301
0000
1000
0100
1000
0100
,
1000
0000
0010
0001
0010
0001
0010
0000
,
0001
0100
0001
0100
0001
0000
1000
0001
,
1000
0001
1000
0000
1000
0100
0010
0001
,
0010
0000
0001
0100
0001
0100
0001
0000
,
0001
1000
0001
1000
0001
0000
0010
1000
,
0010
1000
0010
0000
1000
0100
0010
0001
,
0010
0000
0001
1000
0010
0100
0001
0000
,
1000
0100
0010
0001
0010
1000
0001
0000
,
0000
0000
0000
0000
1000
0000
1000
0100
,
0010
0001
0010
0000
0000
0000
0000
0000
,
0001
0100
0001
0100
0001
1000
0001
0000
,
0000
0000
0000
0000
1000
0100
0010
0001
,
0010
0100
1000
0000
0000
0000
0000
0000
,
1000
0001
0100
0010
1000
0001
1000
0000
,
0000
0000
0000
0000
1000
0100
0010
0001
,
0010
0100
0101
0000
0101
0000
0000
0000
,
0001
0100
0010
0100
0010
1000
1010
0000
,
1010
0000
0000
0000
0001
1000
0001
1000
,
0010
1000
1010
0000
0110
0000
0000
0000
,
1000
0100
0010
0001
0010
0001
0011
0000
,
1100
0000
1000
0100
,
0010
0001
0000
0000
,
0110
1100
0011
0110
,
0000
0000
0000
0000
,
0000
0000
0000
0000
,
0002
0000
0000
0200
,
0003
0000
0020
0300
,
0000
2000
0030
0000
,
0200
3000
0000
0020
,
0300
0000
0002
0030
,
0000
2000
0003
0000
,
0020
3000
0000
0200
,
0030
0000
0020
0300
,
0000
2000
0030
0000
,
3001
0000
1000
0001
1000
0001
1000
0000
,
0100
0010
0001
1000
,
0001
0101
1100
0000
,
0000
0000
0010
1000
0010
1000
0010
0000
,
1001
0100
1000
0100
,
0010
0110
0110
0000
,
0000
0000
1000
0100
0010
0001
0010
0000
,
0100
0000
0010
0000
0001
1000
0010
1000
,
0100
0010
0100
0000
1100
0000
0000
0000
,
0000
0000
1000
0001
0010
0100
0010
0001
,
0200
0000
0310
0000
1000
0001
1000
0001
,
1000
0001
1001
0000
0110
0000
0000
0000
;

//---------------dance-single - ----------------
#NOTES:
     dance-single:
     :
     Medium:
     7:
     0.402,0.543,0.212,0.172,0.000:
0000
0000
0000
0000
,
0000
0000
0000
0000
,
0001
1000
0100
1000
,
0001
0010
0001
0100
,
0001
1000
0100
1000
,
0010
0100
0010
1000
,
0100
0010
0001
0000
,
0000
0000
1000
0010
,
0100
0010
1000
0100
,
0000
0000
1000
0010
,
0100
0100
0010
1000
,
0001
0000
0010
0000
0100
0000
1000
0100
,
0000
1000
0100
0000
1100
0000
0000
0000
,
0000
0000
0001
0010
0000
0001
0010
0000
,
0011
0000
0000
0000
0000
0000
0001
0100
,
0000
0001
0100
0000
0101
0000
0000
0000
,
0000
0000
0010
0100
0000
0010
0100
0000
,
0010
0000
0100
0000
0010
0000
0100
0010
,
0000
0010
0100
0000
0110
0000
0000
0000
,
0000
0010
1000
0010
,
0100
0001
0100
1000
,
0100
0001
0010
1000
,
0010
0001
0100
0010
,
2000
0000
0000
3000
,
0000
0000
0000
0000
,
0000
0000
0000
0000
,
0001
0100
0001
0100
,
0000
0000
0000
0000
0010
0000
0100
0010
,
0100
0010
0100
0000
0000
0000
0000
0000
,
0010
1000
0010
0100
,
0000
0000
0100
0010
,
1000
0001
0000
0000
,
1001
0001
0100
0110
,
0110
0000
0010
1000
,
0001
0011
1100
0000
,
1100
0010
0100
1001
,
0110
0000
0000
0000
1000
0100
0010
0001
,
0010
0001
0100
0000
0000
0000
0000
0000
,
0010
0010
0000
0100
,
0100
0000
0001
0001
,
0000
0010
0010
0000
,
0100
0100
0000
1000
,
1000
0000
0200
0000
,
0300
2000
0000
3000
,
0020
0000
0030
0200
,
0000
0300
0002
0000
,
0003
2000
0000
3000
,
0010
0010
0000
0100
,
0010
0000
0010
1000
,
0000
0001
0100
0000
,
0020
0000
0000
1000
,
0000
0000
0200
0000
,
0000
0330
0000
0000
,
0010
1000
0010
0100
,
0010
0000
1000
0000
0001
0000
0010
0001
,
0010
0000
0001
0000
0100
0001
0100
0000
,
0010
1000
0001
0100
,
0101
0101
0001
0100
,
0010
1000
1010
1010
,
0010
0100
0001
2000
,
0000
0000
3000
0000
0100
0000
1000
0100
,
1000
0000
0010
0000
0001
0010
0001
0000
,
0100
0000
0010
0100
0010
0000
0100
0000
,
0010
1000
0010
0000
0001
0000
0100
0001
,
0100
0000
0010
0000
1000
0010
1000
0000
,
0100
0000
1000
0100
1000
0000
0010
0000
,
0001
0010
0001
0000
0011
0000
0001
0100
,
0000
0000
0110
0000
0010
1000
0000
0000
,
0101
0000
0001
0100
0000
1000
0100
0000
,
0000
0000
1000
0000
,
0000
0010
0000
0000
,
0100
0000
0000
0001
,
0000
0000
0100
0000
,
0000
1000
0000
0000
,
0100
0000
0000
0001
,
0000
0000
0010
0001
,
0100
0010
1001
0000
,
0001
0100
0010
1000
,
0011
0000
0001
0100
,
0010
1000
0110
0000
,
0010
1000
0100
0010
,
1100
0000
0010
1000
,
0100
0010
0000
0000
,
0001
0010
0100
1000
,
0000
0000
0000
0000
,
0000
0000
0000
0000
,
0002
0000
0000
2003
,
0000
0000
3002
0000
,
0000
2003
0000
0000
,
3020
0000
0000
0230
,
0000
0000
0302
0000
,
0000
0023
0000
0000
,
0230
0000
0000
0320
,
0000
0000
0032
0000
,
0000
2003
0000
0000
,
3000
0100
1000
0010
,
0100
0001
0100
0010
,
1000
1001
1001
0000
,
0000
0001
0100
0010
,
0010
1000
0100
0100
,
1000
0010
0110
0000
,
0000
0010
1000
0100
,
0010
0001
0010
0001
,
0100
0010
1000
0000
,
0000
0001
0100
0010
,
1000
0000
0100
0000
0010
0001
0010
0001
,
0010
0001
0010
0000
1100
0000
0000
0000
;

//---------------dance-single - ----------------
#NOTES:
     dance-single:
     :
     Easy:
     5:
     0.289,0.459,0.063,0.055,0.000:
0000
0000
0000
0000
,
0000
0000
0000
0000
,
0010
1000
0000
1000
,
0100
0000
0010
0001
,
0010
0001
0100
0010
,
1000
0100
0010
0100
,
1000
0001
0100
0100
,
0000
0010
0010
0000
,
1000
0001
0100
0001
,
0000
0000
0001
1000
,
0010
0010
1000
0100
,
0010
0100
1000
0001
,
0000
0001
1000
0000
,
0000
0010
0000
0010
,
1000
0000
0000
0100
,
0000
1000
0100
0000
,
0000
0010
0000
0100
,
1000
0000
0000
0010
,
0000
0001
0100
0000
,
0000
0100
0010
1000
,
1000
0001
0010
0001
,
0100
0010
1000
0100
,
0100
1000
0010
1000
,
0020
0000
0000
0030
,
0000
0000
0000
0000
,
0000
0000
0000
0000
,
0001
0000
0000
1000
,
0000
0000
0010
0000
,
0000
1000
0000
0000
,
0100
0000
0000
0001
,
0000
0000
0100
0000
,
0000
1000
0000
0000
,
0010
1000
0100
0010
,
0010
0000
0001
1000
,
0001
0100
0100
0000
,
0001
0100
0001
0010
,
0010
0000
0100
1000
,
0010
2000
0000
3000
,
0001
0000
0000
1000
,
0000
0000
0100
0000
,
0000
1000
0000
0000
,
0010
0000
0000
0100
,
0000
0000
0001
0000
,
0000
1000
0000
0000
,
0010
0000
0000
1000
,
0000
0000
0001
0000
,
0000
0010
0000
0000
,
0100
1000
0000
0100
,
0010
0000
0010
0001
,
0000
0001
0010
0000
,
0020
0000
0000
0100
,
0000
0000
0200
0000
,
0000
0330
0000
0000
,
0001
1000
0100
1000
,
0000
0010
2000
0000
,
0000
0002
0000
3003
,
0001
0100
0010
1000
,
0100
0100
1000
0010
,
0100
0001
0100
0100
,
0010
1000
0001
2000
,
0000
3000
0001
0000
,
0000
1000
0000
0000
,
0010
1000
0100
1000
,
0010
0001
0100
0001
,
0100
0001
0010
0001
,
0010
0100
0010
0100
,
1000
0100
1100
0000
,
0000
0011
0000
0000
,
1001
0000
0000
0000
,
0000
0000
0010
0000
,
0000
0000
0000
0000
,
0100
0000
0000
0000
,
0000
0000
0001
0000
,
0000
0000
0000
0000
,
1000
0000
0000
0000
,
0000
0000
0001
0100
,
0010
1010
1010
0000
,
1000
0100
0010
0001
,
1100
0000
0001
0100
,
0010
1000
1001
0000
,
0001
0100
0010
1000
,
0000
0000
1000
1000
,
1000
1000
0000
0000
,
0001
0001
0001
0001
,
0000
0000
0000
0000
,
0000
0000
0000
0000
,
0100
0000
0000
0001
,
0000
0000
0100
0000
,
0000
0010
0000
0000
,
1000
0000
0000
0010
,
0000
0000
1000
0000
,
0000
0100
0000
0000
,
0010
0000
0000
0100
,
0000
0000
1000
0000
,
0000
0001
0000
0000
,
0000
0100
0001
0010
,
0001
0100
0010
1000
,
0100
1000
1000
0000
,
0000
0001
1000
0001
,
1000
0001
1000
0001
,
0100
0001
0010
0000
,
0000
0001
1000
0001
,
1000
0001
1000
0010
,
1000
0100
1000
0000
,
0000
1000
0100
1000
,
0010
0001
0100
0001
,
0010
0100
1100
0000
;

//---------------dance-single - ----------------
#NOTES:
     dance-single:
     :
     Beginner:
     2:
     0.151,0.208,0.149,0.102,0.000:
0000
0000
0000
0000
,
0000
0000
0000
0000
,
0001
0000
0000
0000
,
0000
0000
0010
0000
,
0000
0000
0000
0000
,
1000
0000
0000
0000
,
0000
0000
0100
0000
,
0000
0000
0000
0000
,
0010
0000
0000
0000
,
0000
0000
0001
0000
,
0000
0000
0000
0000
,
0010
0000
0000
0110
,
0000
0000
0000
0000
,
0000
0110
0000
0000
,
0000
0000
0000
1001
,
0000
0000
0000
0000
,
0000
1001
0000
0000
,
0000
0000
0000
0110
,
0000
0000
0000
0000
,
0000
0001
0000
0000
,
0000
0000
0000
0100
,
0000
0000
0000
0000
,
0000
1000
0000
0000
,
0000
0000
0000
0110
,
0000
0000
0100
0000
,
0000
0100
0000
0000
,
0001
0000
0000
1000
,
0000
0000
0010
0000
,
0000
0100
0000
0000
,
0010
0000
0000
1000
,
0000
0000
0100
0000
,
0000
0001
0000
0000
,
0110
0000
0000
0100
,
0000
0000
0110
0000
,
0000
0100
0000
0000
,
1001
0000
0000
0001
,
0000
0000
1001
0000
,
0000
0001
0000
0000
,
0100
0000
0000
0001
,
0000
0000
0100
0000
,
0000
0001
0000
0000
,
0010
0000
0000
0001
,
0000
0000
0020
0000
,
0000
0030
0000
0000
,
0020
0000
0000
0030
,
0000
0000
0200
0000
,
0000
0300
0000
0000
,
0200
0000
0000
0300
,
0000
0000
0002
0000
,
0000
0003
0000
0000
,
0002
0000
0000
0003
,
0000
0000
2000
0000
,
0000
3000
0000
0000
,
1000
0000
0000
0100
,
0000
0000
0010
0000
,
0000
0001
0000
0000
,
1000
0000
0000
0010
,
0000
0000
0100
0000
,
0000
0001
0000
0000
,
0010
0000
0000
0001
,
0000
0000
0100
0000
,
0000
0001
0000
0000
,
0100
0000
0000
0001
,
0000
0000
1000
0000
,
0000
0100
0000
0000
,
1000
0000
0000
0100
,
0000
0000
1000
0000
,
0000
0001
0000
0000
,
0100
0000
0000
0110
,
0000
0000
0100
0000
,
0000
0000
0000
0000
,
0010
0000
0000
0000
,
0000
0000
1000
0000
,
0000
0000
0000
0000
,
0001
0000
0000
0000
,
0000
0000
0110
0000
,
0000
0000
0000
0000
,
0110
0000
0000
0000
,
0000
0000
1001
0000
,
0000
0000
0000
0000
,
1001
0000
0000
0000
,
0000
0000
1000
0000
,
0000
0001
0000
0000
,
1000
0000
0000
0001
,
0000
0000
0000
0000
,
0000
0000
0000
0000
,
2000
0000
0000
3000
,
0000
0000
2000
0000
,
0000
3000
0000
0000
,
0002
0000
0000
0003
,
0000
0000
0002
0000
,
0000
0003
0000
0000
,
0200
0000
0000
0300
,
0000
0000
0200
0000
,
0000
0300
0000
0000
,
0100
0000
0000
0100
,
0000
0000
0100
0000
,
0000
0110
0000
0000
,
0010
0000
0000
0010
,
0000
0000
0010
0000
,
0000
0110
0000
0000
,
0001
0000
0000
0001
,
0000
0000
0001
0000
,
0000
1001
0000
0000
,
1000
0000
0000
1000
,
0000
0000
1000
0000
,
0000
1001
0000
0000
;

//---------------dance-double - ----------------
#NOTES:
     dance-double:
     :
     Easy:
     3:
     0.289,0.375,0.172,0.102,0.000:
00000000
00000000
00000000
00000000
,
00000000
00000000
00000000
00000000
,
00001000
00000000
00000000
00010000
,
00000000
00000000
01000000
00000000
,
00000000
00100000
00000000
00000000
,
01000000
00000000
00000000
00100000
,
00000000
00000000
10010000
00000000
,
00000000
00100000
00000000
00000000
,
00010000
00000000
00000000
00001000
,
00000000
00000000
00000100
00000000
,
00000000
00000010
00000000
00000000
,
00001000
00000000
00000000
00000011
,
00000000
00001000
00001100
00000000
,
00000000
00011000
00000000
01000000
,
01010000
00000000
00000000
01100000
,
00000000
10000000
10100000
00000000
,
00000000
00110000
00000000
00010000
,
00011000
00000000
00000000
00001100
,
00000000
00000010
00000110
00000000
,
00000000
00000001
00000100
00000001
,
00000100
00001000
00000100
00001000
,
00010000
01000000
00010000
01000000
,
10000000
01000000
10000000
00100000
,
10000000
00100000
00010000
00001000
,
00000000
00000000
00010000
00010000
,
00010000
00010000
00010000
00010000
,
00000010
00000000
00000000
00001000
,
00000000
00000000
00000001
00000000
,
00000000
00000100
00000000
00000000
,
00001000
00000000
00000000
00100000
,
00000000
00000000
00010000
00000000
,
00000000
01000000
00000000
00000000
,
10100000
00000000
00000000
10000000
,
00000000
00000000
11000000
00000000
,
00000000
01000000
00000000
00000000
,
01010000
00000000
00000000
00010000
,
00000000
00000000
00011000
00000000
,
00000000
00001000
00000000
00000000
,
00010000
01000000
00000000
01000000
,
10000000
00000000
01000000
00010000
,
00000000
00010000
00001000
00000000
,
00000010
00001000
00000000
00001000
,
00010000
00000000
20000000
00000000
,
30000000
00200000
00000000
00300000
,
02000000
00000000
03000000
00002000
,
00000000
00003000
00020000
00000000
,
00030000
00000200
00000000
00000300
,
00002000
00000000
00003000
00000020
,
00000000
00000030
00000200
00000000
,
00000300
00000002
00000000
00000003
,
00000020
00000000
00000030
00002000
,
00000000
00003000
00020000
00000000
,
00030000
00100000
00000000
00000000
,
00000000
10000000
10000000
00000000
,
00010000
00010000
00000000
00001000
,
00001000
00000000
00000001
00000001
,
00000000
00000010
00000010
00000000
,
00001000
00001000
00000000
00010000
,
00010000
00000000
00100000
00100000
,
00000000
10000000
10000000
00000000
,
00100000
01000000
00100000
00000000
,
10000000
00010000
00000000
10000000
,
01000000
00000000
01000000
00010000
,
00000000
00010000
00000010
00000000
,
00000010
00001000
00000000
00001000
,
00000001
00000000
00000001
00000010
,
00000000
00000010
00001000
00000000
,
00000000
00011000
00000000
00000000
,
01100000
00000000
00000000
10010000
,
00000000
00000000
01000000
00000000
,
00000000
00100000
00000000
00000000
,
10000000
00000000
00000000
00010000
,
00000000
00000000
00100000
00000000
,
00000000
00010000
00000000
00000000
,
00001000
00000000
00000000
00000100
,
00000000
00000000
00001000
00000000
,
00000000
00000011
00000000
00000000
,
00000001
00000000
00000000
00000101
,
00000000
00000000
00000100
00000000
,
00000000
00001100
00000000
00000000
,
00001000
00000000
00000000
00011000
,
00000000
00000000
00000001
00000010
,
00000100
00000100
00000000
00000000
,
00010000
00001000
01000000
01000000
,
00000000
00000000
00000000
00000000
,
00000000
00000000
00000000
00000000
,
00100000
00100000
01000000
00010000
,
00000000
00000000
10000000
01000000
,
01000000
00010000
00000000
00000000
,
00001000
00010000
00000100
00000100
,
00000000
00000000
00001000
00001000
,
00000100
00000010
00000000
00000000
,
00000001
00000100
00000100
00001000
,
00000000
00000000
00010000
00100000
,
10000000
10000000
00000000
00000000
,
01000000
01000000
01000000
10000000
,
10000000
10000000
00100000
00100000
,
00100000
00010000
00000000
00000000
,
00001000
00001000
00001000
00000010
,
00000010
00000010
00000001
00000001
,
00000001
00000100
00000000
00000000
,
00001000
00001000
00001000
00010000
,
00010000
00010000
01000000
01000000
,
01000000
00100000
00000000
00000000
,
10000000
10000000
10000000
00100000
,
00100000
00100000
00010000
00010000
,
00010000
00001000
00000000
00000000
;

//---------------dance-double - ----------------
#NOTES:
     dance-double:
     :
     Medium:
     5:
     0.497,0.543,0.423,0.510,0.000:
00000000
00000000
00000000
00000000
,
00000000
00000000
00000000
00000000
,
10000000
01000000
10000000
00010000
,
01000000
00010000
00100000
00001000
,
00010000
00001000
00000100
00000010
,
00000100
00000001
00001000
00000100
,
00001000
00000100
00000010
00000000
,
00000000
00000000
00000001
00000010
,
00000001
00001000
00000010
00001000
,
00000100
00010000
00001000
00010000
,
00100000
01000000
00100000
10000000
,
00010000
00100000
00010000
02200000
,
03300000
10000000
00100000
00010000
,
00100000
20020000
30030000
01000000
,
00010000
00001000
00010000
00022000
,
00033000
00000010
00001000
00000100
,
00000001
00000220
00000330
00000001
,
00000100
00001000
00010000
00022000
,
00033000
00100000
10000000
01000000
,
00100000
00001000
01000000
00100000
,
10000000
01000000
10000000
01000000
,
00100000
00001000
00010000
00001000
,
00000100
00001000
00010000
00001000
,
00000100
00000001
00000010
00001001
,
00000000
00000000
00000100
00000100
,
00000100
00000100
00000100
00000100
,
00000001
00000100
00001000
00020000
,
00100000
00030000
00100000
10000000
,
00100000
00020000
00001000
00030000
,
00001000
00000100
00000001
00000020
,
00001000
00000030
00001000
00010000
,
01000000
20000000
00000000
30000000
,
11000000
01000000
00010000
00011000
,
00011000
00000000
00001100
00000100
,
00000001
00000011
00000011
00000000
,
00001010
00001000
00010000
01010000
,
01010000
00000000
01100000
10000000
,
00010000
01100000
00000000
00000000
,
01000000
00010000
01000000
01100000
,
00001000
00010000
00001000
00000100
,
00001000
00010000
00100000
00010000
,
00001000
00000100
00000010
00001000
,
00000100
00000010
00002000
00000000
,
00003000
00000010
00000001
00001000
,
00000200
00000000
00000300
00010000
,
00001000
01000000
00200000
00000000
,
00300000
10000000
00100000
01000000
,
00020000
10030000
00000000
20000000
,
30010000
00000000
00020000
00031000
,
00000000
00002000
00003001
00000000
,
00000002
00000000
00000003
00000200
,
00000000
00000300
00002000
00000000
,
00000000
00103000
00000000
00000000
,
01000000
10000000
01000000
00000000
00010000
00000000
02020000
00000000
,
03030000
01000000
02200000
03300000
,
00010000
20020000
30030000
10000000
,
00100000
00010000
00001000
00000000
00010000
00000000
00022000
00000000
,
00000000
00033000
00000000
00000000
00001000
00000100
00000001
00000000
,
00001000
00000000
00002200
00000000
00000000
00003300
00000000
00000000
,
00000010
00001000
00010000
00000000
00001000
00000000
00022000
00000000
,
00033000
00000000
01000000
00000000
00200000
00000000
00300000
10000000
,
01000000
00200000
00300000
01000000
,
00020000
00000000
00030000
00001000
00010000
00000000
00002000
00000000
,
00003000
00000000
00000100
00000000
00000020
00000000
00000030
00001000
,
00000100
00000020
00000030
00001000
,
00020000
00000000
00030000
00001000
00000100
00000000
00000020
00000000
,
00000030
00001000
00002002
00003003
,
00000000
00022000
00033000
00000000
,
20020000
30030000
00000000
01100000
,
00000000
00000000
10000000
00100000
,
00010000
00000000
00002000
00000000
00010000
00010000
00013000
00000000
,
00000010
00001000
00000001
00000200
,
00000001
00000001
00000301
00000000
00000100
00000000
00001000
00000000
,
00100000
00000000
00020000
00000000
01000000
01000000
01030000
00000000
,
00100000
10000000
01000000
00020000
,
00001000
00001000
00031000
00000000
00011000
00000000
00001000
00000000
,
00000100
00000110
00000000
00000000
,
00000011
00000010
00010000
00011000
,
00000000
00000000
00110000
00010000
,
01000000
01100000
00000000
00000000
,
10100000
00100000
00010000
01100000
,
00000000
00000000
10000000
00010000
,
00001000
00000001
00000000
00000000
,
00000001
00001000
00010000
10000000
,
00000000
00000000
00000000
00000000
,
00000000
00000000
00000000
00000000
,
00010000
01000000
00200000
10000000
,
00000000
00000000
01000000
00000000
,
00000000
00300000
00010000
00001000
,
00000100
00000001
00000020
00001000
,
00000000
00000000
00000100
00000000
,
00000000
00000001
00000000
00000030
,
00001000
00010000
01000000
20000000
,
00000000
00000000
00100000
00000000
,
00000000
31000000
00000000
00000000
,
12000000
13000000
00000000
02010000
,
03010000
00000000
02100000
03100000
,
00000000
00012000
00013000
00000000
,
00002100
00003100
00000000
00000012
,
00000013
00000000
00000201
00000301
,
00000000
00001200
00001300
00000000
,
00000011
00000010
00001000
00011000
,
00010000
00100000
10100000
10000000
,
01000000
01100000
10010000
00000000
,
10100000
00100000
00010000
00011000
,
00001000
00000100
00000101
00000001
,
00000010
00001010
00011000
00000000
;

//---------------dance-double - ----------------
#NOTES:
     dance-double:
     :
     Hard:
     10:
     0.765,0.710,0.282,0.627,0.047: // measure 1
00000000
00000000
00000000
00000000
,  // measure 2
00000000
00000000
00000000
00000000
,  // measure 3
11000000
01000000
10000000
01000000
00010000
00000000
00010000
01000000
,  // measure 4
10000000
01000000
00010000
00000000
00001000
00000100
00000001
00000100
,  // measure 5
00001000
00000000
00000100
00000001
00000100
00000010
00000100
00000000
,  // measure 6
00001000
00010000
00100000
10000000
01000000
10000000
00010000
01000000
,  // measure 7
00100000
01000000
00001000
00010000
01000000
00000000
00000000
00000000
,  // measure 8
00000000
00000000
00000000
00000000
10000000
00100000
00010000
00100000
,  // measure 9
10000000
00010000
10000000
01000000
00010000
00001000
00000010
00000000
,  // measure 10
00000011
00000000
00001001
00000000
00000001
00000010
00001000
00010000
,  // measure 11
00001000
00000000
00000100
00000001
00000010
00001000
00010000
00100000
,  // measure 12
10000000
00100000
00010000
00001000
00000010
00000001
00001000
00000100
,  // measure 13
00000000
00001000
00000100
00000000
00001100
00000000
00010100
00000000
,  // measure 14
00011000
00000000
00010000
01000000
00000000
00010000
01000000
00000000
,  // measure 15
01010000
00000000
01001000
00000000
00011000
00000000
00100000
00010000
,  // measure 16
00000000
00100000
00010000
01000000
00100000
00000000
00110000
00000000
,  // measure 17
00011000
00000000
00000010
00001000
00000000
00000010
00001000
00000100
,  // measure 18
00000010
00000000
00001010
00000000
00011000
00000000
00010000
01000000
,  // measure 19
00000000
00010000
01000000
00100000
00010000
00000000
11000000
00000000
,  // measure 20
01100000
00000000
00100000
00010000
10000000
01000000
00100000
00000000
,  // measure 21
00100000
01000000
10000000
01000000
00010000
00000000
00000100
00001000
,  // measure 22
00000001
00000010
00001000
00000000
00001000
00000010
00000001
00001000
,  // measure 23
00000100
00000000
00000010
00000001
00001000
00000100
00000010
00000000
,  // measure 24
00000010
00000001
00000100
00001000
00010000
00001000
00100000
00000000
,  // measure 25
00000000
00000000
01000000
01000000
,  // measure 26
01000000
01000000
01000000
01000000
,  // measure 27
00100000
00000000
00000000
00000000
00010000
00000000
01000000
00010000
01000000
00000000
00100000
00000000
10000000
00000000
00000000
00000000
,  // measure 28
01000000
00000000
00000000
00000000
00000000
00000000
00000000
00000000
00100000
00000000
00000000
00000000
01000000
00000000
00010000
00001000
,  // measure 29
00010000
00001000
00000010
00000000
00000100
00000000
00000000
00000000
,  // measure 30
00000010
00000000
00000000
00000000
00000001
00000000
00000100
00000010
00000100
00000000
00001000
00000000
00010000
00000000
00000000
00000000
,  // measure 31
00000100
00000000
00000000
00000000
00000010
00000001
00000001
00000010
,  // measure 32
00001000
00000100
00000010
00000000
00000000
00000000
00000100
00000000
,  // measure 33
00001001
00000000
00000001
00000100
00001000
00010000
01100000
00000000
,  // measure 34
10100000
00000000
00000000
00000000
10010000
00000000
10000000
01000000
,  // measure 35
00010000
00001000
00000110
00000000
00000011
00000000
00000000
00000000
,  // measure 36
00001001
00000000
00000001
00000010
00001000
00010000
01100000
00000000
,  // measure 37
00110000
00000000
00000000
00000000
10000000
00100000
00100000
00010000
,  // measure 38
01000000
01000000
10000000
00000000
00000000
00000000
00000000
00000000
,  // measure 39
00100000
00010000
00001000
00000100
00000010
00000001
00000010
00000000
,  // measure 40
00010000
00001000
00100000
00010000
10000000
00100000
00010000
00001000
,  // measure 41
00000100
00000010
00000100
00001000
00010000
00100000
10000000
01000000
,  // measure 42
00010000
00001000
00000010
00000100
00000001
00000100
00010000
00001000
,  // measure 43
01000000
00100000
10000000
00100000
00020000
00000000
00032000
00000000
,  // measure 44
00003200
00000302
00000023
00002030
,  // measure 45
00023000
02030000
23000000
30200000
,  // measure 46
00320000
00032000
00003200
00000302
,  // measure 47
00000023
00002030
00023000
02030000
,  // measure 48
23000000
00000000
31000000
00010000
00001000
00000100
00000002
00000000
,  // measure 49
00000013
00001000
00010000
00100000
20000000
00000000
31000000
00010000
,  // measure 50
00001000
00000100
00000002
00000000
00000013
00001000
00010000
00100000
,  // measure 51
20000000
32000000
03020000
00030200
,  // measure 52
00000320
00002030
00003200
00000320
,  // measure 53
00020030
00130000
00000000
00000000
,  // measure 54
10000000
00000000
00000000
00010000
01000000
00000000
00200000
00000000
,  // measure 55
10300000
10000000
01000000
01000000
00010000
00000000
00000000
00001000
,  // measure 56
00010000
00000000
00002000
00000000
00003100
00000100
00000001
00000001
,  // measure 57
00000010
00000000
00000000
00000001
00000100
00000000
00000020
00000000
,  // measure 58
00001030
00001000
00000100
00000100
00000010
00000000
00000000
00000100
,  // measure 59
00010000
00000000
00002000
00000000
00103000
00100000
10000000
10000000
,  // measure 60
00100000
00000000
00000000
00010000
00100000
00000000
00020000
00000000
,  // measure 61
01030000
01000000
00100000
00100000
10000000
00100000
00010000
00001000
,  // measure 62
00000100
00000001
00000010
00000100
00000010
00010000
00000010
00001000
,  // measure 63
00000001
00000100
00001000
00000001
00000100
00001000
00010000
00100000
,  // measure 64
10000000
01000000
00100000
10000000
00100000
01000000
00010000
01000000
,  // measure 65
10000000
00100000
00010000
00000100
00001000
00000010
00000100
00000001
,  // measure 66
00000010
00001000
01000000
00100000
00010000
00100000
10000000
01000000
,  // measure 67
00100000
00010000
00001000
00000100
00000020
00000000
00002030
00000000
,  // measure 68
00203000
00320000
00030020
00002030
,  // measure 69
02003000
03200000
00320000
00032000
,  // measure 70
00003000
00000000
00000000
00000000
01000000
00010000
00100000
10000000
,  // measure 71
00100000
00010000
01000000
00000000
00000000
00000000
00000000
00000000
,  // measure 72
00001000
00000100
00001000
00010000
01000000
00010000
00001000
00000000
,  // measure 73
00000000
00000000
00000000
00000000
00000010
00001000
00000100
00000100
,  // measure 74
00000001
00000010
00000010
00000000
00000000
00000000
00000000
00000000
,  // measure 75
00000010
00000000
00001000
00000000
00100000
00000000
00010000
01000000
00010000
00000000
01000000
00000000
01000000
00000000
00000000
00000000
,  // measure 76
00000000
00000000
00000000
00000000
00010000
01000000
10000000
00000000
,  // measure 77
01000000
10000000
01000000
10000000
01000000
00000000
00000000
00000000
00100000
00000000
00000000
00000000
00000000
00000000
00000000
00000000
,  // measure 78
10000000
00000000
01000000
00000000
00010000
00000000
00000000
00000000
01000000
00010000
01000000
00010000
01000000
00000000
00000000
00000000
,  // measure 79
00010000
00000000
00000000
00000000
00001000
00000100
00000001
00000000
,  // measure 80
00001000
00000100
00001000
00000100
00001000
00000000
00000000
00000000
00000010
00000000
00000000
00000000
00000000
00000000
00000000
00000000
,  // measure 81
00001000
00000000
00000010
00000000
00000001
00000000
00000000
00000000
00001000
00000100
00001000
00000100
00001000
00000000
00000000
00000000
,  // measure 82
00000010
00000000
00000001
00000100
,  // measure 83
00010000
10000000
00000000
00000000
,  // measure 84
10100000
00110000
00001100
00000101
,  // measure 85
00000000
00000000
00000000
00000000
,  // measure 86
00000000
00000000
00000000
00000000
,  // measure 87
00000200
00000000
00002000
00000300
00020000
00003000
00200000
00030000
,  // measure 88
20000000
00300000
02000000
30000000
00020000
03000000
00002000
00030000
,  // measure 89
00000020
00003000
00000002
00000030
00000200
00000003
00002000
00000300
,  // measure 90
00020000
00003000
00200000
00030000
20000000
00300000
02000000
30000000
,  // measure 91
00020000
03000000
00002000
00030000
00000020
00003000
00000002
00000030
,  // measure 92
00000200
00000003
00002000
00000300
00020000
00003000
00200000
00030000
,  // measure 93
20000000
00300000
02000000
30000000
00020000
03000000
00002000
00030000
,  // measure 94
00000020
00003000
00000002
00000030
00000200
00000003
00002000
00000300
,  // measure 95
00020000
00003000
00200000
00030000
00000000
00300000
00000000
00000000
,  // measure 96
10000000
01000000
10000000
01000000
00100000
01000000
00100000
01000000
,  // measure 97
00010000
00001000
00010000
00001000
00000100
00000010
00000100
00000010
,  // measure 98
00000100
00000001
00000101
00000000
00001001
00000000
00000000
00000000
,  // measure 99
00000001
00000010
00000001
00000010
00000100
00000010
00000100
00000010
,  // measure 100
00001000
00010000
00001000
00010000
00100000
01000000
00100000
01000000
,  // measure 101
00100000
10000000
10100000
00000000
10010000
00000000
00000000
00000000
,  // measure 102
00100000
00010000
00001000
00000100
00001000
00010000
00100000
10000000
,  // measure 103
01000000
00010000
00001000
00000010
00001000
00010000
01000000
10000000
,  // measure 104
00100000
00010000
00011000
00000000
00011000
00000000
00000000
00000000
,  // measure 105
00000100
00001000
00010000
00100000
00010000
00001000
00000100
00000001
,  // measure 106
00000010
00001000
00010000
01000000
00010000
00001000
00000010
00000001
,  // measure 107
00000100
00001000
00011000
00000000
00011000
00000000
00000000
00000000
;
