#TITLE:Magical Sky;
#SUBTITLE:-Ryu Remix-;
#ARTIST:新谷さなえ;
#TITLETRANSLIT:;
#SUBTITLETRANSLIT:;
#ARTISTTRANSLIT:Sanae Shintani;
#CREDIT:;
#BANNER:bn.png;
#BACKGROUND:bg.png;
#LYRICSPATH:;
#CDTITLE:;
#MUSIC:Magical Sky -Ryu Remix- (1).mp3;
#OFFSET:-0.220;
#SAMPLESTART:26.680;
#SAMPLELENGTH:12.000;
#SELECTABLE:YES;
#BPMS:0.000=180.000;
#STOPS:;
#BGCHANGES:;

//---------------dance-single - ----------------
#NOTES:
     dance-single:
     :
     Hard:
     9:
     0.515,0.540,0.331,0.271,0.008:
0000
0000
0000
0000
,
0000
0000
0000
0000
,
0000
0000
0000
0000
,
0000
0000
0000
0000
,
0000
0000
0000
0000
,
0000
0000
0000
0000
,
0000
0000
0000
0000
,
0000
0000
0000
0000
,
0000
1100
0000
0000
,
0000
0101
0000
0000
,
0000
0000
1000
0001
0010
0001
0100
0010
,
1000
0100
1000
0010
0100
1000
1001
0000
,
0000
0000
1000
0000
0101
0000
0001
0100
,
0010
0000
0100
0000
0010
0000
0010
1000
,
0001
0010
0100
0000
1100
0000
1000
0001
,
0100
0020
0130
2000
,
3100
0000
0100
0000
0101
0000
0001
0010
,
0100
0010
0001
0000
1001
0000
0001
0100
,
0010
2000
3100
0020
,
0130
0000
1001
0000
0000
0000
0000
1000
,
0100
0010
0002
0000
0010
0013
0000
0001
,
0100
0010
0200
0000
0010
0310
0000
0010
,
1000
0100
2000
0000
3100
0000
0200
0000
,
0310
0000
0001
0010
0000
1100
0000
0101
,
0000
0000
0001
0100
0010
0010
0000
0010
,
1000
0001
0010
0100
1000
1000
0000
1000
,
0100
0010
0001
0000
0101
0000
0010
0000
,
1001
0000
0001
0100
0000
1100
0000
0101
,
0000
1000
0001
0010
,
0010
0100
1000
0001
,
0100
0010
1000
0000
0001
0000
0010
0000
,
0001
0000
0100
0000
0010
0000
1000
0001
,
0010
0001
0100
0000
0100
0000
0010
0000
,
1000
0100
0010
0100
,
1000
0001
0010
0000
0100
0000
0010
0000
,
0001
0100
0020
0000
0000
0000
0000
0000
,
0030
1000
1000
0001
,
0001
0000
0100
0000
0010
0000
0100
0010
,
1000
0100
0010
0000
0001
0000
0100
0000
,
0010
0000
0100
0000
0100
0000
0010
1000
,
0100
0010
0001
0000
0001
0000
0100
0000
,
0010
0000
1000
0001
0010
0000
0001
0000
,
0100
0000
0010
1000
0100
0000
0100
0010
,
0001
0000
0001
0100
0010
1000
0100
0000
,
1000
0000
2000
0000
0000
3002
0000
0000
,
0010
0000
0203
0000
0000
0010
0000
0000
,
1000
0020
0000
0330
,
0000
0000
1002
0000
0000
0020
0000
0000
,
0033
0000
0001
0100
0010
0100
0001
1000
,
0100
1000
0010
1000
0100
1000
0010
0100
,
0001
0020
0200
0000
0000
0000
0000
0000
,
0000
0330
0000
0100
,
0000
0000
1001
0000
0001
0100
0000
0010
,
1000
0100
0020
0000
0001
0031
0000
0001
,
0100
0010
1000
0000
1100
0000
0001
0000
,
0101
0000
0001
0200
0000
0010
0000
0301
,
0000
0000
1002
0000
0100
0103
0000
0001
,
0100
0010
0200
0000
0010
0310
0000
0010
,
1000
0001
0020
0000
0031
0000
0200
0000
,
0310
0000
0010
1000
0000
0101
0000
0110
,
0000
0010
1000
0100
0010
0100
0000
0100
,
1000
0001
0100
0010
1000
0100
0000
0100
,
1000
0001
0200
0000
0310
0000
2000
0000
,
3100
0000
1000
0002
0000
0010
0000
0013
,
0000
0000
0001
0010
0100
0010
0000
0010
,
0100
1000
0100
0010
0100
1000
0000
0001
,
0100
0010
1000
0000
0001
0000
0010
0000
,
0100
0000
1000
0100
0000
1001
0000
0101
,
0000
0000
0001
0000
0011
0000
0001
0100
,
0010
0100
0100
0010
,
0010
0000
1000
0000
1100
0000
1000
0001
,
0100
0002
0103
0020
,
0130
0000
0010
0000
1001
0000
1000
0001
,
0100
0010
0010
1000
,
0001
0010
0200
0000
1300
0000
1000
0001
,
0010
0100
2000
0000
0000
0000
0000
0000
,
0000
0000
3001
0100
0000
0010
0000
1000
,
0000
0001
0000
0101
0000
1100
0000
0101
,
0000
0110
0000
1000
0000
1000
0000
0001
,
0000
0001
0000
1001
0000
0110
0000
1001
,
0000
0110
0000
0001
0000
0100
0000
0010
,
0000
1000
0000
0101
0000
1010
0000
1100
,
0000
0011
0000
0100
0000
0100
0000
0010
,
0000
0000
1000
0000
0001
0000
0000
0100
0000
0000
0010
0000
0100
0000
0000
0001
,
0000
1000
2002
0000
0000
0000
0000
0000
,
3003
0000
0000
0000
;

//---------------dance-single - ----------------
#NOTES:
     dance-single:
     :
     Medium:
     7:
     0.424,0.468,0.271,0.093,0.000:
0000
0000
0000
0000
,
0000
0000
0000
0000
,
0000
0000
0000
0000
,
0000
0000
0000
0000
,
0000
0000
0000
0000
,
0000
0000
0000
0000
,
0000
0000
0000
0000
,
0000
0000
0000
0000
,
0000
1001
0000
0000
,
0000
0010
0000
0000
,
0000
0000
0010
0100
0010
0000
0100
0010
,
0100
0000
0010
1000
0001
0010
0100
0000
,
0000
0100
0100
1000
,
0010
0100
0001
0000
0001
0000
1000
0000
,
1000
0000
1010
0000
0101
0000
0001
0100
,
0010
0100
0100
0010
,
0010
0000
1001
0000
0101
0000
0001
0100
,
0010
0000
0100
0000
0100
0000
0010
1000
,
0100
0000
0100
0000
1010
0000
0010
1000
,
0100
2002
0000
3003
,
0000
0000
0001
0000
0100
0001
0000
0000
,
0100
0000
0010
0000
1000
0100
0000
0000
,
1000
0100
1000
0000
0100
0000
0010
0000
,
0001
0000
0100
0010
0000
1000
0000
0001
,
0000
0000
1000
0000
0001
0100
0000
0000
,
0010
0000
1000
0000
0100
0100
0000
0000
,
1000
1010
0001
0011
,
0100
0000
0010
0100
0000
1001
0000
0110
,
0000
0001
0100
0010
,
1000
0100
0100
1000
,
0010
0100
0010
0000
0000
0000
0010
0000
,
1000
0000
0001
0000
0010
0000
0100
0010
,
0001
0100
0010
0000
0010
0000
1000
0000
,
1000
0100
0010
0100
,
1000
0001
0010
1000
,
0010
0011
0000
0001
,
0000
0000
0101
0000
0010
0000
0100
0010
,
1000
0001
0000
0000
0000
0000
0001
0000
,
0100
0010
0100
0000
0000
0000
0010
0000
,
1000
0000
0100
0000
1000
0000
0010
0100
,
0001
0100
0010
0000
0010
0000
1000
0000
,
1000
0001
0100
0010
,
1000
0100
0100
1000
,
0010
0000
0110
0000
0000
1001
0000
0000
,
0000
0000
0001
0000
0000
0100
0000
0000
,
0010
0000
1000
0000
0000
0100
0000
0000
,
0010
0002
0000
0000
,
0000
0000
0010
0000
0000
0100
0003
0000
,
0000
0000
0010
0100
0010
0000
0001
1000
,
0001
0000
1000
0100
1000
0000
0010
0001
,
0010
0002
0000
0000
,
0000
0200
0000
0303
,
0000
0000
1001
0000
0001
0100
0000
0000
,
0010
0000
1000
0000
0100
0100
0000
0000
,
1000
1100
0010
0011
,
0100
0000
0010
0100
0000
1001
0000
0101
,
0000
0000
0001
0100
0010
1000
0000
0000
,
0000
0000
1000
0100
0010
0100
0000
0000
,
0000
1100
0010
0001
,
0100
0000
0001
0100
0000
0101
0000
1100
,
0000
0000
0001
1000
0001
1000
0000
0000
,
0010
0000
0100
0010
0100
0010
0000
0000
,
1000
0001
0100
0010
,
1000
0000
0100
0100
0000
1000
0000
0010
,
0000
0000
0100
0010
1000
0001
0000
0000
,
0000
0000
0001
0010
0100
1000
0000
0000
,
0000
1100
0010
0101
,
0010
0000
1000
0001
0000
0101
0000
1100
,
0000
0000
0001
0000
0100
0000
0010
1000
,
0100
0000
0100
0000
1100
0000
1000
0010
,
0100
0000
0010
1000
0001
0000
0001
0100
,
0001
0100
0010
0000
0010
0000
0010
0000
,
0010
0000
0110
0000
1001
0000
0001
0100
,
0010
0000
1000
0000
0100
0000
1000
0010
,
0100
0000
0010
1000
0001
0000
0001
0010
,
0100
2200
0000
0000
,
3300
0000
0000
1000
0000
0001
0000
0100
,
0000
0010
0000
1000
0000
0100
0000
1000
,
0000
0010
0000
0100
0000
0001
0000
0010
,
0000
0100
0000
1000
0000
0001
0000
0100
,
0010
1000
0000
0001
0000
0010
0000
0001
,
0000
0100
0000
1000
0000
0100
0000
0001
,
0000
0100
0001
0010
0000
0100
0010
0001
,
0000
0001
0200
0000
0310
0000
2000
0000
,
3100
0022
0000
0000
,
0033
0000
0000
0000
;

//---------------dance-single - ----------------
#NOTES:
     dance-single:
     :
     Easy:
     4:
     0.278,0.324,0.034,0.093,0.000:
0000
0000
0000
0000
,
0000
0000
0000
0000
,
0000
0000
0000
0000
,
0000
0000
0000
0000
,
0000
0000
0000
0000
,
0000
0000
0000
0000
,
0000
0000
0000
0000
,
0000
0000
0000
0000
,
0000
0010
0000
0000
,
0000
0010
0000
0000
,
0000
0010
1000
0100
,
0001
0100
1000
0001
,
0000
1000
1000
0001
,
0001
0100
0001
0010
,
0100
0010
0010
0001
,
0001
1000
0000
0001
,
0000
0100
0100
0010
,
0010
1000
0001
0100
,
0001
0010
0100
1000
,
0010
0202
0000
0303
,
0000
0001
0001
0001
,
0000
1000
1000
1000
,
0000
0010
0010
0100
,
0100
0010
1000
0100
,
0010
0001
0001
0001
,
0000
1000
1000
1000
,
0000
0010
0010
0100
,
0100
0010
1000
0001
,
0000
1000
0000
0001
,
0000
0100
0000
0010
,
0010
1000
0000
0100
,
0000
1000
0000
1000
,
0010
0100
0000
0001
,
0000
0100
0000
0010
,
0000
1000
0001
0010
,
0001
0200
0000
0000
,
0300
0001
0000
1000
,
0000
0010
0000
0100
,
0000
0100
0000
0010
,
0000
1000
0000
0001
,
1000
0100
0000
1000
,
0000
0010
0000
0100
,
0000
0001
1000
0100
,
1000
0020
0000
0000
,
0030
0200
0000
0000
,
0000
0001
0000
0000
,
0000
0002
0000
0000
,
0303
1001
0000
0000
,
0000
0020
0000
0000
,
0000
1000
0000
0000
,
0000
2030
0000
0000
,
0000
0200
0000
3300
,
0000
1000
1000
1000
,
0000
0010
0010
0010
,
0000
0100
0001
0010
,
0001
0100
0010
1000
,
0100
1000
1000
1000
,
0000
0010
0010
0010
,
0000
0010
1000
0100
,
1000
0010
0100
0001
,
0010
0100
0100
0100
,
0000
0010
0010
0010
,
0000
0010
0001
0100
,
0010
1000
1000
1000
,
0000
0001
0001
0001
,
0000
0100
0100
0100
,
0000
0010
1000
0100
,
0010
0001
0001
0001
,
0000
1000
0000
0001
,
0000
0100
0010
1000
,
0000
0001
0000
1000
,
0000
0100
1000
0010
,
0100
0001
0000
0001
,
0000
1000
1000
0010
,
0010
0100
0000
0001
,
0000
1001
0000
0000
,
0000
0010
0010
0010
,
0010
1000
1000
1000
,
1000
0001
0001
0001
,
0001
0100
0001
0010
,
0100
1000
0010
0100
,
0001
1000
0001
0100
,
0001
0010
0100
1000
,
0010
0100
0001
0010
,
0100
2200
0000
0000
,
3300
0000
0000
0000
;

//---------------dance-double - ----------------
#NOTES:
     dance-double:
     :
     Challenge:
     9:
     0.599,0.614,0.585,0.203,0.000: // measure 1
00000000
00000000
00000000
00000000
,  // measure 2
00000000
00000000
00000000
00000000
,  // measure 3
00000000
00000000
00000000
00000000
,  // measure 4
00000000
00000000
00000000
00000000
,  // measure 5
00000000
00000000
00000000
00000000
,  // measure 6
00000000
00000000
00000000
00000000
,  // measure 7
00000000
00000000
00000000
00000000
,  // measure 8
00000000
00000000
00000000
00000000
,  // measure 9
00000000
02000000
00000000
00000000
,  // measure 10
00000000
03020000
00000000
00000000
,  // measure 11
00000000
00000000
00130000
00001000
00010000
00000100
00001000
00000010
,  // measure 12
00000001
00000010
00001000
00000100
00010000
00001000
00100000
00000000
,  // measure 13
00000000
00000000
01010000
00000000
10010000
00000000
00010000
10000000
,  // measure 14
01000000
00010000
01000000
00000000
11000000
00000000
01000000
10000000
,  // measure 15
00100000
01000000
00010000
00000000
01010000
00000000
00010000
00000000
,  // measure 16
00110000
00000000
00100000
00001000
00010000
00000100
00001000
00000010
,  // measure 17
00000100
00000010
00001000
00000100
00000001
00000000
00000100
00000000
,  // measure 18
00001100
00000000
00001000
00000010
00000100
00000000
00000100
00000010
,  // measure 19
00001000
00000000
00000001
00000010
00000001
00000100
00001000
00010000
,  // measure 20
00001000
00000100
00000001
00000000
00000010
00000000
00000100
00000000
,  // measure 21
00001000
00000000
00001200
00000000
00010000
00010300
00000000
00001000
,  // measure 22
00100000
00010000
02000000
00000000
00100000
03100000
00000000
01000000
,  // measure 23
00010000
00010000
10010000
00000000
01010000
00000000
00110000
00000000
,  // measure 24
00011000
00000000
00010000
00000100
00000000
00001000
00000000
00000010
,  // measure 25
00000000
00000000
00001002
00000000
00000010
00000013
00000000
00000001
,  // measure 26
00001000
00000010
00000200
00000000
00000010
00000310
00000000
00001000
,  // measure 27
00000100
00010000
00011000
00000000
00101000
00000000
00110000
00000000
,  // measure 28
11000000
00000000
10000000
01000000
00000000
01100000
00000000
00110000
,  // measure 29
00000000
00100000
00001000
00000000
00110000
00000000
00100000
00010000
,  // measure 30
00000010
00001000
00000000
00000000
00001000
00000010
00000000
00000100
,  // measure 31
00000001
00001000
00001100
00000000
00000000
00000100
00010000
00001000
,  // measure 32
00000000
00010000
00000000
00001000
00000000
00001000
00100000
00010000
,  // measure 33
01000000
00100000
00000000
00000000
01000000
00100000
10000000
00000000
,  // measure 34
10000000
00010000
00100000
00000000
00010000
00100000
00001000
00010000
,  // measure 35
00000100
00001000
00000010
00000000
00000010
00000000
00000100
00000000
,  // measure 36
00000100
00000000
00000110
00000000
00000000
00001001
00000000
00000000
,  // measure 37
00000101
00000000
00000011
00000000
00000100
00000000
00001000
00000010
,  // measure 38
00000100
00000001
00001000
00000000
00000001
00000010
00000000
00000001
,  // measure 39
00000100
00000010
00001000
00000000
00000100
00010000
00001000
00100000
,  // measure 40
00000000
01000000
00000000
10000000
00000000
01000000
10000000
00100000
,  // measure 41
01000000
00010000
00100000
00000000
00010000
00100000
00010000
00000000
,  // measure 42
10000000
01000000
10000000
00000000
00100000
10000000
00100000
00000000
,  // measure 43
01000000
00010000
02000000
00000000
03010000
00000000
00200000
00000000
,  // measure 44
00301000
00000000
00011000
00000000
00000000
00000110
00000000
00000000
,  // measure 45
00000000
00000000
00000002
00000000
00000000
00000103
00000000
00000000
,  // measure 46
00000010
00000000
00002000
00000000
00000000
00003100
00000000
00000000
,  // measure 47
00001000
00002200
00000000
00000000
,  // measure 48
00003300
00000000
00001100
00000000
00000000
01010000
00000000
00000000
,  // measure 49
00000000
00000000
00010000
01000000
00100000
10000000
01000000
00010000
,  // measure 50
00001000
00000100
00000001
00000100
00001000
00000010
00000100
00000010
,  // measure 51
00001000
00000100
00010000
00001000
00100000
00010000
01000000
10000000
,  // measure 52
01000000
00010000
00200000
00000000
00000000
00000000
01300000
00000000
,  // measure 53
00000000
10010000
01010000
00110000
,  // measure 54
00010000
01000000
00100000
00000000
01100000
00000000
10010000
00000000
,  // measure 55
10000000
00010000
00200000
00000000
00310000
00000000
00000200
00000000
,  // measure 56
00010300
00101000
00011000
00001100
,  // measure 57
00000110
00000000
00000001
00000001
00001000
00001010
00000000
00000100
,  // measure 58
00000010
00000010
00000100
00000100
00000010
00001010
00000000
00000010
,  // measure 59
00001000
00000100
00020000
00000000
00031000
00000000
00002000
00000000
,  // measure 60
00103000
00000000
00010000
00100000
00000000
11000000
00000000
01010000
,  // measure 61
00000000
10000000
01000000
00100000
01000000
10000000
00000000
10000000
,  // measure 62
00010000
00100000
00001000
00010000
00000100
00001000
00000000
00001000
,  // measure 63
00000001
00000010
00000002
00000000
00000013
00000000
00000200
00000000
,  // measure 64
00000310
00000000
00000010
00000100
00000000
00001010
00000000
00001001
,  // measure 65
00000000
00001000
00000100
00010000
00001000
00100000
00000000
00100000
,  // measure 66
00010000
01000000
00100000
10000000
01000000
00010000
00000000
00010000
,  // measure 67
01000000
10000000
02000000
00000000
13000000
00000000
20000000
00000000
,  // measure 68
30100000
00000000
01100000
01100000
00000000
10010000
00000000
00110000
,  // measure 69
00000000
00100000
00001000
00010000
00000100
00000000
00000100
00010000
,  // measure 70
00001000
00000000
00010000
00000100
00001000
00000010
00000100
00000001
,  // measure 71
00000010
00001000
00000010
00000001
00000100
00000000
00000100
00000010
,  // measure 72
00001000
00000000
00000010
00001000
00000100
00010000
00001000
00100000
,  // measure 73
00010000
01000000
00100000
10000000
00010000
00000000
00010000
00100000
,  // measure 74
00010000
00000000
10000000
01000000
10000000
00100000
01000000
00010000
,  // measure 75
00100000
00001000
00010000
00000100
00001000
00000000
00001000
00000010
,  // measure 76
00000100
00000202
00000000
00000000
,  // measure 77
00000000
00000000
00000303
00001010
00000000
00000101
00000000
00001001
,  // measure 78
00000000
00001100
00000000
00010100
00000000
00011000
00000000
00101000
,  // measure 79
00000000
00011000
00000000
00110000
00000000
11000000
00000000
10010000
,  // measure 80
00000000
10100000
00000000
10000000
00010000
00100000
00001000
00010000
,  // measure 81
00000100
00001000
00000010
00001010
00000000
00001100
00000000
00011000
,  // measure 82
00000000
00110000
00000000
10010000
00000000
01100000
00000000
10010000
,  // measure 83
00000000
01100000
01000000
00010000
00100000
00001000
00010000
00000100
,  // measure 84
00001000
00000010
00000100
00000001
00000100
00001000
00010000
01000000
,  // measure 85
10000000
00010000
00200000
00000000
00000000
00000000
00000000
00000000
,  // measure 86
00000000
00300000
00000000
00000000
;

//---------------dance-single - ----------------
#NOTES:
     dance-single:
     :
     Beginner:
     2:
     0.185,0.252,0.059,0.025,0.000:
0000
0000
0000
0000
,
0000
0000
0000
0000
,
0000
0000
0000
0000
,
0000
0000
0000
0000
,
0000
0000
0000
0000
,
0000
0000
0000
0000
,
0000
0000
0000
0000
,
0000
0000
0000
0000
,
0000
0010
0000
0000
,
0000
0010
0000
0000
,
0000
0010
0000
0000
,
0000
0010
0000
0000
,
0000
1000
0000
0000
,
0000
1000
0000
0001
,
0000
0100
0000
0000
,
0000
0010
0000
0010
,
0000
0010
0000
0000
,
0000
1000
0000
1000
,
0000
1000
0000
0000
,
0000
1001
0000
0000
,
0000
0010
0000
0000
,
0000
0010
0000
0000
,
0000
0010
0000
1000
,
0000
0001
0001
0001
,
0000
1000
0000
0000
,
0000
0100
0000
0000
,
0000
1000
0000
1000
,
0000
0010
0010
0010
,
0000
0100
0000
0100
,
0000
0100
0000
0100
,
0100
0100
0000
0010
,
0000
0010
0000
0010
,
0010
0010
0000
1000
,
0000
1000
0000
1000
,
1000
0001
0000
0001
,
0000
0001
0000
0000
,
0000
0001
0000
0001
,
0000
1000
1000
1000
,
0000
0001
0000
0100
,
0000
0010
0010
0010
,
0000
0100
0000
0010
,
0000
1000
1000
1000
,
0000
0001
0000
1000
,
0000
0100
0000
0000
,
0000
0100
0000
0000
,
0000
0010
0000
0000
,
0000
0001
0000
0000
,
0000
1001
0000
0000
,
0000
1000
0000
0000
,
0000
0010
0000
0000
,
0000
0200
0000
0000
,
0000
0300
0000
0000
,
0000
0010
0000
0000
,
0000
1000
0000
0000
,
0000
0001
0000
0001
,
0000
0001
0001
0001
,
0000
1001
0000
0000
,
0000
0010
0000
0000
,
0000
0100
0000
0010
,
0000
1000
1000
1000
,
0000
1001
0000
0000
,
0000
0010
0000
0000
,
0000
0100
0000
0100
,
0000
0010
0010
0010
,
0000
0110
0000
0000
,
0000
0010
0000
0000
,
0000
1000
0000
1000
,
0000
1000
1000
1000
,
0000
0001
0000
0001
,
0000
0001
0001
0001
,
0000
1000
0000
1000
,
0000
1000
1000
1000
,
0000
0010
0000
0010
,
0000
0010
0010
0010
,
0000
0100
0000
0100
,
0000
0110
0000
0000
,
0000
0010
0000
0010
,
0000
0010
1000
0010
,
1000
0010
0000
0100
,
0000
0001
0100
0001
,
0100
0001
0000
0001
,
0000
0001
1000
0001
,
1000
0010
0000
0100
,
0000
0010
0010
0010
,
0010
2002
0000
0000
,
3003
0000
0000
0000
;
