#TITLE:ICE ICE BABY;
#SUBTITLE:;
#ARTIST:VANILLA ICE;
#TITLETRANSLIT:;
#SUBTITLETRANSLIT:;
#ARTISTTRANSLIT:;
#CREDIT:;
#BANNER:bn.png;
#BACKGROUND:bg.png;
#LYRICSPATH:;
#CDTITLE:;
#MUSIC:ICE ICE BABY.mp3;
#OFFSET:-0.746;
#SAMPLESTART:50.504;
#SAMPLELENGTH:12.000;
#SELECTABLE:YES;
#BPMS:0.000=115.700;
#STOPS:56.000=3.630
;
#BGCHANGES:;

//---------------dance-single - ----------------
#NOTES:
     dance-single:
     :
     Medium:
     6:
     0.307,0.385,0.201,0.247,0.000:
0000
0000
0000
0000
,
0000
0000
0000
0000
,
0000
0000
0000
0000
,
0000
0000
0000
0000
,
0010
0000
1001
0000
0100
0001
0010
0000
,
0100
0000
0100
0000
0100
0010
0000
0000
,
0001
0000
1010
0000
0100
0010
1000
0000
,
0002
0000
1000
0000
1000
1003
0000
0000
,
1100
0000
0000
0000
1000
0000
0001
0100
,
0010
0000
0100
0000
0010
1000
0001
0010
,
0100
0010
0000
0000
0001
0100
0010
0010
,
1000
0000
0001
0000
0010
0001
0100
0010
,
1000
0100
0110
0000
0000
0000
0010
0000
,
0001
0100
0010
0000
0100
0010
1000
0000
,
1001
0000
0202
0000
0303
0000
0100
0010
,
1000
0000
0001
0010
0100
0000
0100
0010
,
0001
0100
0110
0110
0000
0000
0010
1000
,
0100
0000
0100
1000
0100
1000
0010
0100
,
0001
0010
2000
0000
3010
0000
0010
0001
,
0101
0000
0010
1000
0100
0000
1000
0100
,
1100
0000
1000
0001
0010
0100
0010
0001
,
0100
0100
0001
0010
1000
0010
0001
0100
,
0010
0000
0110
0000
1001
0000
0001
0100
,
1000
0200
0000
0000
0000
0000
0300
0000
,
0000
0000
0001
0000
0100
0000
0010
1000
,
0200
0020
0000
0000
0300
0030
0000
0000
,
0000
0000
0011
0000
0110
0000
0010
0001
,
0200
0020
0000
0000
0030
0300
0000
0000
,
0000
0000
1100
0000
0110
0000
0001
0100
,
0020
0200
0000
0000
0030
0300
0000
0000
,
0000
0020
0000
0000
,
0000
2030
0000
0000
,
0000
3200
0000
0000
,
0000
0320
0000
0000
,
0000
0031
0000
0000
,
0001
0100
0020
0000
0000
0000
0000
0000
,
0030
0000
0220
0000
0000
0000
0030
0310
,
1000
0010
0200
0000
0000
0000
0000
0000
,
0300
0000
0010
0000
1000
0000
0001
0100
,
0010
0000
0100
0000
0010
0000
0100
0010
,
1000
0100
0010
0000
0011
0000
0001
0010
,
0100
0010
0002
0000
0103
0000
0010
1000
,
0200
0000
1300
0000
1100
0000
1000
0010
,
0100
0000
0010
0000
1001
0000
0001
0100
,
0010
0000
1000
0000
0101
0000
0001
0100
,
0010
2000
0200
0000
0000
0000
0000
0000
,
3300
0011
0000
0000
,
0001
0010
0200
0000
0000
0000
0000
0000
,
0000
0000
0020
0000
0000
0300
0000
0031
,
0010
0200
2000
0000
3300
0000
0000
0000
;

//---------------dance-single - ----------------
#NOTES:
     dance-single:
     :
     Hard:
     8:
     0.491,0.521,0.220,0.412,0.105:
0000
0000
0000
0000
,
0000
0000
0000
0000
,
0000
0000
0000
0000
,
0000
0000
0000
0000
,
1000
0000
0011
0000
0001
0100
0010
1000
,
0002
0000
2003
0000
3200
0020
0330
0000
,
0001
0010
0100
0010
0001
0100
0010
1000
,
2002
3003
0220
0330
2001
0002
3003
0000
,
0101
0000
0000
0001
0100
0010
1010
0101
,
0000
0001
1000
0100
0010
0100
1100
0110
,
0100
1000
0000
1000
0001
0010
0001
0100
,
0010
0000
1000
0010
0100
0000
0010
0000
1000
0000
0001
0000
0011
0000
1100
0000
,
1000
0001
0010
0100
0010
0000
0000
0000
0000
0000
0001
0000
1100
0000
0000
0000
,
1000
0001
0000
0001
0100
0000
0100
0010
0000
0010
1000
0000
1001
0000
0000
0000
,
0101
0000
0000
0000
0220
0000
0330
0000
0000
0000
0010
0100
0010
0000
1000
0000
,
0001
0010
0100
0010
0001
0100
0010
1000
,
0001
0010
1100
0011
0000
0001
0100
0010
,
1001
0000
0001
0001
1000
0100
0001
0100
,
1000
0000
0010
0000
0100
0010
0000
0010
1000
0001
0000
0001
0100
0010
0100
0000
,
1001
0000
0001
0100
1000
0100
0001
0010
,
1100
0000
0001
0000
1100
0000
1000
0100
,
0010
0100
1000
0000
0011
0000
0001
0100
,
0010
0000
1000
0000
0100
0000
0010
0000
0100
0000
1000
0100
0010
0000
0001
0000
,
0000
0000
0001
0000
0001
0000
0100
0000
0010
0000
0100
0010
1000
0000
0001
0000
,
0000
0000
0000
0000
0001
0000
1000
0000
0100
0000
0010
0001
0010
0000
0100
0000
,
0000
0000
0100
0000
1000
0000
0010
0000
0100
0000
0010
1000
0001
0000
0010
0000
,
0000
0000
0000
0000
0001
0000
0001
0000
0100
0000
0010
1000
0100
0000
0010
0000
,
0000
0000
0010
0000
0010
0000
0001
0000
1000
0000
0010
0001
0100
0000
0010
0000
,
0000
0000
0000
0000
0100
0000
0100
0000
0010
0000
0100
0010
1000
0000
0001
0000
,
0000
0000
1000
0000
1000
0000
0001
0000
0010
0000
0001
0010
0100
0000
1000
0000
,
0000
2002
0000
3003
,
0002
0203
0020
0000
0000
0000
0000
0300
,
0100
0000
0230
0000
0000
0000
0000
0320
,
2030
3200
0020
0000
0000
0000
0000
0300
,
0130
0000
0011
0001
0100
1000
0100
0001
,
0010
0001
0100
0010
1000
0100
0010
0100
,
1000
0001
0010
0001
0100
0010
1000
0100
,
0010
0100
1000
0001
0010
0001
0100
0010
,
1000
0001
0020
0130
1000
0100
0010
0100
,
2000
3020
0230
0301
0010
0001
0100
0010
,
1000
0100
0020
0130
1000
0001
0010
0200
,
2300
3020
0230
0301
1000
0100
0010
0100
,
1000
0001
0020
0130
0100
0010
0001
1000
,
0002
0000
0203
0000
0320
0000
1030
0000
0001
0000
0010
0000
0001
0000
0100
0010
,
0100
0010
2000
3001
0010
0001
0100
0020
,
2030
0000
3200
0000
0320
0000
0031
0000
0010
0000
0100
0000
0010
0000
0001
1000
,
0001
0100
0020
0000
0000
0000
0000
0000
,
1030
0010
0002
0000
0000
0000
0000
0013
,
1000
0100
0020
0000
0000
0000
0000
0031
,
0010
0200
2000
0000
3300
0000
0000
0000
;

//---------------dance-single - ----------------
#NOTES:
     dance-single:
     :
     Easy:
     2:
     0.179,0.204,0.064,0.238,0.000:
0000
0000
0000
0000
,
0000
0000
0000
0000
,
0000
0000
0000
0000
,
0000
0000
0000
0000
,
1000
0101
0000
0010
,
1000
1000
0001
0000
,
0010
1001
0000
0100
,
0010
0010
0010
0000
,
0101
0000
0001
1000
,
0000
1000
1000
0100
,
1000
0000
0010
0100
,
0001
1000
0000
0100
,
0022
0033
0000
0001
,
0100
0010
0000
1000
,
0000
1001
0000
0010
,
1000
0100
0000
0100
,
1000
1010
0000
0010
,
0100
0010
1000
0001
,
0010
1100
0000
0100
,
0000
0100
0010
0001
,
0010
0100
0000
0000
,
1000
0010
0100
0000
,
0001
1000
1000
0001
,
0200
0000
0000
0000
,
0300
0010
1000
0100
,
0020
0000
0002
0000
,
0033
0001
0100
1000
,
0200
0000
0000
0000
,
0300
0100
0001
0010
,
0200
0000
0020
0000
,
0330
0020
0000
0000
,
0000
0001
0000
0000
,
0000
0001
0000
0000
,
0000
0002
0000
0000
,
0033
0200
0000
0000
,
1000
1000
0000
0000
,
0000
1000
0000
0000
,
1000
2000
0000
0000
,
3300
2000
3001
0000
,
0001
0200
0301
0000
,
0010
0200
1300
0000
,
2000
0020
0000
0000
,
3030
0200
0000
0000
,
0302
0020
0000
0000
,
0033
0200
0000
0000
,
2300
0020
0000
0000
,
3030
0001
0000
0000
,
1000
0010
0000
0000
,
0100
0020
0000
0000
,
2030
0200
3300
0000
;

//---------------dance-double - ----------------
#NOTES:
     dance-double:
     :
     Challenge:
     8:
     0.422,0.498,0.357,0.128,0.041:
00000000
00000000
00000000
00000000
,
00000000
00000000
00000000
00000000
,
00000000
00000000
00000000
00000000
,
00000000
00000000
00000000
00000000
,
00100000
01000000
10000000
00010000
00100000
00001000
00000000
00010000
,
00010000
00000100
00001000
00000010
00000100
00000001
00000000
00000000
,
00000001
00001000
00000100
00001000
00000010
00000100
00000000
00000100
,
00000100
00000010
00001000
00000100
00010000
00001000
00000000
00000000
,
00011000
00000000
00001000
00010000
00000100
00010000
01100000
11000000
,
10000000
00000000
00010000
00000000
00100000
00010000
01100000
01100000
,
10000000
01000000
00000000
01000000
00100000
00001000
00010000
00000100
,
00001000
00000010
00000100
00000001
00000010
00001000
00000010
00000001
,
00000100
00000010
00001000
00000001
00000010
00000000
00000100
00000000
00000000
00000100
00001000
00000000
00001100
00000000
00000000
00000000
,
00000100
00010000
00000000
00001000
00100000
00000000
00100000
01000000
00000000
01000000
10000000
00000000
10010000
00000000
00000000
00000000
,
01010000
00000000
00022000
00000000
00033000
00000000
00010000
00000100
,
00001000
00000000
00001000
00000001
00000010
00000100
00000010
00000001
,
00000100
00000010
00001010
00000101
00000000
00000001
00000010
00000100
,
00001000
00000000
00000100
00010000
00001000
00010000
00100000
10000000
,
00100000
00010000
01010000
00000000
10010000
00000000
00100000
00100000
,
10010000
00000000
10000000
01000000
01100000
00100000
00010000
00100000
,
00101000
00000000
00100000
00001000
00010000
00000100
00001000
00000010
,
00000001
00000010
00001000
00000100
00010000
00001000
00010000
00100000
,
10000000
00100000
01010000
00000000
01010000
00000000
01010000
01010000
,
00020000
00200000
00000000
00000000
00000000
00000000
00330000
00000000
,
00000000
00000000
00101000
00000000
00010100
00000000
00001100
00001100
,
00002000
00000020
00000000
00000000
00003000
00000030
00000000
00000000
,
00000000
00000000
00000110
00000000
00000101
00000000
00000101
00000011
,
00000020
00000200
00000000
00000000
00000030
00000300
00000000
00000000
,
00000000
00000000
00001100
00000000
00001100
00000000
00001100
00010100
,
00000200
00020000
00000000
00000000
00000300
00030000
00000000
00000000
,
00000000
00011000
00000000
00000000
,
00010000
00000100
00001000
00000000
00000000
00000000
00000000
00000000
,
00000000
00000100
00010000
00000000
00000000
00000000
00000000
00000010
,
00001000
00000200
00020000
00000000
00000000
00000000
00000000
00000000
,
00030300
00000000
00000100
00010000
00001000
00100000
00010000
00100000
,
01000000
00000000
01000000
10000000
00100000
01000000
00010000
00100000
,
00001000
00000000
00010000
00000100
00001000
00000010
00000100
00000010
,
00001000
00000000
00001000
00000001
00000010
00000100
00000010
00000001
,
00000100
00000010
00001000
00000100
00001000
00000100
00010000
00001000
,
00101000
00000000
00010000
00100000
10000000
00100000
00010000
01000000
,
01010000
00000000
00010000
01000000
00100000
10000000
01000000
00100000
,
00110000
00000000
00100000
00001000
00010000
00000100
00001000
00000010
,
00001010
00000000
00000010
00001000
00000100
00000010
00000001
00000010
,
00000110
00000000
00000000
00000000
00000010
00000000
00000100
00000000
00001000
00000000
00000010
00000000
00000100
00000000
00000001
00000100
,
00000010
00001000
00000100
00010000
00001000
00010000
00100000
10000000
,
00100000
00000000
00010000
00000000
02000000
00000000
00000000
00000000
00100000
00000000
00000000
00000000
00100000
00000000
03100000
10000000
,
01000000
00100000
00110000
00100000
00001000
00010000
00000100
00001000
,
00000010
00000100
00000001
00000010
00001000
00000010
00000001
00000100
,
00000010
00001000
00000100
00000000
00000000
00000000
00000000
00000100
,
00010000
00001000
02000000
00000000
03000000
00000000
00000000
00000000
;

//---------------dance-single - ----------------
#NOTES:
     dance-single:
     :
     Beginner:
     1:
     0.099,0.158,0.046,0.000,0.000: // measure 1
0000
0000
0000
0000
,  // measure 2
0000
0000
0000
0000
,  // measure 3
0000
0000
0000
0000
,  // measure 4
0000
0000
0000
0000
,  // measure 5
0010
0000
0000
0000
,  // measure 6
1000
1000
1000
0000
,  // measure 7
0100
0000
0000
0000
,  // measure 8
0001
0001
0001
0000
,  // measure 9
1001
0000
0000
0010
,  // measure 10
0000
0000
0000
0100
,  // measure 11
0100
0000
0000
0010
,  // measure 12
0000
0000
0000
1000
,  // measure 13
1000
0000
0000
0000
,  // measure 14
0001
0000
0000
0000
,  // measure 15
0100
0110
0000
0000
,  // measure 16
0000
0010
0000
0000
,  // measure 17
0000
1001
0000
0000
,  // measure 18
0100
0000
0010
0000
,  // measure 19
0000
0010
0010
0100
,  // measure 20
0110
0000
0000
0000
,  // measure 21
1001
0000
1000
0000
,  // measure 22
1000
0000
0001
0001
,  // measure 23
0001
1000
0000
1000
,  // measure 24
0000
0000
0000
0000
,  // measure 25
0000
0001
0000
0001
,  // measure 26
0000
0000
0000
0000
,  // measure 27
0000
0100
0100
0100
,  // measure 28
0000
0000
0000
0000
,  // measure 29
0000
0010
0010
0010
,  // measure 30
0000
0000
0000
0000
,  // measure 31
0000
1000
0000
0000
,  // measure 32
0000
0001
0000
0000
,  // measure 33
0000
0100
0000
0000
,  // measure 34
0000
0010
0000
0000
,  // measure 35
0000
0010
0000
0000
,  // measure 36
1000
1000
0000
0000
,  // measure 37
0000
0001
0000
0000
,  // measure 38
0100
0100
0000
0000
,  // measure 39
0000
0010
0000
0000
,  // measure 40
1000
1000
0000
0000
,  // measure 41
0001
0001
0000
0000
,  // measure 42
0100
0100
0000
0000
,  // measure 43
0000
0010
0000
0000
,  // measure 44
1000
1000
0000
0000
,  // measure 45
0000
0001
0000
0000
,  // measure 46
1000
1000
0000
0000
,  // measure 47
0000
0010
0000
0000
,  // measure 48
1000
0001
0000
0000
,  // measure 49
0000
0100
0000
0000
,  // measure 50
0010
0010
0000
0000
;
