#TITLE:Hyper Boundary Gate;
#SUBTITLE:;
#ARTIST:L.E.D. Light;
#TITLETRANSLIT:;
#SUBTITLETRANSLIT:;
#ARTISTTRANSLIT:;
#CREDIT:;
#BANNER:bn.png;
#BACKGROUND:bg.png;
#LYRICSPATH:;
#CDTITLE:Beatmania IIDX.png;
#MUSIC:220-hyper_boundary_gate.mp3;
#OFFSET:-0.392;
#SAMPLESTART:25.660;
#SAMPLELENGTH:12.000;
#SELECTABLE:YES;
#DISPLAYBPM:152.000;
#BPMS:0.000=152.000;
#STOPS:;
#BGCHANGES:0.000=HGBBGA.avi=1.000=1=0=1,
296.021=bg.png=1.000=0=0=1,
99999=-nosongbg-=1.000=0=0=0 // don't automatically add -songbackground-
;

//---------------dance-single - ----------------
#NOTES:
     dance-single:
     :
     Hard:
     7:
     0.368,0.516,0.057,0.194,0.008:
0000
0000
0000
0000
,
0000
0000
0000
0000
,
0000
0000
0000
0000
,
0000
0000
0000
0000
,
0000
0000
0000
0000
,
0001
1000
0010
1000
,
0100
1000
0010
0100
,
0010
0010
0100
0010
,
1000
0000
0000
0001
0000
0000
0010
0000
0000
0001
0000
0000
0100
0000
0010
0000
,
1000
0000
0100
1000
0000
0010
0000
0100
,
0000
0001
0000
0001
0000
0100
0000
0001
,
0100
1000
0100
0000
0000
0100
0000
0010
,
0000
1000
0000
0100
0000
1000
0000
0010
,
1000
0010
0100
1000
0000
0100
0000
0100
,
0000
0010
0000
0010
0000
0100
0000
0010
,
1000
0001
0010
0000
0000
0001
0000
0010
,
0200
0000
0000
0300
,
0010
0001
0010
0000
0100
0010
0100
0000
,
0010
0001
1000
0010
,
0100
1000
0100
0000
0100
0010
1000
0000
,
0100
0100
0010
0001
,
0001
1000
0100
0000
0001
1000
0010
0000
,
1000
1000
0001
0100
,
0001
0100
0010
0000
0001
0100
0010
0000
,
0010
0100
0010
1000
,
0001
1000
0020
0000
1000
1000
1030
0000
,
1000
0100
1000
0010
,
0100
0001
0020
0000
0100
0100
0130
0000
,
0010
1000
0100
1000
,
0100
1000
0010
0000
0010
0100
0002
0000
,
0010
0100
0010
0103
,
0001
0100
0010
0000
0010
0100
1000
0000
,
0100
0010
0100
0001
1000
0010
0001
0010
,
0200
0000
0000
0000
,
0000
0000
0300
0000
,
2000
0000
0000
0000
,
0002
0000
0000
3003
,
0020
0000
0000
0000
,
0000
0000
0000
0030
,
2000
0000
0000
0000
,
0200
0000
0000
3300
,
0001
1000
0001
0100
,
0001
1000
0001
0100
,
0001
0100
0010
1000
,
0100
0001
0100
1000
,
0010
1000
0010
0000
1000
0000
0010
0000
,
0001
0010
1000
0001
,
1000
0001
0100
0001
,
0010
0100
1000
0100
,
0011
0000
0000
0000
,
0000
0000
0000
0000
,
0110
0000
0000
0000
,
0000
0000
0000
0000
,
1001
0001
0100
0010
,
1010
1000
0100
0010
,
0011
0100
1100
0010
,
2002
0000
0000
3003
,
0001
0100
0010
0000
0001
0100
0010
0000
,
0200
0310
0020
1030
,
1000
0001
0100
0000
0001
1000
0010
0000
,
2000
3100
0020
0031
,
0001
0100
0010
0000
0010
1000
0100
0000
,
2000
3100
0020
0130
,
0010
0001
0100
0000
0100
0010
1000
0000
,
0002
1003
2000
3100
,
1000
0100
0010
0001
0100
0001
1000
0000
,
0002
0100
0100
0103
,
0001
0100
0010
1000
0100
1000
0010
0100
,
0002
0100
0010
0103
,
0001
0100
0010
1000
0100
1000
0010
0100
,
0010
1000
0001
0010
0100
1000
0100
0010
,
0001
0010
0100
0001
1000
0010
0100
1000
,
0100
0010
1000
0100
0010
0001
0100
0010
,
2000
0000
0000
0000
,
0002
0000
0000
0000
,
3003
0000
0000
0000
;

//---------------dance-single - ----------------
#NOTES:
     dance-single:
     :
     Medium:
     5:
     0.341,0.394,0.162,0.186,0.008:
0000
0000
0000
0000
,
0000
0000
0000
0000
,
0000
0000
0000
0000
,
0000
0000
0000
0000
,
0000
0000
0000
0000
,
0001
0100
0010
0100
,
0100
0010
1000
0001
,
0100
1000
0100
0001
,
0011
0000
0000
0001
0000
0000
0100
0000
0000
0010
0000
0000
1000
0000
0001
0000
,
0010
0000
0100
1000
0000
0100
0000
1000
,
0000
0100
0000
1000
0000
0100
0000
1000
,
0200
0000
0310
0000
0000
0100
0000
0010
,
0000
0100
0000
0010
0000
0100
0000
0100
,
0010
0000
0001
0010
0000
0001
0000
0001
,
0000
0001
0000
0001
0000
0001
0000
0001
,
0100
0010
1000
0000
0000
0010
0000
0000
,
2002
0000
0000
3003
,
0001
0100
0010
1000
,
0100
0000
1000
0000
0010
0100
0001
0000
,
1000
1000
0001
0001
,
1000
0001
0100
0000
0100
0010
1000
0000
,
0100
0100
0010
0010
,
0010
0001
0100
0000
0010
1000
0100
0000
,
1000
1000
0001
0001
,
0100
0010
1000
0000
1000
0100
0010
0000
,
0001
0100
0010
0000
0010
1000
0010
0000
,
1000
1000
0001
0001
,
1000
0001
0100
0000
0100
0001
0010
0000
,
0100
0100
1000
1000
,
1000
0010
0100
0000
0100
0010
1000
0000
,
0001
1000
0100
0010
,
0010
0100
1000
0000
1000
0100
0010
0000
,
1000
0100
0010
0001
1000
0100
0010
0001
,
0200
0000
0000
0000
,
0000
0000
0300
0000
,
0020
0000
0000
0030
,
2000
0000
0000
3000
,
0002
0000
0000
0000
,
0000
0000
0000
0003
,
0200
0000
0000
0000
,
0020
0000
0000
0330
,
0000
0110
0000
1010
,
0000
0011
0000
1100
,
0000
0101
0000
1001
,
0000
1010
0000
0110
,
0100
0101
0000
1010
,
0000
1001
0000
1100
,
0000
0011
0000
0110
,
2002
0000
0000
3003
,
0002
0000
0000
0000
0103
0010
2000
0000
,
0000
0000
0000
3000
,
1020
0000
0000
0000
1030
0010
0100
0002
,
0000
0000
0000
0003
,
1002
0000
0000
0000
1003
0010
0100
0001
,
0020
0000
0000
0030
,
0210
0000
0010
0000
,
0020
0000
0000
0330
,
0010
0010
0100
0100
,
0010
1000
0001
0100
,
0010
0010
0100
0100
,
0010
0000
1000
0000
0001
1000
0010
1000
,
0100
0100
1000
1000
,
0010
0100
0001
0010
,
0200
0310
0020
0031
,
0100
0010
1000
0001
,
1000
0001
0100
0000
0001
1000
0100
0000
,
1000
1000
0001
0001
,
0100
0010
0001
0000
0010
0100
0001
0000
,
0100
0100
0010
1000
,
0010
1000
0100
0000
0010
1000
0001
0000
,
0001
0100
0010
1000
,
0010
0100
0001
0000
0001
0100
0010
0000
,
0010
1000
0100
0010
0100
1000
0010
0001
,
0200
0000
0000
0000
,
0002
0000
0000
0303
;

//---------------dance-double - ----------------
#NOTES:
     dance-double:
     :
     Challenge:
     7:
     0.431,0.480,0.259,0.413,0.008:
00000000
00000000
00000000
00000000
,
00000000
00000000
00000000
00000000
,
00000000
00000000
00000000
00000000
,
00000000
00000000
00000000
00000000
,
00000000
00000000
00000000
00000000
,
01010000
01000000
00100000
10000000
,
01000000
00000000
10000000
00000000
00100000
00000000
01000000
00010000
,
00100000
00001000
00010000
00000100
,
00000100
00000000
00000000
00001000
00000000
00000000
00000001
00000000
00000000
00000010
00000000
00000000
00000100
00000000
00001000
00000000
,
00001010
00000000
00000100
00000020
00000000
00000100
00000000
00000100
,
00000000
00000100
00000000
00000100
00000000
00000100
00000000
00000130
,
00000001
00001000
00000200
00000000
00000000
00010000
00000000
00010000
,
00000000
00010000
00000000
00010000
00000000
00010000
00000000
00010300
,
00001000
00100000
00010000
02000000
00000000
00100000
00000000
00100000
,
00000000
00100000
00000000
00100000
00000000
00100000
00000000
03100000
,
01000000
00100000
20000000
00000000
00000000
31000000
00000000
01000000
,
20020000
00000000
00000000
30030000
,
00010000
01000000
00100000
00000000
00010000
01000000
00100000
00000000
,
01000000
01010000
00010000
00110000
,
00100000
00001000
00010000
00000000
00001000
00100000
00010000
00000000
,
00100000
00101000
00010000
00011000
,
00010000
00000100
00001000
00000000
00001000
00000100
00010000
00000000
,
00010000
00010100
00001000
00001100
,
00001000
00000010
00000100
00000000
00001000
00000010
00000100
00000000
,
00000110
00000110
00001001
00001001
,
00000001
00000001
00000002
00000000
00000010
00000010
00000010
00000000
,
00000023
00000031
00000200
00000310
,
00000100
00000100
00000200
00000000
00000010
00000010
00000310
00000000
,
00000020
00001030
00000200
00010300
,
00000100
00000100
00000200
00000000
00010000
00010000
00010000
00000000
,
00020300
00031000
00002000
00103000
,
01000000
01000000
02000000
00000000
00100000
00100000
00100000
00000000
,
03200000
01300000
00200000
00310000
,
22000000
00000000
00000000
00000000
,
00000000
00000000
00000000
03000000
,
00200000
00000000
00000000
00300000
,
00020000
00000000
00000000
00030000
,
00020000
00000000
00000000
00000000
,
00000000
00000000
00000000
00030000
,
00200000
00000000
00000000
00300000
,
02000000
00000000
00000000
33000000
,
00000000
01010000
00000000
01001000
,
00000000
00010100
00000000
00000110
,
00000000
00001001
00000000
00001010
,
00000000
00001100
00000000
00010100
,
00000000
00101000
00000000
00011000
,
00000000
00101000
00000000
01010000
,
00000000
10100000
00000000
10010000
,
02200000
00000000
00000000
03300000
,
02020000
00000000
03030000
00000000
01000000
00100000
10000000
01000000
,
00200000
00000000
00300000
00000000
00010000
00100000
00001000
00010000
,
00020200
00000000
00030300
00000000
00000100
00010000
00001000
00100000
,
00002000
00000000
00013000
00000100
00001000
00000010
00000100
00000001
,
00000020
00000130
00000200
00000310
,
00000010
00000100
00000001
00000010
00000100
00000010
00000001
00000000
,
00000002
00000103
00000020
00001030
,
00022000
00000000
00000000
00033000
,
00001000
00001000
00100000
00000000
00001000
00001000
00010000
00000000
,
00002000
00000000
00013000
00000000
00002000
00000000
00203000
00300000
,
01000000
01000000
00100000
00000000
01000000
01000000
10000000
00000000
,
20000000
30100000
02000000
03010000
,
00010000
00010000
00100000
00000000
00100000
00100000
00010000
00000000
,
00200000
00310000
00020000
00130000
,
00100000
00100000
00001000
00000000
00100000
00100000
00010000
00000000
,
00200000
00301000
00002000
00013000
,
00010000
00000100
00001000
00000010
00000100
00000001
00000010
00000000
,
00000001
00000010
00000100
00000010
00000001
00000100
00000010
00000000
,
00000010
00001000
00000100
00010000
00001000
00100000
01000000
00000000
,
01000000
10000000
00100000
01000000
00020000
00000000
00130000
00000000
,
00100000
00100000
00001000
00010000
00000100
00000100
00001000
00000000
,
00001000
00000010
00000100
00000001
00000020
00000000
00000031
00000000
,
00000001
00000001
00000010
00000100
00001000
00001000
00000100
00010000
,
00001000
00001000
00100000
00100000
00001000
00001000
00010000
00010000
,
00000200
00000000
00000000
00000000
,
00000300
00000000
00000000
00000000
;

//---------------dance-single - ----------------
#NOTES:
     dance-single:
     :
     Easy:
     3:
     0.213,0.270,0.041,0.211,0.000:
0000
0000
0000
0000
,
0000
0000
0000
0000
,
0000
0000
0000
0000
,
0000
0000
0000
0000
,
0000
0000
0000
0000
,
0001
1000
0001
1000
,
0001
1000
0001
1000
,
0010
0100
0010
0100
,
0020
0000
0000
0030
,
0002
0000
0000
0003
0000
0010
0000
0001
,
0000
0010
0000
0001
0000
0100
0000
0010
,
2000
0000
3000
0000
0000
0010
0000
1000
,
0000
0010
0000
0100
0000
0010
0000
1000
,
0200
0000
0000
0300
0000
1000
0000
0100
,
0000
0010
0000
0001
0000
0010
0000
0001
,
0020
0000
0030
0000
0000
0100
0000
0000
,
0200
0000
0000
0300
,
0010
0000
0001
0000
,
0100
0000
0010
0000
,
1000
0000
0010
0000
,
0100
0000
0001
0000
,
1000
0000
0010
0000
,
1000
0000
0001
0000
,
1000
0000
0100
0000
,
1000
0000
0010
0000
,
0100
0001
0010
0100
,
0020
0000
0000
0030
,
0010
0001
0100
0010
,
2000
0000
0000
3000
,
0100
1000
0010
0100
,
0020
0000
0000
0030
,
1000
0000
0001
0000
,
0001
0100
0010
1000
,
0200
0000
0000
0000
,
0000
0000
0000
0300
,
0020
0000
0000
0030
,
0002
0000
0000
0003
,
0200
0000
0000
0000
,
0000
0000
0000
0300
,
0020
0000
0000
0000
,
2000
0000
0000
3030
,
0000
1000
0000
0100
,
0000
0010
0000
0001
,
0000
0010
0000
0100
,
0000
1000
0000
0001
,
0000
0100
0000
0010
,
0000
1000
0000
0001
,
0000
0010
0000
1000
,
0010
0000
0000
0000
,
2200
0000
0000
0000
,
3300
0000
0000
0000
,
0202
0000
0000
0000
,
0303
0000
0000
0000
,
0022
0000
0000
0033
,
2020
0000
0000
3030
,
2002
0000
0000
0000
,
3003
0000
0000
0000
,
0010
0000
1000
0000
,
0001
1000
0001
0100
,
0001
0000
0010
0000
,
0100
1000
0010
0100
,
0001
0000
1000
0000
,
0010
1000
0010
0100
,
0001
0000
0010
0000
,
0100
0010
0001
1000
,
0100
1000
0010
0100
,
0001
0000
1000
0000
,
0010
1000
0100
0010
,
0100
0000
1000
0000
,
0001
0100
0001
0010
,
0001
1000
0001
1000
,
0001
1000
0100
1000
,
0010
1000
0001
0010
,
0200
0000
0000
0000
,
0300
0000
0000
0000
;

//---------------dance-single - ----------------
#NOTES:
     dance-single:
     :
     Beginner:
     1:
     0.106,0.207,0.041,0.000,0.000: // measure 1
0000
0000
0000
0000
,  // measure 2
0000
0000
0000
0000
,  // measure 3
0000
0000
0000
0000
,  // measure 4
0000
0000
0000
0000
,  // measure 5
0000
0000
0000
0000
,  // measure 6
0001
0000
0000
0000
,  // measure 7
0000
0000
0000
0000
,  // measure 8
1000
0000
0000
0000
,  // measure 9
0010
0000
0010
0000
,  // measure 10
0100
0000
0000
0000
,  // measure 11
0010
0000
0000
0000
,  // measure 12
1000
0000
0000
0000
,  // measure 13
0001
0000
0001
0000
,  // measure 14
0001
0000
0000
0000
,  // measure 15
1000
0000
0010
0000
,  // measure 16
0100
0000
0000
0000
,  // measure 17
1001
0000
0000
0000
,  // measure 18
0010
0000
0000
0000
,  // measure 19
1000
0000
0000
0000
,  // measure 20
0001
0000
0000
0000
,  // measure 21
0100
0000
0000
0000
,  // measure 22
0010
0000
0000
0000
,  // measure 23
1000
0000
0000
0000
,  // measure 24
0001
0000
0000
0000
,  // measure 25
1000
0000
0000
0000
,  // measure 26
0010
0000
0010
0000
,  // measure 27
0010
0000
0000
0000
,  // measure 28
0100
0000
0100
0000
,  // measure 29
0100
0000
0000
0000
,  // measure 30
0001
0000
0001
0000
,  // measure 31
0001
0000
0000
0000
,  // measure 32
1000
0000
1000
0000
,  // measure 33
1000
0000
0001
0000
,  // measure 34
1001
0000
0000
0000
,  // measure 35
0000
0000
0000
0000
,  // measure 36
0010
0000
0000
0000
,  // measure 37
0010
0000
0000
0000
,  // measure 38
0100
0000
0000
0000
,  // measure 39
0000
0000
0000
0000
,  // measure 40
1000
0000
0000
0000
,  // measure 41
1001
0000
0000
0000
,  // measure 42
0010
0000
0000
0000
,  // measure 43
0100
0000
0000
0000
,  // measure 44
1000
0000
0000
0000
,  // measure 45
0010
0000
0010
0000
,  // measure 46
0100
0000
0000
0000
,  // measure 47
0001
0000
0000
0000
,  // measure 48
0001
0000
0000
0000
,  // measure 49
1001
0000
0000
0000
,  // measure 50
0010
0000
0000
0000
,  // measure 51
0000
0000
0000
0000
,  // measure 52
0010
0000
0000
0000
,  // measure 53
0000
0000
0000
0000
,  // measure 54
0010
0000
0000
0000
,  // measure 55
0010
0000
0000
0000
,  // measure 56
0010
0000
0010
0000
,  // measure 57
0010
0010
0010
0010
,  // measure 58
0100
0000
0000
0000
,  // measure 59
0100
0000
0000
0000
,  // measure 60
0010
0000
0000
0000
,  // measure 61
0010
0000
0000
0000
,  // measure 62
1000
0000
0000
0000
,  // measure 63
1000
0000
0000
0000
,  // measure 64
0001
0000
0000
0000
,  // measure 65
0001
0000
0000
0000
,  // measure 66
0100
0000
0100
0000
,  // measure 67
0100
0000
0000
0000
,  // measure 68
0010
0000
1000
0000
,  // measure 69
0001
0000
0000
0000
,  // measure 70
1000
1000
1000
1000
,  // measure 71
0001
0000
0001
0000
,  // measure 72
0100
0100
0100
0100
,  // measure 73
0010
0000
1000
0000
,  // measure 74
1001
0000
0000
0000
;
