#TITLE:Hollow Man;
#SUBTITLE:;
#ARTIST:Corn And Beans;
#TITLETRANSLIT:;
#SUBTITLETRANSLIT:;
#ARTISTTRANSLIT:;
#CREDIT:;
#BANNER:bn.png;
#BACKGROUND:bg.png;
#LYRICSPATH:;
#CDTITLE:PandemiXium-cdtitle.png;
#MUSIC:Hollow Man.mp3;
#OFFSET:-0.067;
#SAMPLESTART:81.880;
#SAMPLELENGTH:12.000;
#SELECTABLE:YES;
#BPMS:0.000=82.110,8.000=164.220,72.000=82.110,104.000=164.220,248.000=82.110,268.000=164.220;
#STOPS:;
#BGCHANGES:;

//---------------dance-single - ----------------
#NOTES:
     dance-single:
     :
     Hard:
     8:
     0.414,0.453,0.151,0.127,0.072:
0000
0000
0000
0000
,
0000
0000
0000
0000
,
1001
0000
0001
0100
0000
0100
0010
0000
,
0000
0010
0010
0000
1000
0001
0011
0000
,
1001
0000
0001
0100
0000
0001
1000
0000
,
0000
1000
0100
0000
1000
0001
0101
0000
,
1000
0001
0010
0000
0001
0100
0010
0000
,
0000
0100
0010
0000
0010
1000
0001
0000
,
1000
0001
0100
0000
0001
0010
0001
0000
,
0001
0100
0010
1000
0100
0010
0001
0100
,
0000
0010
1000
0100
1000
0010
0100
0001
,
0010
0001
0100
0010
1000
0001
0010
0001
,
0100
0010
1000
0100
1000
0010
1000
0001
,
0010
0100
0010
0001
0100
0010
1000
0001
,
0010
0001
0100
0010
1000
0100
1000
0010
,
0100
0010
1000
0001
0010
0001
0100
0010
,
1000
0001
0010
0000
0001
0010
0100
1000
,
0001
1000
1000
0001
0100
0100
0001
0010
,
2200
0000
0000
0000
,
3300
0000
0000
0000
,
0000
1000
0000
0000
0000
0001
0000
0000
,
0000
1000
0000
0000
0000
0010
0000
0000
,
0100
0000
0010
0000
0000
0000
0000
0000
0010
0000
0000
1000
0000
0000
0000
0000
,
1000
0000
0001
0000
0000
0000
0000
0000
0001
0000
0000
0100
0000
0000
0000
0000
,
0100
0000
0010
0000
0000
0000
0000
0000
0010
0000
0000
1000
0000
0000
0000
0000
,
1000
0000
1000
0000
0000
0000
0000
0000
1000
0000
0000
0010
0000
0000
0100
0000
,
0001
0000
1001
0000
0000
1000
0001
0000
,
0100
0000
0011
0000
0000
0001
0010
0000
,
0001
0000
0101
0000
0000
0001
0100
0000
,
0010
0000
1001
0000
0000
1000
0100
0000
,
0010
0000
0101
0000
0000
0001
0100
0000
,
0010
0000
1100
0000
0000
1000
0100
0000
,
1000
0000
1010
0000
0000
1000
0010
0000
,
1000
0100
1000
0010
1000
0001
0100
0010
,
1000
0000
0010
0000
1000
0100
1000
0000
,
0010
0000
0100
0000
0100
0010
1000
0001
,
0010
0000
0001
0000
0010
0001
0100
0000
,
0010
0000
0100
0000
0010
1000
0001
0010
,
0001
0000
0010
0000
0001
0100
0001
0000
,
1000
0000
0001
0000
1000
0001
0100
0000
,
0001
1000
0001
0000
0001
0100
0001
0010
,
0001
0100
0010
0100
1000
0010
1000
0010
,
1000
0000
0000
0000
0001
0000
0000
1000
0000
0000
0100
0000
0010
0000
0000
0000
,
0010
0000
0000
0000
0100
0000
0000
0010
0000
0000
0001
0000
1000
0000
0000
0000
,
0011
0000
0000
1100
0000
0000
0101
0000
,
0000
1010
0000
0000
1001
0000
1100
0000
,
0001
0010
0002
0000
0000
0000
0003
0000
,
0001
0100
0010
2000
0000
0000
3000
0000
,
0010
1000
0200
0000
0000
0000
0300
0000
,
1000
0100
1000
0020
0000
0000
0030
0000
,
1000
0001
0200
0000
0000
0000
0300
0000
,
0100
0001
0010
0002
0000
0000
0003
0000
,
0001
0100
0020
0000
0000
0000
0030
0000
,
0100
0010
1000
0020
0000
0000
1030
0000
,
0010
0000
1000
0100
0000
0100
0010
0000
,
0010
0001
0100
0002
0000
0100
0100
0103
,
0000
0000
0001
0100
0000
0100
0010
0000
,
0010
1000
0100
2000
0000
0010
0010
3010
,
0000
0000
0010
1000
0000
1000
0100
0000
,
1000
0100
0010
0002
0000
0000
0010
0013
,
0000
0000
0001
0010
0000
0001
0100
0000
,
0001
0100
0010
2000
0000
0000
3100
0000
,
1000
0001
0100
0000
0000
0000
0000
0000
0100
0001
0010
0001
0000
0000
0000
0000
,
0001
0010
0001
0000
0000
0000
0000
0000
0001
0100
0010
1000
0000
0000
0000
0000
,
1000
0010
0100
0000
0000
0000
0000
0000
0100
0010
1000
0001
0000
0000
0000
0000
,
1000
0100
1000
0000
0000
0000
0000
0000
1000
0100
0010
0001
0000
0000
0010
0000
,
2002
0000
0000
0000
,
3003
0000
0000
0000
;

//---------------dance-single - ----------------
#NOTES:
     dance-single:
     :
     Medium:
     6:
     0.289,0.506,0.103,0.088,0.064:
0000
0000
0000
0000
,
0000
0000
0000
0000
,
0002
0000
0000
0000
,
0000
0000
0000
0003
,
2000
0000
0000
0000
,
0000
0000
0000
3000
,
0020
0000
0000
0000
,
0000
0000
0000
0030
,
2000
0000
0000
0000
,
0000
0000
0000
3000
,
0001
0000
0000
1000
0000
0001
0000
0000
,
0000
0001
0100
0000
0001
0100
0010
0000
,
0100
0000
0000
0010
0000
0010
0000
0000
,
0000
0010
0100
0000
0010
1000
0001
0000
,
1001
0000
1000
0001
0000
0001
0000
0000
,
0000
0001
0100
0000
0100
0010
1000
0000
,
0001
1000
0001
0000
1000
0100
1000
0000
,
1000
0100
0010
0001
1000
0100
0010
0001
,
2000
0000
0000
0000
,
0000
0000
3000
0000
,
0000
0001
0000
0000
0000
0001
0000
0000
,
0000
1000
0000
0000
0000
1000
0000
0000
,
0010
1000
0000
0000
1000
0000
0000
0000
,
1000
1000
0000
0000
0001
0000
0000
0000
,
0001
0010
0000
0000
0001
0000
0000
0000
,
0001
0100
0000
0000
0100
0000
0000
0000
,
0010
0000
0110
0000
0000
0010
0100
0000
,
0010
0000
1000
0000
0000
1000
0001
0000
,
1000
0000
1100
0000
0000
1000
0100
0000
,
0010
0000
0011
0000
0000
0010
0001
0000
,
0100
0000
0010
0000
0000
0100
0010
0000
,
1000
0000
1001
0000
0000
0001
1000
0000
,
0100
0100
1000
0100
,
1000
0100
1000
0000
0010
1000
0010
0000
,
0010
0000
0101
0000
0001
0100
0010
0000
,
0100
0000
1001
0000
0001
1000
0100
0000
,
1000
0000
0100
0000
1000
0100
1000
0000
,
0100
0000
1000
0000
0010
0100
0010
0000
,
0001
0000
0001
0000
1000
0001
1000
0000
,
0100
0000
0010
0000
0100
0010
0100
0000
,
0100
0010
0100
0000
0010
1000
0010
0000
,
0001
1000
0001
0100
,
0101
0000
1100
0000
,
0011
0000
0001
0000
0100
0010
1000
0000
,
0002
0000
0000
0000
,
0000
0000
0000
0003
,
1000
0001
0000
0000
,
0001
0100
0010
2000
0000
0000
3000
0000
,
1000
0100
0000
0000
,
1000
0100
0010
0002
0000
0000
0003
0000
,
0001
0100
0010
0000
0000
0000
0000
0000
,
0010
0000
0000
0110
0000
0000
0000
0000
,
0100
0010
1000
0000
0000
0000
0000
0000
,
1000
0000
0000
0101
0000
0000
1000
0000
,
0000
0000
0001
0100
0000
0001
0100
0000
,
0001
0100
0000
0001
0000
0000
0000
0000
,
0000
0000
1000
0100
0000
1000
0100
0000
,
1000
0100
0000
2000
0000
0000
3000
0000
,
0000
0000
0010
0100
0000
0100
0010
0000
,
0010
0100
0010
0100
0000
0000
0000
0000
,
0000
0000
0001
0100
0000
0010
1000
0000
,
0010
1000
0100
0010
0000
0000
0001
0000
,
0000
0000
0001
0100
0000
0100
0010
0000
0010
1000
0001
1000
0000
0000
0000
0000
,
0000
0000
1000
0100
0000
1000
0100
0000
1000
0100
0010
0001
0000
0000
0000
0000
,
0000
0000
0001
0010
0000
0010
0100
0000
0100
1000
0010
0100
0000
0000
0000
0000
,
0000
0000
0010
0100
0000
0010
1000
0000
0001
0010
0100
1000
0000
0000
0001
0000
,
0220
0000
0000
0000
,
0330
0000
0000
0000
;

//---------------dance-single - ----------------
#NOTES:
     dance-single:
     :
     Easy:
     4:
     0.185,0.293,0.072,0.072,0.016:
0000
0000
0000
0000
,
0000
0000
0000
0000
,
0200
0000
0000
0000
,
0000
0000
0000
0300
,
0002
0000
0000
0000
,
0000
0000
0003
0000
,
2001
0000
0000
0000
,
0000
0000
0000
3000
,
0200
0000
0000
0000
,
0000
0000
0000
0300
,
1000
0000
0000
0001
0000
0000
0000
0000
,
0000
0100
0010
1000
,
0100
0000
0000
1000
0000
0000
0000
0000
,
0000
1000
0001
0100
,
0001
0000
0000
0010
0000
0000
0000
0000
,
0000
0010
0001
0100
,
0010
0000
0100
0000
,
0010
1000
0001
0010
,
2200
0000
0000
0000
,
3300
0000
0000
0000
,
0000
0002
0000
0000
,
0000
0000
0000
0003
,
1001
0000
0010
0000
,
0100
0000
0010
0000
,
1000
0000
1000
0000
,
0001
0000
0010
0000
,
0001
0010
0000
0001
,
0100
0100
0000
0100
,
0010
0010
0000
1000
,
0100
1000
0000
1000
,
0100
0001
0000
0001
,
0100
1000
0000
1000
,
0010
0100
0000
0100
,
0010
0010
0010
0010
,
1001
0101
0000
0001
,
1000
1100
0000
1000
,
0010
0100
0000
0100
,
0010
1000
0000
0001
,
1000
1000
0000
0001
,
0010
0100
0000
0100
,
0010
0010
0001
1000
,
0100
0100
0100
0100
,
1000
0000
0000
0001
0000
0000
0000
0000
,
0100
0000
0000
0010
0000
0000
0000
0000
,
1000
0000
0000
0000
,
0000
0000
0000
0000
,
0001
1000
0000
0000
,
0010
0000
0000
0010
0000
0000
0000
0000
,
0100
0100
0000
0000
,
0010
0000
0000
1001
0000
0000
0000
0000
,
0100
0001
0000
0000
,
0001
0000
0000
0011
0000
0000
0000
0000
,
0001
1000
0000
0000
,
0100
0000
0000
1000
0000
0000
0010
0000
,
0100
0010
0000
0000
,
0010
0000
0000
1000
0000
0000
0000
0000
,
1000
0001
0000
0000
,
0001
0000
0000
0100
0000
0000
0000
0000
,
0001
0100
0001
0000
0000
0000
0000
0000
,
0001
0000
0000
1000
0000
0000
0000
0000
,
1000
0010
1000
0000
0000
0000
0000
0000
,
1000
0000
0000
0100
0000
0000
1000
0000
,
0001
0000
1000
0000
0000
0000
0000
0000
1000
0000
0000
0001
0000
0000
0000
0000
,
0010
0000
0001
0000
0000
0000
0000
0000
0001
0000
0000
0100
0000
0000
0000
0000
,
0100
0000
0010
0000
0000
0000
0000
0000
0010
0000
0000
0010
0000
0000
0000
0000
,
0010
0000
1000
0000
0000
0000
0000
0000
1000
0000
0000
0001
0000
0000
0010
0000
,
2002
0000
0000
0000
,
3003
0000
0000
0000
;

//---------------dance-double - ----------------
#NOTES:
     dance-double:
     :
     Challenge:
     8:
     0.443,0.480,0.247,0.135,0.107:
00000000
00000000
00000000
00000000
,
00000000
00000000
00000000
00000000
,
10010000
00000000
00010000
01000000
00000000
01000000
00100000
00000000
,
00000000
01000000
00010000
00000000
00010000
00100000
00001000
00000000
,
00110000
00000000
00100000
00010000
00000000
00010000
10000000
00000000
,
00000000
00100000
01000000
00000000
00100000
01000000
00010000
00000000
,
01010000
00000000
00010000
01000000
00000000
01000000
00010000
00000000
,
00000000
00100000
00010000
00000000
00100000
00001000
00010000
00000000
,
00011000
00000000
00010000
00000100
00000000
00000100
00001000
00000000
,
00000010
00001000
00000100
00000010
00000100
00001000
00000001
00001000
,
00000100
00000000
00010100
00000000
00000100
00010000
00001000
00100000
,
00010000
00000000
01010000
00000000
00010000
01000000
00100000
01000000
,
00010000
00000000
10010000
00000000
10000000
01000000
00100000
01000000
,
10000000
00000000
11000000
00000000
10000000
00010000
01000000
00100000
,
01000000
00000000
01010000
00000000
00010000
00100000
00001000
00010000
,
00000100
00000000
00010100
00000000
00010000
00000100
00001000
00000010
,
00000100
00000100
00000010
00000000
00000010
00000010
00001000
00000100
,
00010000
00001000
00001000
00100000
00010000
00010000
01000000
10000000
,
02000000
00000000
00000000
00000000
,
03000000
00000000
00000000
00000000
,
00000000
00020000
00000000
00000000
00000000
00000000
00000000
00000000
,
00000000
00230000
00000000
00000000
00000000
00000000
00000000
00300000
,
00010000
01000000
00010000
00000000
00000000
00000000
00000000
00000000
00010000
00100000
00001000
00010000
00000000
00000000
00000000
00000000
,
00001000
00000100
00001000
00000000
00000000
00000000
00000000
00000000
00000100
00010000
00001000
00100000
00000000
00000000
00000000
00000000
,
01000000
00100000
10000000
00000000
00000000
00000000
00000000
00000000
01000000
00010000
00001000
00010000
00000000
00000000
00000000
00000000
,
00001000
00000010
00000100
00000000
00000000
00000000
00000000
00000000
00000100
00000001
00000010
00000100
00000000
00000000
00001000
00000000
,
00000010
00000000
00000110
00000000
00000000
00000010
00001000
00000000
,
00000100
00000000
00010100
00000000
00000000
00001000
00010000
00000000
,
00010000
00000000
01010000
00000000
00000000
00100000
01000000
00000000
,
10000000
00000000
11000000
00000000
00000000
10000000
00100000
00000000
,
01000000
00000000
10100000
00000000
00000000
10000000
00010000
00000000
,
00100000
00000000
00110000
00000000
00000000
00100000
00010000
00000000
,
00100000
00001000
00010000
00000000
00010000
00000100
00001000
00000000
,
00001000
00000100
00000010
00000001
00001000
00000100
00000010
00000001
,
00000100
00000000
00000110
00000000
00000010
00001000
00000100
00000000
,
00001000
00000000
00001001
00000000
00000001
00000100
00000010
00000000
,
00001000
00000000
00001100
00000000
00000100
00010000
00001000
00000000
,
00100000
00000000
01010000
00000000
00010000
01000000
00100000
01000000
,
00010000
00000000
11000000
00000000
10000000
01000000
00010000
00000000
,
00010000
00000000
01010000
00000000
00010000
01000000
10000000
00000000
,
10000000
01000000
00100000
00000000
00100000
00001000
00010000
00000100
,
00001000
00000010
00000100
00000010
00001000
00000100
00010000
00001000
,
00100000
00000000
00000000
00000000
00110000
00000000
00000000
00010000
00000000
00000000
01000000
00000000
01100000
00000000
00000000
00000000
,
11000000
00000000
00000000
00000000
01000000
00000000
00000000
00100000
00000000
00000000
00010000
00000000
00101000
00000000
00000000
00000000
,
00200000
00000000
00000000
00302000
00000000
00000000
00023000
00000000
,
00000000
00030020
00000000
00000000
00000100
00000000
00001030
00000000
,
00002100
00000100
00003100
00000000
00000000
00000000
00000000
00000000
,
00000001
00000010
00000100
00002000
00000000
00000000
00003000
00000000
,
00010200
00010000
00010300
00000000
00000000
00000000
00000000
00000000
,
00000100
00010000
00001000
02000000
00000000
00000000
03000000
00000000
,
20100000
00100000
30100000
00000000
00000000
00000000
00000000
00000000
,
10000000
00010000
00100000
02000000
00000000
00000000
03000000
00000000
,
01200000
01000000
01000000
00000000
00000000
00000000
00300000
00000000
,
01000000
00001000
00010000
00000020
00000000
00000000
00000100
00000000
,
00000130
00000001
00000100
00000000
00000100
00000001
00000100
00000000
,
00000100
00000001
00000100
00000010
00001000
00000100
00000010
00000100
,
00001000
00000100
00001000
00000000
00001000
00000100
00001000
00000000
,
00000100
00001000
00000100
00010000
00001000
00100000
00010000
01000000
,
00100000
10000000
00100000
00000000
00100000
10000000
00100000
00000000
,
00100000
10000000
00100000
10000000
01000000
00100000
01000000
10000000
,
00010000
00100000
00010000
00000000
00010000
00100000
00010000
00000000
,
00010000
00100000
00010000
01000000
00100000
10000000
01000000
00100000
,
00010000
01000000
00001000
00000000
00000000
00000000
00000000
00000000
00001000
00010000
00100000
01000000
00000000
00000000
00000000
00000000
,
01000000
00100000
00010000
00000000
00000000
00000000
00000000
00000000
00100000
01000000
00010000
00100000
00000000
00000000
00000000
00000000
,
00100000
00001000
00010000
00000000
00000000
00000000
00000000
00000000
00010000
00001000
00000010
00000001
00000000
00000000
00000000
00000000
,
00000001
00000100
00001000
00000000
00000000
00000000
00000000
00000000
00001000
00000100
00000001
00000010
00000000
00000100
00001000
00000000
,
00022000
00000000
00000000
00000000
,
00033000
00000000
00000000
00000000
;

//---------------dance-single - ----------------
#NOTES:
     dance-single:
     :
     Beginner:
     2:
     0.124,0.210,0.095,0.000,0.000: // measure 1
0000
0000
0000
0000
,  // measure 2
0000
0000
0000
0000
,  // measure 3
0010
0000
0000
0000
,  // measure 4
0000
0000
0000
0000
,  // measure 5
1000
0000
0000
0000
,  // measure 6
0000
0000
0000
0000
,  // measure 7
0100
0000
0000
0000
,  // measure 8
0000
0000
0000
0000
,  // measure 9
0010
0000
0000
0000
,  // measure 10
0001
0000
0001
0000
,  // measure 11
1001
0000
0000
0000
,  // measure 12
0001
0000
0001
0000
,  // measure 13
0001
0000
0000
0000
,  // measure 14
0100
0000
0010
0000
,  // measure 15
1000
0000
0000
0000
,  // measure 16
0000
0100
0000
0100
,  // measure 17
0010
0000
0010
0000
,  // measure 18
0110
0000
0110
0000
,  // measure 19
1001
0000
0000
0000
,  // measure 20
0000
0000
0000
0000
,  // measure 21
0000
0000
0000
0000
,  // measure 22
0000
0000
0000
0000
,  // measure 23
0010
0000
0010
0000
,  // measure 24
0100
0000
0100
0000
,  // measure 25
0001
0000
1000
0000
,  // measure 26
0001
0000
1000
0000
,  // measure 27
0010
0010
0000
0010
,  // measure 28
0100
0100
0000
0010
,  // measure 29
0000
0010
0000
0010
,  // measure 30
0000
1000
0000
0001
,  // measure 31
0000
1000
0000
1000
,  // measure 32
0000
1000
0000
1000
,  // measure 33
0000
0001
0000
0001
,  // measure 34
0100
0100
0100
0100
,  // measure 35
0010
0000
0000
0000
,  // measure 36
1000
0000
0000
0000
,  // measure 37
0100
0000
0000
0000
,  // measure 38
0010
0000
0000
0000
,  // measure 39
0001
0000
0000
0000
,  // measure 40
1000
0000
0000
0000
,  // measure 41
0010
0000
0000
0000
,  // measure 42
0100
0000
0000
0000
,  // measure 43
0010
0000
0000
0000
,  // measure 44
0010
0000
0000
0000
,  // measure 45
0110
0000
0000
0000
,  // measure 46
0000
0000
0000
0000
,  // measure 47
0010
0010
0000
0000
,  // measure 48
0010
0000
0000
0000
,  // measure 49
0100
0100
0000
0000
,  // measure 50
1001
0000
0000
0000
,  // measure 51
0010
0010
0000
0000
,  // measure 52
0110
0000
0000
0000
,  // measure 53
0001
0001
0000
0000
,  // measure 54
1001
0000
0000
0010
,  // measure 55
0100
0100
0000
0000
,  // measure 56
0010
0000
0110
0000
,  // measure 57
0010
0010
0000
0000
,  // measure 58
1000
0000
1001
0000
,  // measure 59
0001
0001
0000
0000
,  // measure 60
1000
0000
1001
0000
,  // measure 61
0001
0001
0000
0000
,  // measure 62
1000
0000
0110
0000
,  // measure 63
0001
0000
1000
0000
,  // measure 64
0010
0000
0100
0000
,  // measure 65
0010
0000
0010
0000
,  // measure 66
1000
0000
0001
0000
,  // measure 67
0010
0000
0000
0000
;
