#TITLE:Heart Of Witch;
#SUBTITLE:;
#ARTIST:Rex;
#TITLETRANSLIT:;
#SUBTITLETRANSLIT:;
#ARTISTTRANSLIT:;
#CREDIT:;
#BANNER:bn.png;
#BACKGROUND:bg.png;
#LYRICSPATH:;
#CDTITLE:PandemiXium-cdtitle.png;
#MUSIC:Heart Of Witch.mp3;
#OFFSET:0.764;
#SAMPLESTART:51.480;
#SAMPLELENGTH:11.300;
#SELECTABLE:YES;
#BPMS:0.000=170.000;
#STOPS:236.000=0.529
,236.500=0.353
;
#BGCHANGES:0.667=[BGA] DJ Max Black Square Heart of Witch.avi=1.000=0=0=1,
99999=-nosongbg-=1.000=0=0=0 // don't automatically add -songbackground-
;

//---------------dance-single - ----------------
#NOTES:
     dance-single:
     :
     Hard:
     9:
     0.640,0.815,0.431,0.347,0.105:
0000
0000
0000
0000
,
0000
0000
0000
0000
,
0000
0000
0000
0000
,
0000
0000
0000
0000
,
0000
0000
0000
0000
,
1100
0000
0000
0101
0000
0000
0110
0000
,
0000
1001
0000
0000
1000
0001
0110
0000
,
1010
0000
0000
0101
0000
0000
0011
0000
,
0000
1100
0000
0000
0100
0010
1001
0000
,
1000
0100
0010
1000
0100
0010
0001
0000
,
0001
0100
0010
1000
0100
1000
0010
0000
,
0100
0010
1000
0001
0010
0100
1000
0000
,
1100
0101
1100
0101
,
1000
0010
0010
0100
0001
0001
0010
0000
,
0001
0010
0010
0100
0010
0010
0001
0000
,
0001
1000
0100
1000
0010
0100
0001
0010
,
0100
0000
0000
0000
1000
0000
0000
1000
0001
0000
0000
0000
0100
0000
0000
0000
,
0010
0000
1000
0001
1000
0010
0100
0001
,
0010
1000
0010
0100
0001
0010
0100
1000
,
0020
0000
1030
0001
1000
0100
1000
0100
,
0010
0001
1000
0100
0001
0100
1000
0010
,
0200
0000
0310
0100
0001
0100
0010
1000
,
0001
1000
0100
0001
0100
1000
0001
1000
,
0200
0000
0310
0100
1000
0001
1000
0010
,
1000
1000
0100
0010
0001
0010
0100
1000
,
0000
0010
0000
0100
0100
0001
0001
0010
,
0100
0001
1000
0100
0000
0010
0010
0001
,
0000
1000
0000
1000
0010
0010
1000
0100
,
1000
0000
0010
1000
0010
0001
0010
0100
,
0000
0001
0000
0001
1000
0001
0001
1000
,
1000
0001
1000
0010
0000
1000
0001
0010
,
0000
0001
0000
1000
0010
0100
0100
0001
,
0010
0000
0001
0100
1000
0100
0001
0100
,
0010
1000
0010
0100
,
0001
0100
0010
0010
,
1100
0011
1100
1001
,
0110
1001
1100
0101
,
2100
0100
3100
1200
1000
1300
1001
0000
,
0201
0001
0301
0102
0100
0103
0011
0000
,
1002
1000
1003
2001
0001
3001
0101
0000
,
0010
0000
0000
0000
0100
0010
0100
0001
0010
0000
0000
0000
0100
0000
0000
0000
,
2100
0100
3100
2001
0001
3001
0220
0330
,
0120
0100
0130
1020
1000
1030
0202
0303
,
0001
0010
0100
0010
0001
0100
0010
1000
,
0100
0000
0000
0000
1000
0000
0000
0001
0010
0000
0000
0000
0101
0000
0000
0000
,
0001
0100
0010
0100
0002
0000
0023
0000
,
0130
1000
0100
0010
0002
0000
0203
0000
,
0310
1000
0001
0100
0020
0000
2030
0000
,
3100
1000
0010
0100
0020
0000
0230
0000
,
0310
1000
0001
0100
0020
0000
2030
0000
,
3001
0100
0010
1000
0200
0000
2300
0000
,
3010
0100
0001
1000
0001
0010
0001
0010
,
0001
1000
0001
0010
0001
0100
0001
1000
,
0010
0000
0000
0010
0100
0000
0000
0010
1000
0000
0000
1000
0100
0000
0000
0010
,
0001
0000
0000
0001
0100
0000
0000
0010
1000
0000
0000
1000
0001
0000
0000
0001
,
2000
0000
0000
3001
1000
0000
0000
1000
0001
0000
0000
0001
0010
0000
0000
0010
,
0100
0000
0000
0100
0010
0000
0000
0010
0001
0000
0000
0001
0100
0000
0000
0010
,
0200
0300
0001
1000
0010
0100
1000
0100
,
0010
0010
0001
0001
0100
0100
0010
0010
,
1001
1100
0010
2002
0000
0000
0000
0000
,
0000
0000
0000
0000
,
0000
0000
0000
0000
,
3003
0000
0000
0000
;

//---------------dance-single - ----------------
#NOTES:
     dance-single:
     :
     Challenge:
     10:
     0.796,0.880,0.252,0.263,0.610:
0000
0000
0000
0000
,
0000
0000
0000
0000
,
0000
0000
0000
0000
,
0000
0000
0000
0000
,
0000
0000
0000
0000
,
0101
0000
0001
0100
0001
0000
0100
0000
0010
1000
0001
0000
1001
0000
1000
0001
,
1000
0000
0100
0000
0010
0001
0010
0000
0001
1000
0001
0010
0002
0000
0000
0000
,
1003
0000
1000
0010
1000
0000
0010
0000
0100
0001
1000
0000
1001
0000
0001
1000
,
0010
0000
0010
0000
0100
0010
0100
0000
1000
0001
0010
0100
2000
0000
0000
0000
,
3001
0100
0100
0010
1000
0001
1001
0000
,
1000
0100
0100
1000
0010
0010
1001
0000
,
0001
0100
0100
0010
0100
0100
1001
0000
,
1100
0000
0000
0000
1000
0001
0100
0010
1000
0000
0000
0000
0100
0000
0000
0000
,
1100
1000
0100
1100
1000
0100
0011
0000
,
0101
0100
0001
0101
0001
0100
1010
0000
,
1000
0000
0001
0100
0001
0000
0001
1000
0001
0000
1000
0001
0010
0100
1000
0001
,
0010
0001
0010
0100
,
1000
0000
0001
0100
0010
1000
0001
0010
,
0100
0010
0001
0100
0010
1000
0001
0100
,
0020
0000
0000
0000
0130
0000
0010
0100
0010
0000
0100
0010
0100
0000
0010
1000
,
0001
0000
0001
0010
0001
0000
0001
0100
0010
0000
1000
0100
1000
0000
0010
0000
,
0200
0000
0310
1000
0001
0010
0001
0100
,
0010
1000
0100
0010
0100
1000
0001
0100
,
0020
0000
0000
0000
1030
0000
0010
1000
0010
0000
0010
0100
0010
0000
0010
1000
,
0100
0000
0100
1000
0010
0000
0010
0100
0001
0000
0001
1000
0100
0000
1000
0000
,
0000
0101
0000
0001
0100
0100
0010
1000
,
0001
0000
0100
0000
0010
0000
1000
0000
0000
0000
1000
0100
0010
0001
1000
0001
,
0100
0000
0001
0000
0000
0000
0001
0000
0100
0001
0100
0010
1000
0010
0100
0001
,
0100
0000
0000
0000
1000
0100
0010
0001
0010
0100
1000
0010
0100
0001
0010
0001
,
0000
0001
0000
0001
0100
0010
1000
0001
,
0100
0000
0100
0000
0010
0000
0010
0000
0000
0000
1000
0001
0100
0010
1000
0001
,
0000
0011
0000
0001
0100
0010
1000
0010
,
0100
0000
0000
0000
0010
1000
0001
0010
0001
0010
0001
1000
0100
0010
0001
1000
,
0100
0010
0001
0010
0100
0100
0010
0010
,
0100
0010
0001
0100
0010
0010
0100
0100
,
0001
0000
0000
1000
0100
0000
0000
0100
0010
0000
0000
0010
0001
0000
0000
0001
,
1000
0001
0100
0001
0100
0001
0010
0100
0010
0001
1000
0001
0010
0001
0100
0001
,
0100
0001
0100
0001
0100
0000
0200
0000
0000
0000
0310
0000
0110
0000
0000
0000
,
1000
0001
1000
0001
1000
0000
0002
0000
0000
0000
0013
0000
0011
0000
0000
0000
,
1000
0100
1000
0100
2000
0000
0100
0000
0000
0000
3100
0000
1100
0000
0000
0000
,
1001
0000
0000
0000
0001
0100
0001
0010
0001
0000
0000
0000
1100
0000
1000
0001
,
1000
0010
1000
0010
1000
0000
0020
0000
0000
0000
0000
0000
1030
0000
0100
0010
,
0100
0010
1000
0001
0010
0000
0200
0000
0000
0000
0000
0000
1300
0000
0001
1000
,
0100
0010
0001
0100
0010
0000
0110
0000
0000
0000
0000
0000
1001
0000
0000
1000
,
0100
0010
0001
0100
,
0010
0000
0100
0000
0010
0000
1000
0000
0002
0000
0000
0013
0001
0000
0000
1000
,
0001
0000
0100
0000
0010
0000
1000
0000
2000
0000
0000
3001
1000
0000
0000
1000
,
0100
0000
1000
0000
0010
0000
0100
0000
0020
0000
0000
0130
0010
0000
0000
0001
,
0100
0000
0010
0000
1000
0000
0100
0000
2000
0000
0000
3100
2000
0000
0000
3100
,
1000
0000
0010
0000
0010
1000
0001
0100
0020
0000
0000
0000
0230
0000
0000
0000
,
0310
0000
0100
0000
0010
0001
1000
0100
0020
0000
0000
0000
0032
0000
0000
0000
,
1003
0000
0000
0001
0010
0000
0000
0010
0100
0000
0000
0100
1000
0000
0000
1000
,
0001
1000
0001
0100
0001
0010
0001
0010
0100
1000
0100
1000
0010
0100
0001
0010
,
0100
0000
1000
0100
0010
0001
0010
0100
,
0001
0100
0010
1000
0001
0100
0010
1000
,
1020
0000
1030
1000
0010
0100
0010
0001
,
0010
0100
0001
1000
0001
0010
0100
1000
,
0020
0030
1001
0001
0010
0001
0100
0010
,
1000
0100
1000
0010
0100
0001
0010
0001
0010
0100
0010
0001
1000
0010
0100
0002
,
0020
0000
0000
0000
0003
0000
0000
0000
0100
0030
0000
0000
0000
0000
0000
0000
0010
0000
0000
0000
2000
0000
0000
0000
0200
0000
0000
0000
0000
0000
0000
0000
0000
0000
0000
0000
0000
0000
0000
0000
0000
0000
0000
0000
0000
0000
0000
0000
0000
0000
0000
0000
0000
0000
0000
0000
0000
0000
0000
0000
0000
0000
0000
0000
,
0000
0000
0000
0000
,
0000
0000
0000
0000
,
3300
0000
0000
0000
;

//---------------dance-single - ----------------
#NOTES:
     dance-single:
     :
     Medium:
     7:
     0.455,0.522,0.389,0.189,0.000:
0000
0000
0000
0000
,
0000
0000
0000
0000
,
0000
0000
0000
0000
,
0000
0000
0000
0000
,
0000
0000
0000
0000
,
0001
0000
0000
1000
0000
0000
0001
0000
,
0000
0100
0000
0000
0110
0000
1001
0000
,
1100
0000
0000
0100
0000
0000
1000
0000
,
0000
0100
0000
0000
1100
0000
0011
0000
,
0101
0000
0000
1010
0000
0000
1001
0000
,
0001
0000
0000
1100
0000
0000
0010
0000
,
0101
0000
0000
0010
0000
0000
0110
0000
,
0010
0000
0010
1000
0001
0000
1000
0000
,
1100
0000
0000
0011
0000
0000
1001
0000
,
0101
0000
0000
1010
0000
0000
1001
0000
,
1000
0001
0100
0010
,
0110
0010
0100
0010
,
1000
0000
0001
1000
0001
0000
1000
0000
,
0001
0100
0010
1000
,
0200
0000
1300
0100
1000
0000
0100
0000
,
0010
0001
0010
0000
0001
0100
0010
0000
,
0200
0000
0310
0000
0010
1000
0001
0000
,
1000
0000
0001
0000
0001
1000
0100
1000
,
0020
0130
0020
1030
,
1000
0100
0010
0001
1000
0100
0010
0000
,
0000
0001
0000
0000
0100
0000
0010
0000
,
1000
0001
1000
0001
0000
0100
0010
0000
,
0000
1000
0000
0000
0001
0100
0010
1000
,
0100
1000
0001
1000
,
0000
0001
0000
0000
0001
0000
0100
0000
,
1000
0100
0001
0010
,
0000
1010
0000
0000
0010
1000
0010
0000
,
0001
1000
0001
0100
,
0001
1000
0010
0010
,
1000
0001
0100
0100
,
0101
1100
0101
1100
,
1010
0011
1010
0011
,
1000
0001
1000
0001
1000
0001
1000
0000
,
0100
0001
0100
0001
0100
0001
0100
0000
,
0001
0010
0001
0010
0001
0010
0001
0000
,
0001
0100
0010
1000
,
0010
1000
0010
1000
0010
1000
0010
0000
,
1000
0100
1000
0100
1000
0100
1000
0000
,
0001
1000
0001
1000
0001
1000
0001
0000
,
0101
0010
1010
0010
,
0100
0010
2000
3200
,
1300
0100
0020
0032
,
0103
0010
2000
3200
,
1300
0010
0200
0320
,
1030
0001
0020
0032
,
0013
0001
0200
0320
,
0130
0100
0100
0100
,
0110
0110
0110
0110
,
0010
0000
0100
0010
0100
0000
0010
1000
,
0010
0000
0001
0100
0001
0000
0010
0000
,
0011
0000
0001
0010
0001
0000
0100
1000
,
0100
0000
0010
1000
0010
0000
0100
0010
,
0100
0000
0010
0100
0000
0010
0000
1000
,
0000
0001
0000
0010
0000
0001
0000
0100
,
0101
1100
0000
2002
0000
0000
0000
0000
,
0000
0000
0000
0000
,
0000
0000
0000
0000
,
3003
0000
0000
0000
;

//---------------dance-single - ----------------
#NOTES:
     dance-single:
     :
     Easy:
     5:
     0.365,0.457,0.295,0.116,0.000:
0000
0000
0000
0000
,
0000
0000
0000
0000
,
0000
0000
0000
0000
,
0000
0000
0000
0000
,
0000
0000
0000
0000
,
0010
0000
0000
1000
0000
0000
0100
0000
,
0000
1000
0000
0000
0010
0000
0100
0000
,
0001
0000
0000
0010
0000
0000
0100
0000
,
0000
0010
0000
0000
0001
0000
1000
0000
,
0001
0000
0000
0100
0000
0000
1010
0000
,
1000
0000
0000
0100
0000
0000
0011
0000
,
0001
0000
0000
0100
0000
0000
1000
0000
,
1010
0010
0100
0001
,
0011
0000
0000
0100
0000
0000
1100
0000
,
1000
0000
0000
1010
0000
0000
0001
0000
,
0100
0010
1000
0001
,
0011
0011
1100
1100
,
1000
0001
0100
0001
,
0010
0100
1000
0100
,
0020
0031
0010
0100
,
0100
0010
0001
1000
,
0200
1300
0010
0100
,
0001
0010
0100
1000
,
0200
1300
0010
0100
,
0001
1000
0100
0010
,
0000
0001
0010
0100
,
1000
0000
0010
1000
0000
0000
0000
0000
,
0000
1000
0000
0000
0001
0000
0100
0000
,
0010
1000
1000
1000
,
0000
0001
1000
0100
,
0010
0001
0010
0001
0000
0000
0000
0000
,
0000
0101
0000
0000
0001
0000
0100
0000
,
0010
1000
1000
1000
,
0001
0100
1000
0100
,
0001
0010
1000
0010
,
0011
0011
0011
0011
,
1100
0101
1010
1100
,
0001
0000
0000
1000
0000
0000
0010
0000
,
1000
0000
0000
0100
0000
0000
0010
0000
,
0001
0000
0000
0100
0000
0000
0010
0000
,
1000
0001
0100
0010
,
1010
0000
0000
0101
0000
0000
1100
0000
,
1100
0000
0000
0011
0000
0000
1001
0000
,
0001
0100
0010
1000
,
0100
0100
1000
1000
,
0010
1000
0200
1300
,
1000
0100
0020
0031
,
0001
0010
0200
0310
,
0010
0001
2000
3010
,
1000
0100
2000
3010
,
0100
0001
0020
0130
,
0100
0010
1000
0001
,
0010
0100
0100
0010
,
0001
1000
1000
1000
,
1000
1000
1000
1000
,
1001
0010
0010
0010
,
0010
0010
0010
0010
,
0110
0100
0001
0010
,
0100
1000
0100
0010
0100
0001
0010
1000
,
0001
1000
0000
2200
0000
0000
0000
0000
,
0000
0000
0000
0000
,
0000
0000
0000
0000
,
3300
0000
0000
0000
;

//---------------dance-double - ----------------
#NOTES:
     dance-double:
     :
     Challenge:
     9:
     0.706,0.807,0.358,0.337,0.258:
00000000
00000000
00000000
00000000
,
00000000
00000000
00000000
00000000
,
00000000
00000000
00000000
00000000
,
00000000
00000000
00000000
00000000
,
00000000
00000000
00000000
00000000
,
11000000
01000000
00100000
00110000
00100000
00001000
00011000
00010000
,
00000100
00001100
00001000
00000010
00000100
00000010
00000002
00000003
,
00000101
00000100
00000010
00001010
00000010
00001000
00001100
00000100
,
00010000
00011000
00001000
00010000
00100000
01000000
02200000
03300000
,
00100000
00001000
00001000
00010000
00000010
00000010
00000110
00000000
,
00000010
00010000
00010000
00001000
00100000
00100000
00110000
00000000
,
00010000
01000000
01000000
00100000
10000000
10000000
00010000
00000000
,
11000000
01100000
00110000
00101000
,
00100000
00001000
00001000
00010000
00000100
00000100
00001000
00000000
,
00001000
00000010
00000010
00000100
00000001
00000001
00001000
00000000
,
00000100
00000000
00000100
00010000
00001000
00000000
00001000
00100000
00001000
00000000
00010000
00100000
01000000
00000000
00000000
00000000
,
11000000
01100000
01001000
00011000
,
00001100
00000000
00001000
00000100
00000010
00000001
00000010
00000100
,
00001000
00000100
00000010
00000001
00000010
00000100
00001000
00000100
,
00020000
00000000
00031000
00100000
00001000
00010000
00000100
00010000
,
00001000
00100000
00001000
00010000
00000100
00100000
00010000
01000000
,
00200000
00000000
01300000
00010000
10000000
00010000
01000000
00100000
,
10000000
01000000
00100000
01000000
10000000
01000000
00100000
00001000
,
00020000
00000000
00031000
00100000
00001000
00010000
00000100
00001000
,
00000010
00000100
00000001
00000100
00001000
00000100
00010000
01000000
,
00000000
01010000
00000000
10000000
01000000
00100000
01000000
10000000
,
00010000
00000000
00010000
00000000
00100000
00000000
00001000
00000000
00000000
00000000
00010000
00001000
00010000
00001000
00010000
00000100
,
00000000
00010100
00000000
00000100
00010000
00000010
00000100
00000001
,
00001000
00000000
00000100
00010000
00001000
00100000
00010000
01000000
,
00000000
00010100
00000000
00010000
00001000
00001000
00100000
00010000
,
01000000
00000000
01000000
00000000
00100000
00000000
10000000
00000000
00000000
00000000
10000000
00010000
00100000
00001000
00010000
00000010
,
00000000
00000101
00000000
00000001
00000100
00001000
00000100
00000001
,
00000010
00000000
00000001
00000010
00000100
00001000
00000100
00001000
,
00000100
00010000
00001000
00100000
,
00010000
00000000
00000000
00000000
01000000
00000000
00000000
00000000
00100000
00000000
00000000
00000000
10000000
00000000
00000000
10000000
,
01000000
00000000
00000000
01000000
00100000
00000000
00000000
00100000
00001000
00000000
00000000
00010000
00000010
00000000
00000000
00000100
,
00000001
00000000
00000000
00000001
00000010
00000000
00000000
00000100
00001000
00000000
00000000
00001000
00100000
00000000
00000000
00000000
,
00010000
00100000
00010000
00100000
00010000
00000000
00100000
00000000
00100000
00000000
00010000
00000000
00200000
00000000
00000000
00000000
,
00310000
01000000
00010000
01000000
00010000
00000000
01000000
00000000
01000000
00000000
00100000
00000000
20000000
00000000
00000000
00000000
,
30010000
00100000
00010000
00100000
00010000
00000000
00100000
00000000
00001000
00000000
00001000
00000000
00020000
00000000
00000000
00000000
,
00031000
00000000
00000000
00000000
00000110
00000000
00000000
00000000
00001000
00000000
00000000
00000000
00011000
00000000
00000010
00001000
,
00000100
00000010
00000001
00000010
00000001
00000000
00001002
00000000
00000000
00000000
00000010
00000000
00000013
00000000
00001000
00000100
,
00000001
00001000
00000010
00001000
00000010
00000000
00000120
00000000
00000000
00000000
00001000
00000000
00001030
00000000
00000010
00010000
,
00001000
00100000
00010000
01000000
00010000
00000000
00210000
00000000
00000000
00000000
00001000
00000000
00002000
00000000
00303000
00000000
,
00110000
01100000
00110000
00011000
,
00000100
00001000
00000010
00000100
00000002
00000000
00000023
00000000
,
00000130
00001000
00000100
00010000
00002000
00000000
00203000
00000000
,
00310000
01000000
00100000
10000000
02000000
00000000
23000000
00000000
,
30100000
01000000
00010000
00100000
00002000
00000000
00203000
00000000
,
00301000
00010000
00000010
00000100
00000002
00000000
00000203
00000000
,
00000310
00001000
00000100
00010000
00002000
00000000
00203000
00000000
,
00310000
00000100
00001000
00000010
,
00000010
00001000
00000100
00010000
00001000
00100000
00010000
01000000
00100000
10000000
01000000
00100000
00001000
00010000
00000100
00001000
,
00000010
00000000
00000100
00000100
00000010
00000010
00001000
00001000
,
00000100
00000100
00010000
00010000
00001000
00001000
01000000
01000000
,
02020000
03030000
00010000
00010000
01000000
01000000
00100000
00100000
,
01000000
01000000
00001000
00001000
00010000
00010000
00000010
00000010
,
00000200
00000000
00000301
00000100
00000010
00001000
00000100
00010000
,
00001000
00010000
00001000
00010000
00001000
00010000
00001000
00010000
00001000
00010000
00001000
00010000
00001000
00010000
00001000
00010000
,
00002000
00000000
02003000
00000000
03010000
00200000
02000000
00000000
00000000
00000000
00000000
00000000
00000000
00000000
00000000
00000000
,
00000000
00000000
00000000
00000000
,
00000000
00000000
00000000
03300000
00000000
00000000
00000000
00000000
;

//---------------dance-single - ----------------
#NOTES:
     dance-single:
     :
     Beginner:
     2:
     0.186,0.281,0.147,0.000,0.000: // measure 1
0000
0000
0000
0000
,  // measure 2
0000
0000
0000
0000
,  // measure 3
0000
0000
0000
0000
,  // measure 4
0000
0000
0000
0000
,  // measure 5
0000
0000
0000
0000
,  // measure 6
0010
0000
0000
0010
,  // measure 7
0000
0000
0010
0010
,  // measure 8
1000
0000
0000
0001
,  // measure 9
0000
0000
0001
0001
,  // measure 10
1000
0000
0000
0000
,  // measure 11
1000
0000
0000
0000
,  // measure 12
1000
0000
0000
0000
,  // measure 13
0001
1000
0001
1000
,  // measure 14
0001
0000
0000
0000
,  // measure 15
0001
0000
0000
0000
,  // measure 16
0001
0000
0000
0000
,  // measure 17
0001
1000
0001
1000
,  // measure 18
0100
0000
0100
0000
,  // measure 19
0100
0000
0100
0000
,  // measure 20
0110
0000
0010
0000
,  // measure 21
0010
0000
0010
0000
,  // measure 22
1001
0000
1000
0000
,  // measure 23
1000
0000
1000
0000
,  // measure 24
1001
0000
0001
0000
,  // measure 25
0001
0000
0001
0000
,  // measure 26
0000
0000
0000
0000
,  // measure 27
0100
0000
0000
0000
,  // measure 28
0000
0000
0000
0000
,  // measure 29
0010
0000
0000
0000
,  // measure 30
1000
0000
0000
0000
,  // measure 31
0001
0000
0000
0000
,  // measure 32
0100
0000
0000
0000
,  // measure 33
0010
0000
0000
0000
,  // measure 34
0100
0000
0010
0000
,  // measure 35
1000
0000
0001
0000
,  // measure 36
0100
0100
0100
0100
,  // measure 37
0100
0100
0100
0100
,  // measure 38
0110
0000
0000
0000
,  // measure 39
1001
0000
0000
0000
,  // measure 40
0110
0000
0000
0000
,  // measure 41
1001
1000
0001
1000
,  // measure 42
1001
0000
0000
0000
,  // measure 43
0110
0000
0000
0000
,  // measure 44
1001
0000
0000
0000
,  // measure 45
0110
0010
0100
0010
,  // measure 46
0100
0000
0010
0010
,  // measure 47
0010
0000
1000
1000
,  // measure 48
1000
0000
0001
0001
,  // measure 49
0001
0000
0100
0100
,  // measure 50
0100
0000
0010
0010
,  // measure 51
0100
0000
0010
0010
,  // measure 52
1000
1000
1000
1000
,  // measure 53
0001
1000
0001
1000
,  // measure 54
0001
0000
0001
0000
,  // measure 55
0001
0000
0001
0000
,  // measure 56
1001
0000
1000
0000
,  // measure 57
1000
0000
1000
0000
,  // measure 58
0010
0000
0100
0000
,  // measure 59
0010
0000
1000
0000
,  // measure 60
1001
0000
0000
1001
0000
0000
0000
0000
;
