#TITLE:Haven;
#SUBTITLE:;
#ARTIST:SGX;
#TITLETRANSLIT:;
#SUBTITLETRANSLIT:;
#ARTISTTRANSLIT:;
#CREDIT:;
#BANNER:bn.png;
#BACKGROUND:bg.png;
#LYRICSPATH:;
#CDTITLE:chaoztitles4.png;
#MUSIC:Haven.mp3;
#OFFSET:-0.038;
#SAMPLESTART:80.304;
#SAMPLELENGTH:13.521;
#SELECTABLE:YES;
#BPMS:0.000=142.000;
#STOPS:;
#BGCHANGES:;

//---------------dance-single - ----------------
#NOTES:
     dance-single:
     :
     Hard:
     7:
     0.399,0.596,0.180,0.351,0.005:
0000
0000
0000
0000
,
0000
0000
0000
0000
,
0000
0000
0000
0000
,
0000
0000
0000
0000
,
0000
0000
1000
0010
,
0100
0010
1000
0001
,
0010
0001
0010
0000
0001
0001
0100
0000
,
0010
0000
0110
0000
0010
1000
0001
0010
,
0002
0023
0031
0100
,
1000
0000
0000
0100
,
0000
0001
0022
0000
,
0000
0030
0020
0000
,
0000
0000
0033
0000
0001
0100
0010
0100
,
0010
0000
0000
0010
,
0000
2000
0200
0000
,
0000
3000
0020
0000
,
0000
0000
0330
0000
1001
0000
0001
0100
,
0010
0000
0000
0000
0000
0000
1000
0100
,
0010
0000
0000
0000
0001
0100
0000
0100
,
0110
0000
1001
0000
1000
0100
0000
1000
,
0010
0100
0001
0000
2000
0000
3001
0100
,
0010
0000
0000
0000
0100
0010
1000
1000
,
1001
0000
0000
0000
0001
0020
0000
0000
,
0031
0000
1100
0000
0001
1000
0000
1000
,
0100
0010
0001
0000
1000
0001
0010
0100
,
0000
1000
0000
0001
0010
0000
0100
0100
,
0010
0000
0000
0000
0001
1000
0000
1000
,
0000
0100
0000
1000
0010
1000
0100
1000
,
0002
0000
0023
0000
0031
0010
0000
0011
,
0000
0001
0000
0001
0100
0010
0001
0010
,
0200
0000
0000
0000
0300
0010
0000
1000
,
0000
0001
0000
0010
0001
0001
0010
0100
,
1000
0020
0000
0000
0030
0000
0000
0000
,
0000
0100
1001
0000
,
0000
0000
0000
0000
1000
0010
0100
0000
,
0010
0000
0110
0000
0010
0100
0010
0000
,
1000
0000
0001
0000
0001
0100
0010
0000
,
0010
0000
0100
0000
0010
1000
0001
0000
,
0001
1000
0001
0000
1000
0100
1000
0000
,
0010
0000
0100
0000
0001
0100
0010
0000
,
0100
0000
0010
0000
0010
1000
0100
0000
,
1000
0000
0010
0000
0100
0001
1000
0000
,
0001
1000
0010
0000
1000
0000
0001
0100
,
0010
0000
1000
0000
0100
0000
1000
0010
,
0100
0000
0110
0000
0010
0000
0010
1000
,
0001
0000
0001
0000
0001
0100
1000
0000
,
1000
0100
0001
0000
0022
0000
0000
0000
,
0000
0000
0033
0000
1000
0000
0001
0100
,
0010
0100
0010
0100
,
2002
0000
3003
0000
0010
0000
0010
1000
,
0100
1000
1001
1100
,
0202
0000
0303
0000
0010
0000
0010
1000
,
0001
1000
0010
0100
,
2002
0000
3003
0000
1000
0000
0010
1000
,
0100
1000
0001
0010
,
2200
0000
3300
0000
1000
0000
0001
0100
,
0010
0100
0010
1000
,
0022
0033
0002
0013
,
2000
0000
3100
0000
1000
0001
1000
0001
,
2002
0000
0000
0000
3003
0000
0000
0000
0000
0000
1000
0000
1000
0000
0000
0001
,
0020
0000
0032
0000
0203
0301
0100
0002
,
0103
0001
0200
0301
0100
0002
0103
0001
,
0200
0301
0100
0002
0020
0000
0000
0000
,
0033
0000
0000
0000
;

//---------------dance-single - ----------------
#NOTES:
     dance-single:
     :
     Medium:
     5:
     0.302,0.454,0.063,0.306,0.000:
0000
0000
0000
0000
,
0000
0000
0000
0000
,
0000
0000
0000
0000
,
0000
0000
0000
0000
,
0000
0000
0010
0100
,
0010
1000
0001
0010
,
0001
0100
0010
0100
,
0010
0000
1000
0000
0001
1000
0001
1000
,
0001
1000
0001
0000
0001
0000
0001
0000
,
0002
0000
0000
1000
,
0000
1000
2000
0000
,
0000
0003
0200
0000
,
3300
0000
0000
0000
1000
0100
0010
0001
,
0020
0000
0000
0100
,
0000
0100
0200
0000
,
0000
0030
0020
0000
,
0000
0000
0330
0000
0110
0000
0010
1000
,
0001
0000
0000
0000
0000
0000
1000
1000
,
0100
0000
0000
0000
,
0001
0000
0100
0000
0010
0100
0000
0010
,
1000
0100
0010
0000
0000
0000
0010
0001
,
0100
0000
0000
0000
0000
0000
0010
0010
,
0200
0000
0300
0000
,
0010
0000
1000
0000
0001
1000
0000
0001
,
1000
0100
1000
0000
0000
0000
1000
0100
,
0020
0000
0100
0100
,
0130
0010
1000
0000
0000
0000
0001
0000
,
0000
0000
1000
0001
,
0100
0001
0100
0000
0000
0000
0010
1000
,
0200
0000
0000
0000
1300
0000
0010
0100
,
0002
0000
0000
0003
0000
2000
0000
0000
,
0100
0000
3010
0000
0001
1000
0001
0000
,
0100
0010
0220
0000
,
0000
0300
0030
0000
,
0000
0000
0000
0000
0010
1000
0001
0000
,
1000
0001
0100
0100
,
0010
0000
0010
0000
0100
0010
1000
0000
,
1000
0000
0100
0000
1000
0100
0010
0000
,
0010
0001
0100
0000
0001
0100
0010
1000
,
0002
0000
0003
0000
0001
0100
0010
1000
,
0200
0000
0300
0000
0100
1000
0010
0100
,
0020
0000
0030
0000
0010
1000
0100
1000
,
0020
0000
0030
0000
1000
0100
0010
0001
,
0020
0000
0030
0000
0001
0010
0100
0010
,
0200
0000
0300
0000
0100
1000
0010
0100
,
0020
0000
0030
0000
0010
1000
0001
0010
,
0200
1000
0020
0000
,
0330
0000
0000
0000
1001
0000
0001
0100
,
0010
0000
0000
0000
,
1010
0000
0000
0000
0000
0000
0010
0010
,
1000
0000
0000
0000
,
0011
0000
0000
0000
0000
0000
0001
0010
,
0100
0000
0000
0000
,
1010
0000
0000
0000
0000
0000
0100
0001
,
1000
0000
0000
0000
,
1001
0000
0000
0000
0000
0000
0001
0100
,
0020
0000
0000
0000
,
0001
0000
0000
0030
0000
0000
0010
1000
,
0200
0000
0000
0000
,
0001
0000
0300
0000
0000
0001
1000
0000
,
0200
1300
0200
0320
,
0230
0320
0032
0203
,
0320
0230
0002
0000
,
0303
0000
0000
0000
;

//---------------dance-double - ----------------
#NOTES:
     dance-double:
     :
     Challenge:
     7:
     0.383,0.603,0.180,0.432,0.018:
00000000
00000000
00000000
00000000
,
00000000
00000000
00000000
00000000
,
00000000
00000000
00000000
00000000
,
00000000
00000000
00000000
00000000
,
00000000
00000000
00010000
01000000
,
00100000
10000000
01000000
00000000
01000000
00000000
01100000
00000000
,
01000000
00001000
00010000
00000000
00010000
00000000
00001100
00000000
,
00010000
00000000
00101000
00000000
00001000
00100000
00010000
00100000
,
10000000
00100000
00010000
00000000
01000000
00001000
00010000
00001000
,
00002000
00000000
00000000
00200000
,
00303000
01000000
10020000
00000000
,
00000000
00000000
00200000
00000000
,
00330000
00000000
00000000
00000000
00100000
00001000
00001000
00010000
,
00000020
00000000
00000000
00000000
00000000
00000000
00000200
00000300
,
00000030
00000200
00000020
00000000
,
00000000
00000300
00002000
00000000
,
00000000
00000000
00003030
00000000
00010010
00010000
00000100
00010000
,
00002000
00000000
00003000
00000000
00000000
00000000
00020000
02030000
,
03100000
01100000
01000000
00100000
,
10000000
00000000
10010000
00000000
00010000
00100000
00000000
00001000
,
00010000
00000010
00000200
00000000
00000300
00000000
00000001
00000100
,
00002000
00000000
00000000
00000000
00003100
00000000
00000100
00010000
,
00002000
00000000
00003000
00000000
00001000
00010000
00000000
00010000
,
00000100
00000000
00101000
00000000
00001000
00100000
00000000
00100000
,
10000000
01000000
00100000
00000000
00110000
11000000
10000000
00010000
,
00200000
00000000
00300000
00000000
00110000
00000000
00001000
00001000
,
00002000
00000000
00003000
00000000
00000000
00202000
00000000
00303000
,
00000000
00000000
00000000
00000000
00100000
00001000
00010000
00000100
,
00002000
00000000
00003002
00000000
00000013
00000010
00000001
00000100
,
00000020
00000000
00000030
00000000
00000010
00000000
00000110
00000100
,
00000220
00000000
00000330
00000000
00000010
00001000
00000000
00001000
,
00000100
00000000
00000000
00000000
00010000
00000000
00000000
00000000
00001000
00100000
00010000
00000000
01000000
00000000
00100000
00000000
,
20000000
02000000
33000000
00000000
00000000
00000000
00000000
00000000
,
00000000
00000000
00000000
00000000
00000000
00000000
00000000
00010000
10000000
00000000
00000000
00000000
00000000
00000000
00000000
10000000
00010000
00000000
00000000
00000000
00000000
00000000
00000000
00000000
00000000
00000000
00000000
00000000
00000000
00000000
00000000
00000000
,
00000000
00000000
00000000
00000000
01000000
00100000
00020000
00000000
,
01000000
00000000
00130000
00000000
00100000
00100000
02000000
00000000
,
00100000
00000000
03010000
00000000
00010000
01000000
00200000
00000000
,
01000000
00000000
01300000
00000000
00100000
00010000
00020000
00000000
,
00100000
00000000
00130000
00000000
00001000
00010000
00000200
00000000
,
00001000
00000000
00001300
00000000
00001000
00000010
00000200
00000000
,
00000001
00000000
00000301
00000000
00000001
00000010
00000200
00000000
,
00000010
00000000
00000310
00000000
00000010
00000001
00002000
00000000
,
00000100
00000000
00003010
00000000
00000010
00010000
00000100
00010000
,
00001000
00000000
00011000
00000000
00010000
00100000
01000000
10000000
,
02000000
00000000
03100000
00000000
00100000
00001000
00010000
00000100
,
00002000
00000000
00003010
00000000
00000010
00000100
00000001
00001000
,
00000020
00001030
00020200
00000000
,
00000000
00000000
00030300
00000000
00011000
00000000
00001000
01000000
,
20000000
00000000
00000000
30000000
,
11000000
00000000
00000000
00000000
00000000
00000000
01000000
00001000
,
00000020
00000000
00000000
00000000
,
00000031
00000000
00000000
00000000
00000000
00000000
00000010
00010000
,
02000000
00000000
00000000
00000000
,
03100000
00000000
00000000
00000000
00000000
00000000
00100000
10000000
,
00020000
00000000
00000000
00000000
,
00130000
00000000
00000000
00000000
00000000
00000000
00100000
00000100
,
00000002
00000000
00000000
00000000
,
00001003
00000000
00000000
00000000
00000000
00000000
00000010
00020000
,
00002000
00000000
00000000
00000000
,
00033000
00000000
00000000
00000000
00000000
00000000
00000000
00000000
00000000
00000000
00010000
01000000
00100000
00000000
01000000
00000000
,
00100000
00000000
10010000
00000000
10000000
01000000
00100000
00010000
,
00001000
00000100
00000010
00000001
00000010
00000100
00001000
00010000
,
00100000
01000000
10000000
00020000
00200000
00000000
00000000
00000000
,
00330000
00000000
00000000
00000000
,
00000000
00000000
00000000
00000000
,
00000000
00000000
00000000
00000000
,
00000000
00000000
00000000
00000000
,
00000000
00000000
00000000
00000000
,
00000000
00000000
00000000
00000000
,
00000000
00000000
00000000
00000000
,
00000000
00000000
00000000
00000000
,
00000000
00000000
00000000
00000000
,
00000000
00000000
00000000
00000000
,
00000000
00000000
00000000
00000000
,
00000000
00000000
00000000
00000000
,
00000000
00000000
00000000
00000000
,
00000000
00000000
00000000
00000000
,
00000000
00000000
00000000
00000000
,
00000000
00000000
00000000
00000000
,
00000000
00000000
00000000
00000000
,
00000000
00000000
00000000
00000000
,
00000000
00000000
00000000
00000000
,
00000000
00000000
00000000
00000000
,
00000000
00000000
00000000
10010000
;

//---------------dance-single - ----------------
#NOTES:
     dance-single:
     :
     Easy:
     3:
     0.199,0.312,0.009,0.207,0.000:
0000
0000
0000
0000
,
0000
0000
0000
0000
,
0000
0000
0000
0000
,
0000
0000
0000
0000
,
0000
0000
0001
0000
,
1000
0000
0010
0010
,
1000
0000
0001
0000
,
0010
0000
0002
2003
,
0002
3003
0001
0100
,
0100
0000
0000
0010
,
0000
0010
2000
0000
,
0000
0000
0000
0000
,
0000
3000
0010
0010
,
0010
0000
0000
0100
,
0000
0001
2000
0000
,
0000
0000
0200
0000
,
0000
3300
0000
1000
,
0001
0000
0000
0000
,
0011
0000
0000
0000
,
0001
0100
0010
0000
,
0100
0100
0000
0010
,
1000
0000
0000
0100
,
0010
0000
0000
0000
,
0100
1000
0010
0100
,
0001
0001
0000
1000
,
0010
0000
0100
0001
,
0010
0000
0000
0000
,
0001
0000
0100
0010
,
2000
3100
0000
0100
,
1000
0000
1000
0010
,
0200
0300
0000
0000
,
0010
0000
0000
0000
1000
0001
1000
0000
,
0000
0000
0000
0000
,
0000
0000
0000
0000
,
0000
0000
0001
1000
,
0200
0300
0100
1000
,
0002
0003
0001
1000
,
0200
0300
0100
1000
,
0002
0003
1000
0001
,
0020
0030
0010
0001
,
2000
3000
1000
0001
,
0020
0030
0010
0001
,
2000
3000
0001
0100
,
0020
0030
0010
0100
,
0002
0003
0001
1000
,
0200
0300
0100
1000
,
0020
0030
0000
0000
,
0000
0000
0000
0000
0000
0000
0001
1000
,
0001
0000
0000
0000
,
0100
0000
0000
0000
0000
0000
0010
0100
,
0010
0000
0000
0000
,
0001
0000
0000
0000
0000
0000
1000
0100
,
0100
0000
0000
0000
,
0010
0000
0000
0000
0000
0000
0001
0100
,
0100
0000
0000
0000
,
0010
0000
0000
0000
0000
0000
1000
0001
,
0100
0000
0000
0000
,
0010
0000
0000
0000
0000
0000
0010
1000
,
0001
0000
0000
0000
,
1000
0000
0000
0000
,
0020
2030
3100
0010
,
0100
1000
0100
0010
,
0001
0010
0200
0000
,
0300
0000
0000
0000
;

//---------------dance-single - ----------------
#NOTES:
     dance-single:
     :
     Beginner:
     1:
     0.103,0.169,0.063,0.009,0.000: // measure 1
0000
0000
0000
0000
,  // measure 2
0000
0000
0000
0000
,  // measure 3
0000
0000
0000
0000
,  // measure 4
0000
0000
0000
0000
,  // measure 5
0000
0000
0010
0000
,  // measure 6
0000
0000
1000
0000
,  // measure 7
0000
0000
1000
0000
,  // measure 8
0000
0000
0001
0001
,  // measure 9
0001
0000
0100
0000
,  // measure 10
0000
0000
0000
0000
,  // measure 11
0000
0000
0010
0000
,  // measure 12
0000
0000
0010
0000
,  // measure 13
0000
0000
1000
0000
,  // measure 14
0000
0000
0000
0000
,  // measure 15
0000
0001
0001
0000
,  // measure 16
0000
0000
1000
0000
,  // measure 17
0000
0000
0010
0000
,  // measure 18
0000
0000
0000
0000
,  // measure 19
0100
0000
0000
0000
,  // measure 20
0010
0000
1000
0000
,  // measure 21
0001
0000
0000
0100
,  // measure 22
0100
0000
0000
0000
,  // measure 23
1001
0000
0000
0000
,  // measure 24
0001
0000
1000
0000
,  // measure 25
0010
0010
0000
0100
,  // measure 26
0100
0000
0010
0000
,  // measure 27
0010
0000
0000
0000
,  // measure 28
0000
0000
1000
0000
,  // measure 29
1000
0001
1000
0000
,  // measure 30
0000
0000
1000
0000
,  // measure 31
0000
0000
0010
0000
,  // measure 32
0000
0000
0100
0000
,  // measure 33
0000
0000
0000
0000
,  // measure 34
0000
0010
0010
0000
,  // measure 35
0000
0000
0100
0000
,  // measure 36
0000
0000
0010
0000
,  // measure 37
0000
0000
1000
0000
,  // measure 38
0000
0000
0001
0000
,  // measure 39
0000
0000
0010
0000
,  // measure 40
0000
0000
0100
0000
,  // measure 41
0000
0000
0010
0000
,  // measure 42
0000
0000
0001
0000
,  // measure 43
0000
0000
1000
0000
,  // measure 44
0000
0000
0100
0000
,  // measure 45
0000
0000
1000
0000
,  // measure 46
0000
0000
0010
0000
,  // measure 47
0000
0000
0100
0000
,  // measure 48
0000
0000
0000
0010
,  // measure 49
0010
0000
0000
0000
,  // measure 50
1001
0000
0000
0100
,  // measure 51
0100
0000
0000
0000
,  // measure 52
1001
0000
0000
1000
,  // measure 53
1000
0000
0000
0000
,  // measure 54
0110
0000
0000
0001
,  // measure 55
0001
0000
0000
0000
,  // measure 56
0110
0000
0000
0010
,  // measure 57
0010
0000
0000
0000
,  // measure 58
0110
0000
0000
1000
,  // measure 59
1000
0000
0000
0000
,  // measure 60
1001
0000
0000
0000
,  // measure 61
0010
0010
0200
0000
,  // measure 62
0000
0000
0000
0000
,  // measure 63
0000
0000
0300
0000
;
