#TITLE:Green Hill (Eruo Club '95 mix);
#SUBTITLE:;
#ARTIST:Rayza;
#TITLETRANSLIT:;
#SUBTITLETRANSLIT:;
#ARTISTTRANSLIT:;
#CREDIT:;
#BANNER:bn.PNG;
#BACKGROUND:bg.png;
#LYRICSPATH:;
#CDTITLE:PandemiXium-cdtitle.png;
#MUSIC:Green Hill.mp3;
#OFFSET:-0.403;
#SAMPLESTART:15.140;
#SAMPLELENGTH:11.980;
#SELECTABLE:YES;
#BPMS:0.000=138.020,192.000=34.478,200.000=68.955,230.000=138.010,234.000=137.995;
#STOPS:;
#BGCHANGES:16.000=-random-=1.000=0=0=1,
234.000=bg.bmp=1.000=0=0=1,
99999=-nosongbg-=1.000=0=0=0 // don't automatically add -songbackground-
;

//---------------dance-single - ----------------
#NOTES:
     dance-single:
     :
     Hard:
     7:
     0.376,0.459,0.141,0.220,0.122:
0000
0000
0000
0000
,
0000
0000
0000
0000
,
0000
0000
0000
0000
,
0000
0000
0000
0000
,
0001
0000
0010
0000
0000
0001
0000
0000
0100
0000
0000
0010
0000
0000
1000
0000
,
0000
0000
1000
0000
0000
0001
0000
0001
0000
0000
0000
1000
0000
0000
0010
0000
,
0000
0000
0100
0000
0000
0010
0000
0000
1000
0000
0000
0001
0000
0000
0010
0000
,
0011
0000
1100
0000
0101
0000
0010
0100
,
1001
0000
1000
0000
0001
0100
0000
0100
,
0010
0000
0010
2000
0000
0001
0000
3001
,
0100
0000
0001
0100
0010
0100
0000
0010
,
1000
0000
1000
0002
0000
0010
0000
0013
,
0001
0000
1000
0100
0010
0100
0000
0010
,
1000
0000
0010
0200
0000
0001
0000
0301
,
1000
0000
0001
1000
0100
0010
0000
0010
,
0002
0000
0100
0100
0000
0200
0000
0303
,
0001
0000
0100
0000
0001
0100
0000
0100
,
1000
0000
1000
0100
0000
0001
0000
0010
,
0001
0000
0010
0001
0010
0100
0000
0100
,
0010
0000
0010
0002
0000
0100
0000
0013
,
0000
0001
0010
0000
0001
0010
0000
1100
,
0000
1000
0200
0000
1300
0000
0010
0100
,
0000
1000
0000
0100
0000
0001
0100
1000
,
0200
0310
0020
0130
,
1001
0000
1000
0100
0000
1000
0000
0010
,
0200
0000
0000
0000
0310
0000
0000
0000
0010
0000
0000
1000
0000
0000
0001
0000
,
0010
0000
0000
0001
0000
1001
0000
0001
,
0010
0000
0000
0000
0011
0000
0000
0000
0001
0000
0000
0100
0000
0000
0010
0000
,
0100
0000
0110
0000
0010
1000
0000
0001
,
0000
1000
0000
0100
0000
1000
0000
1000
,
0010
0100
1000
0000
1000
0100
0010
0000
,
0010
0100
0001
1000
1001
0010
1001
0000
,
1000
1000
0001
0100
,
0010
0000
0010
1000
0001
0000
1001
0000
,
0000
0001
0000
0001
,
0100
0000
0010
1000
0010
0000
0100
0010
,
0200
0310
0020
1030
,
2000
0000
3010
1000
0100
0000
0100
1000
,
0010
0100
0010
1000
,
0001
0100
1000
0100
1000
0100
0001
0000
,
0001
0100
0010
0000
0010
0100
0010
0000
,
0020
1030
2000
3100
,
0100
1000
0010
0000
0010
1000
0010
0000
,
2000
3100
0200
1300
,
1000
0010
0100
0000
0100
0001
0010
0000
,
0002
0000
0013
0001
0100
0000
0010
1000
,
0002
1003
2000
3100
,
0000
0000
1000
0000
0000
0100
0000
0000
0010
0000
0000
0001
0000
0000
1000
0000
,
0220
0330
0000
0000
,
2002
0000
3003
0000
1000
0000
1000
0000
0001
0000
0001
0000
0100
0010
1000
0001
,
0010
0000
0000
0000
0001
0010
0000
0100
1000
0000
1000
0100
0000
1000
0000
0000
,
0000
0000
0000
1000
0001
0100
0000
0100
0001
0000
0001
0010
0000
0001
0000
0000
,
2002
0000
3003
0000
0001
0100
0000
0100
0001
0000
0001
0010
0000
0010
0000
0000
,
0000
0000
0000
0010
0100
1000
0000
1000
0100
0000
0100
1000
0000
0010
0000
0000
,
1000
0001
0000
0001
0000
1000
0000
0001
,
0100
0010
0000
0100
0000
0010
1000
0100
,
2002
3003
0001
0000
1000
0001
0100
0000
,
0101
0000
0000
0000
1000
0001
0100
0010
,
0010
0010
1000
0000
1001
0000
0000
0000
;

//---------------dance-single - ----------------
#NOTES:
     dance-single:
     :
     Medium:
     5:
     0.240,0.344,0.071,0.094,0.055:
0000
0000
0000
0000
,
0000
0000
0000
0000
,
0000
0000
0000
0000
,
0000
0000
0000
0000
,
0010
0000
0100
0000
,
0010
0000
1000
0000
,
0002
0000
0003
0000
,
1000
0000
0001
0000
0100
0000
0100
0001
,
0010
0000
0000
0000
0001
0010
0000
0001
,
0010
0000
0001
0010
0000
0001
0000
0000
,
0000
0000
0000
1000
0100
1000
0000
1000
,
0100
0000
0100
1000
0000
1000
0000
0000
,
0000
0000
0000
0000
0010
0100
0000
0010
,
0100
0000
0100
0010
0000
0010
0000
0000
,
0000
0000
0000
0001
0100
0001
0000
0200
,
0002
0000
0000
0000
0000
0303
0000
0000
,
0001
0000
1000
0000
,
0010
0100
0010
1000
,
0001
0000
1000
0000
,
1000
0010
0100
0001
,
0010
0000
0100
0000
,
0100
0010
0001
1000
,
0100
0000
1000
0000
0010
0000
0100
0010
,
2000
0000
0000
3000
,
0101
0000
0001
0000
,
1000
0001
0200
0300
,
0101
0000
0010
0000
,
0010
0010
0020
0000
,
1030
1000
0001
0000
,
0001
0100
0010
0000
,
1001
0000
1001
0000
,
1000
0100
0010
0001
0010
0010
0010
0000
,
0000
0001
0000
0001
,
1000
0000
0100
1000
0100
0000
1000
0000
,
0000
0010
0000
0100
,
0010
0000
1000
0001
1000
0000
0001
0100
,
0001
1000
0000
1000
,
0010
0000
0100
0010
1000
0000
0001
0010
,
0000
0100
0000
0000
,
1000
0100
0010
0011
,
0001
0001
0001
0001
,
1000
0100
1000
0010
,
0100
0100
0100
0100
,
0010
1000
0010
0100
,
0001
0001
0001
0001
,
1000
0010
1000
0100
,
1000
1000
1000
1000
,
0000
0000
1000
0000
0000
0100
0000
0000
0010
0000
0000
0001
0000
0000
0100
0000
,
0010
0000
0000
0000
,
1001
0000
0001
1000
0100
0100
1000
1000
,
0020
1000
0000
0000
,
0230
0000
0002
0303
,
1010
0020
0000
0030
,
2000
0000
0200
3300
,
1001
0000
0000
0000
1000
0000
0000
0000
0001
0000
0000
0100
0000
0010
0000
0000
,
0000
0000
0000
0000
1000
0000
0000
0000
0001
0000
0000
0010
0000
0010
0000
0010
,
0000
0000
0001
0000
0000
0100
0000
0010
0000
0000
1000
0000
0100
0000
1000
0010
,
0000
0100
0000
0001
0000
0001
0010
0100
1000
0000
0000
0000
1000
0000
0000
0000
,
1000
0100
0001
0000
1001
0000
0000
0000
;

//---------------dance-single - ----------------
#NOTES:
     dance-single:
     :
     Easy:
     3:
     0.173,0.229,0.055,0.086,0.000:
0000
0000
0000
0000
,
0000
0000
0000
0000
,
0000
0000
0000
0000
,
0000
0000
0000
0000
,
0010
0000
0000
0000
,
0000
0000
0000
0000
,
0000
0000
0000
0000
,
0001
0000
1000
0000
0100
0000
0010
0001
,
0010
0000
0100
0000
,
1000
0000
0000
0000
,
0010
0000
1000
0000
,
0001
0000
0000
0000
,
1000
0000
0010
0000
,
0100
0000
0000
0000
,
0001
0000
1000
0000
,
0020
0000
0000
0030
,
0100
0010
1000
0000
,
0001
1000
0100
0000
,
0100
1000
0010
0000
,
0100
0001
0010
0000
,
0100
0000
0100
0000
,
0100
1000
0010
0100
,
0100
0001
0010
0100
,
2200
0000
0000
3300
,
1000
0000
0001
0000
,
0100
0000
0010
0010
,
1000
0000
0001
0000
,
0001
0100
0010
1000
,
0100
0000
0010
0000
,
0100
1000
0010
0000
,
1001
0000
0100
0000
,
1001
0010
0010
0010
,
0100
0000
0010
0000
,
1000
0001
0100
0000
,
0000
1000
0000
1000
,
0010
0100
0100
0100
,
0001
0000
0000
0010
,
0100
1000
0010
0100
,
0000
0010
0000
0000
,
1000
0000
0001
0000
1000
0001
1000
0000
,
0001
0000
1000
0000
,
0010
1000
0100
1000
,
0010
0000
0100
0000
,
0001
0100
0010
0100
,
0001
0010
0100
1000
,
0100
0010
0001
1000
,
1000
0001
0100
0010
,
1000
0000
0001
0000
,
0011
0000
0000
0000
,
1001
0000
0000
0000
,
0020
0000
0000
0000
0000
0000
0000
0030
,
2000
3000
0002
0003
,
0020
0000
0000
0000
,
0230
0000
0000
0000
0002
0000
0000
0303
,
1000
0010
0100
0001
,
2000
0000
0000
0000
0200
0000
0000
3300
,
1001
0001
0100
0010
,
1000
0000
1000
0100
,
0010
0001
1001
0000
;

//---------------dance-double - ----------------
#NOTES:
     dance-double:
     :
     Challenge:
     7:
     0.379,0.482,0.259,0.274,0.106:
00000000
00000000
00000000
00000000
,
00000000
00000000
00000000
00000000
,
00000000
00000000
00000000
00000000
,
00000000
00000000
00000000
00000000
,
01000000
00000000
00010000
00000000
00000000
00100000
00000000
00000000
00001000
00000000
00000000
00010000
00000000
00000000
00000010
00000000
,
00000000
00000000
00000100
00000000
00000000
00000010
00000000
00000010
00000000
00000000
00000000
00000100
00000000
00000000
00000001
00000000
,
00000000
00000000
00000100
00000000
00000000
00010000
00000000
00000000
00001000
00000000
00000000
00100000
00000000
00000000
00010000
00000000
,
01010000
00000000
11000000
00000000
00100000
01000000
00010000
00100000
,
00001000
00000000
00000000
00000000
00000100
00010000
00000000
00010000
,
00000010
00000000
00000010
00010000
00000000
00011000
00000000
00000000
,
00000000
00000000
00000000
00001000
01000000
00100000
00000000
00100000
,
10000000
00000000
10000000
00010000
00000000
00100000
00000000
00000000
,
00000000
00000000
00000000
00000000
00100000
00001000
00000000
00010000
,
00000010
00000000
00000010
00000100
00000000
00000101
00000000
00000000
,
00000000
00000000
00000000
00000001
00000100
00001000
00000000
00000100
,
00000010
00000000
00010000
00000100
00000000
00011000
00000000
00010000
,
00011000
00000000
00000000
00000000
00000100
00000200
00000000
00010000
,
00010000
00000000
01000000
01000000
00000000
01000300
00000000
00000000
,
00000000
00000000
00000000
01000000
00001000
00100000
00000000
00100000
,
00000100
00000000
00000100
00020000
00000000
00001000
00000000
00030010
,
00000000
00000010
00010000
00000000
00010000
00000010
00000000
00010010
,
00000000
00000010
00010000
00000000
00001000
00000000
00001000
01000000
,
00000000
00100000
00000000
01000000
00000000
01000000
00001000
00010000
,
00000010
00000000
00001010
00000000
00000010
00001000
00000100
00010000
,
00120000
00000000
00000000
00100000
00000000
00031000
00000000
00001000
,
00000020
00000000
00000000
00000000
00000130
00000000
00000000
00000000
00000001
00000000
00000000
00001000
00000000
00000000
00000100
00000000
,
00020100
00000000
00000000
00001000
00000000
00130000
00000000
00100000
,
02000000
00000000
00000000
00000000
03001000
00000000
00000000
00000000
02000000
00000000
00000000
03002000
00000000
00000000
00023000
00000000
,
00030100
00000000
00010100
00000000
00010000
00000010
00000000
00000101
,
00000000
00001100
00000000
00010100
00000000
00101000
00000000
00010000
,
01000000
00100000
01000000
00100000
10000000
01000000
00100000
00010000
,
01000000
00100000
10000000
00010000
00110000
00011000
00001100
00000000
,
00001000
00001010
00000010
00010100
,
00002000
00000000
00010000
00010000
00010000
00000000
00100000
00103000
,
00020000
00030010
00000020
00000130
,
00000010
00000000
00001000
00000100
00010000
00000000
00010000
00000010
,
00000200
00000000
00000301
00000000
00000001
00001000
00000010
00000000
,
00002000
00000000
00003100
00100000
00002000
00000000
00013000
00001000
,
00200000
00000000
01300000
00000000
01000000
10000000
01000000
00000000
,
11000000
00000000
00110000
00000000
00011000
00001100
00000110
00000000
,
00000001
00001000
00000100
00000000
00000100
00001000
00000010
00000000
,
00000010
00001000
00000100
00010000
00002000
00000000
00103000
00000000
,
00010000
00100000
01000000
00000000
00100000
01000000
10000000
00000000
,
10000000
00010000
00100000
00001000
00020000
00000000
00030010
00000000
,
00000100
00000010
00010000
00000000
00010000
00001000
00100000
00000000
,
00100000
00000100
00010000
00001000
00100000
00000100
00001000
00000000
,
00002000
00003200
00200300
00320000
,
00030000
00000000
00000000
00000000
,
02000020
00000000
00000000
00000000
00000000
00000000
00000000
00000000
00000000
00000000
00000000
00000000
00000000
00000000
00000000
00000000
00000000
00000000
00000000
00000000
00000000
00000000
00000000
00000000
00000000
00000000
00000000
00000000
00000000
00000000
00000000
00000000
00000000
00000000
00000000
00000000
00000000
00000000
00000000
00000000
00000000
00000000
00000000
00000000
00000000
00000000
00000000
00000000
00000000
00000000
00000000
00000000
00000000
00000000
00000000
00000000
00000000
00000000
00000000
00000000
00000000
00000000
00000000
03000030
,
00200200
00000000
00000000
00000000
00000000
00000000
00000000
00000000
00000000
00000000
00000000
00000000
00000000
00000000
00000000
00000000
00000000
00000000
00000000
00000000
00000000
00000000
00000000
00000000
00000000
00000000
00000000
00000000
00000000
00000000
00000000
00000000
00000000
00000000
00000000
00000000
00000000
00000000
00000000
00000000
00000000
00000000
00000000
00000000
00000000
00000000
00000000
00000000
00000000
00000000
00000000
00000000
00000000
00000000
00000000
00000000
00000000
00000000
00000000
00000000
00000000
00000000
00000000
00300300
,
00022000
00000000
00000000
00000000
00000000
00000000
00000000
00000000
00000000
00033000
00000000
00000000
00000000
00000000
00000000
00000000
00001000
00000000
00000000
00000000
01000000
00000000
00000000
00000000
00000000
00000000
00000000
00000000
01000000
00000000
00000000
00000000
00001000
00000000
00000000
00000000
00000000
00000000
00000000
00000000
00010000
00000000
00000000
00000000
00000010
00000000
00000000
00000000
00000000
00000000
00000000
00000000
00000010
00000000
00000000
00000000
00000000
00000000
00000000
00000000
00000000
00000000
00000000
00000000
,
00000000
00000000
00000000
00000010
00010000
00001000
00000000
00001000
01000000
00000000
01000000
00100000
00000000
01000000
00000000
00000000
,
00001020
00000000
00000000
00000000
00001000
00001000
00000000
00010000
00010000
00000000
00100000
00100000
00000000
00100000
00000000
00000000
,
00000030
00000000
00000000
00100000
00001000
00010000
00000000
00010000
00000010
00000000
00000010
00000100
00000000
00000010
00000000
00000000
,
00012000
00010000
00100000
01000000
,
10003000
20000000
01000000
00100000
,
30002000
00010000
00100000
01000000
,
20000000
00000000
00000000
00000000
00000000
00000000
00000000
00000000
00000000
00000000
00000000
00000000
00000000
00000000
00000000
00000000
00000000
00000000
00000000
00000000
00000000
00000000
00000000
00000000
00000000
00000000
00000000
00000000
00000000
00000000
00000000
30003000
10000000
00000000
00000000
00000000
00000000
00000000
00000000
00000000
01000000
00000000
00000000
00000000
00000000
00000000
00000000
00000000
00100000
00000000
00000000
00000000
00000000
00000000
00000000
00000000
00010000
00000000
00000000
00000000
00000000
00000000
00000000
00000000
,
00011000
00001100
00000022
00000000
00000033
00000000
00000000
00000000
;

//---------------dance-single - ----------------
#NOTES:
     dance-single:
     :
     Beginner:
     1:
     0.091,0.161,0.086,0.000,0.000: // measure 1
0000
0000
0000
0000
,  // measure 2
0000
0000
0000
0000
,  // measure 3
0000
0000
0000
0000
,  // measure 4
0000
0000
0000
0000
,  // measure 5
0010
0000
0000
0000
,  // measure 6
0000
0000
0000
0000
,  // measure 7
0100
0000
0000
0000
,  // measure 8
0010
0000
0010
0000
,  // measure 9
0010
0000
1000
0000
,  // measure 10
0000
0000
0000
0000
,  // measure 11
0000
0000
0001
0000
,  // measure 12
0000
0000
0000
0000
,  // measure 13
0000
0000
1000
0000
,  // measure 14
0000
0000
0000
0000
,  // measure 15
0000
0000
0010
0000
,  // measure 16
0010
0000
0000
0000
,  // measure 17
0100
0000
0100
0000
,  // measure 18
0000
0000
0000
0000
,  // measure 19
0000
0000
0010
0000
,  // measure 20
0000
0000
0000
0000
,  // measure 21
1000
0000
1000
0000
,  // measure 22
1000
0000
0000
0000
,  // measure 23
0001
0000
0000
0000
,  // measure 24
0110
0000
0000
0000
,  // measure 25
0010
0000
0000
0000
,  // measure 26
0010
0000
0010
0000
,  // measure 27
0100
0000
0000
0000
,  // measure 28
0100
0000
0100
0000
,  // measure 29
0001
0000
0000
0000
,  // measure 30
0001
0000
0001
0000
,  // measure 31
0001
0000
1000
0000
,  // measure 32
1001
0000
0000
0000
,  // measure 33
0010
0000
0000
0000
,  // measure 34
0100
0000
0000
0000
,  // measure 35
0010
0000
0000
0000
,  // measure 36
1000
0000
0000
0000
,  // measure 37
0001
0000
0000
0000
,  // measure 38
1000
0000
0000
0000
,  // measure 39
0010
0000
0000
0000
,  // measure 40
0100
0100
0100
0100
,  // measure 41
0110
0000
0000
0000
,  // measure 42
0010
0000
1000
0000
,  // measure 43
0001
0000
0000
0000
,  // measure 44
0001
0000
1000
0000
,  // measure 45
0010
0000
0000
0000
,  // measure 46
0100
0000
0100
0000
,  // measure 47
0100
0000
0000
0000
,  // measure 48
0110
0000
0000
0000
,  // measure 49
1001
0000
0000
0000
,  // measure 50
0110
0000
0000
0000
,  // measure 51
0110
0000
0000
0000
,  // measure 52
0100
0000
0010
0000
,  // measure 53
1001
0000
0000
0000
,  // measure 54
1000
0000
0100
0000
,  // measure 55
0110
0000
0000
0000
,  // measure 56
0010
0000
0001
0000
,  // measure 57
1001
0000
0000
0000
,  // measure 58
0100
0000
0010
0010
,  // measure 59
0010
0010
1001
0000
;
