#TITLE:Genie;
#SUBTITLE:;
#ARTIST:Airbase;
#TITLETRANSLIT:;
#SUBTITLETRANSLIT:;
#ARTISTTRANSLIT:;
#CREDIT:;
#BANNER:bn.png;
#BACKGROUND:bg.png;
#LYRICSPATH:;
#CDTITLE:PandemiXium-cdtitle.png;
#MUSIC:Airbase Genie (Original Mix).mp3;
#OFFSET:-0.096;
#SAMPLESTART:69.060;
#SAMPLELENGTH:12.000;
#SELECTABLE:YES;
#BPMS:0.000=139.120;
#STOPS:;
#BGCHANGES:;

//---------------dance-single - ----------------
#NOTES:
     dance-single:
     :
     Hard:
     7:
     0.353,0.413,0.214,0.276,0.184:
0000
0000
0000
0000
,
0000
0000
0000
0000
,
0000
0000
0000
0000
,
0000
0000
0000
0000
,
0000
0000
0000
0000
,
0000
0000
0000
0000
,
0000
0000
0000
0000
,
0000
0000
0000
0000
,
0001
0000
0101
0000
0000
1000
0010
0000
,
0100
0000
1001
0000
0000
0001
1000
0000
,
0100
0000
1010
0000
0000
1000
0001
0010
,
0001
0000
0011
0000
0000
0001
0001
1000
,
0200
1300
2000
3100
,
2000
3001
0020
0032
,
0200
0000
0303
0000
,
0101
1100
2002
3003
,
1000
0001
0100
0001
,
0010
0000
0001
0000
0100
0010
2000
0000
,
0200
0000
3300
0000
,
0000
0000
0000
0000
,
1000
0100
0010
0001
,
0010
0000
0001
0000
0100
0001
0100
0000
,
0020
0000
0030
0000
,
0110
0110
0220
0330
,
0010
1000
0010
0100
,
0001
0010
0020
0032
,
0200
0000
0303
0000
,
0000
0000
0000
0000
,
0001
1000
0010
1000
,
0100
1000
0020
2030
,
0200
0000
3300
0000
,
1100
0011
2002
3003
,
1000
0000
0000
1000
0000
0000
0001
0000
0100
0000
0000
0001
0000
0000
0100
0000
,
0010
0000
0000
0100
0000
0000
0010
0000
1000
0000
0000
0010
0000
0000
1000
0000
,
0010
0000
0000
0100
0000
0000
0010
0000
1000
0000
0000
0001
0000
0000
1000
0000
,
0001
0000
0000
1000
0000
0000
0001
0000
0100
0000
0000
0001
0000
0000
0100
0000
,
0001
0000
0000
0010
0000
0000
0001
0000
0010
0000
0000
0001
0000
0000
0100
0000
,
0010
0000
0000
0100
0000
0000
0010
0000
1000
0000
0000
0010
0000
0000
0100
0000
,
0010
0000
0000
1000
0000
0000
0010
0000
1000
0000
0000
0010
0000
0000
1000
0000
,
0001
0000
0000
1000
0000
0000
0001
0000
0100
0000
0000
0000
1001
0000
0000
0000
,
0001
0000
0000
0001
0000
0000
0001
0000
1000
0000
0000
1000
0000
0000
1000
0000
,
0001
0000
0000
0100
0000
0000
0010
0000
1000
0000
0001
0000
0200
0000
0000
0000
,
0020
0000
0330
0000
,
0000
0000
0000
0000
,
0110
0000
0000
0010
0000
0000
1000
0000
0010
0000
0000
0100
0000
0000
0010
0000
,
1000
0000
0000
0010
0000
0000
1000
0000
0010
0000
1000
0000
0002
0000
0000
0000
,
0020
0000
0033
0000
,
0011
0000
1100
0000
0011
0000
0000
0001
,
0001
0000
0000
0100
0000
0000
0010
0000
0100
0000
0000
0010
0000
0000
1000
0000
,
0010
0000
0000
0100
0000
0000
0010
0000
2000
0000
0000
0000
3002
0000
0000
0000
,
0200
0000
0303
0000
,
0000
0000
0000
0000
,
0101
0000
0000
0001
0000
0000
0100
0000
0010
0000
0000
0100
0000
0000
0010
0000
,
1000
0000
0000
0010
0000
0000
0100
0000
0020
0000
0000
0000
2030
0000
0000
0000
,
0200
0000
3300
0000
,
1100
0110
0022
0033
,
0001
0010
0000
0000
0011
0000
0000
0000
1000
0100
0000
0000
1100
0000
0000
0000
,
0001
1000
0000
0000
1001
0000
0000
0000
0100
0000
0000
0000
0010
0000
0000
0000
,
1000
0100
0000
0000
1100
0000
0000
0000
0001
0010
0000
0000
0011
0000
0000
0000
,
0001
1000
0000
0000
1001
0000
0000
0000
0001
0000
0000
0000
1000
0000
0000
0000
,
0000
0100
0000
0000
1000
0000
0000
0100
0000
1000
0000
0000
0001
0000
0000
0100
,
0000
0010
0000
0000
0100
0000
0000
0010
0000
0010
0000
0000
1000
0000
0000
1000
,
0000
0001
0000
0000
0001
0000
0000
1000
0000
0001
0000
0000
0010
0000
0000
0001
,
0000
1000
0000
0001
0000
0020
0002
0000
0000
0000
0000
0000
0000
0000
0033
0000
,
0001
0010
0001
0000
0010
0000
0001
0000
,
0100
0001
0100
0000
0100
0000
0010
0000
,
0010
0100
0001
0000
0100
0000
0001
0000
,
0010
0100
0010
0000
1000
0000
0010
0000
,
1000
0010
0100
0000
0010
0000
1000
0000
,
1000
0010
0100
0000
0001
0000
0010
0000
,
0010
0001
0100
0000
0100
0010
1000
0000
,
0020
0000
0000
0000
,
0030
0000
0000
0000
;

//---------------dance-double - ----------------
#NOTES:
     dance-double:
     :
     Challenge:
     7:
     0.366,0.441,0.161,0.521,0.103:
00000000
00000000
00000000
00000000
,
00000000
00000000
00000000
00000000
,
00000000
00000000
00000000
00000000
,
00000000
00000000
00000000
00000000
,
00000000
00000000
00000000
00000000
,
00000000
00000000
00000000
00000000
,
00000000
00000000
00000000
00000000
,
00000000
00000000
00000000
00000000
,
10000000
01000000
10000000
00000000
01000000
00000000
01100000
00000000
,
00100000
10000000
00010000
00000000
00100000
00000000
00110000
00000000
,
00200000
00001000
00000000
00301000
,
00010000
00000100
00001000
00000010
00000100
00000000
00000110
00000000
,
00000020
00001030
00000200
00001300
,
00000200
00010300
00002000
00203000
,
00020000
00000000
00330000
00000000
,
00110000
00011000
00002200
00003300
,
00002000
00003100
00000200
00000310
,
00000020
00000000
00000031
00000000
00000001
00000010
00000002
00000000
,
00000200
00000000
00000000
00000303
,
00000000
00000000
00000000
00000000
,
00000002
00000103
00000020
00000130
,
00000200
00000310
00000020
00001000
,
00002000
00000000
00003030
00000000
,
00002000
00000100
00000020
00003030
,
00002000
00003100
00000200
00010300
,
00000200
00010300
00020000
00030200
,
00002000
00000000
00000000
00003300
00000000
00000000
00000000
00000000
,
00000000
00000000
00000000
00000000
,
00000200
00010300
00020000
00031000
,
00002000
01003000
02000000
00100000
,
00200000
00000000
03300000
00000000
,
00200000
02300000
00020000
03030000
,
00010000
00000000
00000000
01000000
00000000
00000000
00100000
00000000
10000000
00000000
00000000
01000000
00000000
00000000
10000000
00000000
,
01000000
00000000
00000000
00100000
00000000
00000000
00010000
00000000
00100000
00000000
00000000
00001000
00000000
00000000
00010000
00000000
,
00001000
00000000
00000000
00100000
00000000
00000000
00100000
00000000
00001000
00000000
00000000
00010000
00000000
00000000
00000100
00000000
,
00001000
00000000
00000000
00001000
00000000
00000000
00001000
00000000
00000100
00000000
00000000
00000010
00000000
00000000
00000001
00000000
,
00001000
00000000
00000000
00000100
00000000
00000000
00001000
00000000
00000100
00000000
00000000
00010000
00000000
00000000
00001000
00000000
,
00100000
00000000
00000000
00010000
00000000
00000000
01000000
00000000
00100000
00000000
00000000
10000000
00000000
00000000
10000000
00000000
,
00010000
00000000
00000000
00100000
00000000
00000000
00010000
00000000
01000000
00000000
00000000
00100000
00000000
00000000
00100000
00000000
,
10000000
00000000
00000000
00010000
00000000
00000000
10000000
00000000
00010000
00000000
00000000
00000000
00110000
00000000
00000000
00000000
,
00020000
00000000
00000000
00130000
00000000
00000000
00010000
00000000
00200000
00000000
00000000
00301000
00000000
00000000
00100000
00000000
,
00020000
00000000
00000000
00130000
00000000
00000000
00100000
00000000
00001000
00000000
00010000
00000000
00000200
00000000
00000000
00000000
,
00020000
00000000
00030300
00000000
,
00000000
00000000
00000000
00000000
,
00000200
00000000
00000000
00001300
00000000
00000000
00001000
00000000
00000002
00000000
00000000
00000103
00000000
00000000
00000010
00000000
,
00000200
00000000
00000000
00000310
00000000
00000000
00000010
00000000
00001000
00000000
00000100
00000000
00020000
00000000
00000000
00000000
,
00002000
00000000
00033000
00000000
,
00101000
00010100
00022000
00033000
,
00002000
00000000
00000000
01003000
00000000
00000000
00001000
00000000
00020000
00000000
00000000
00030100
00000000
00000000
00000100
00000000
,
00020000
00000000
00000000
00031000
00000000
00000000
00001000
00000000
00100000
00000000
00010000
00000000
02000000
00000000
00000000
00000000
,
00200000
00000000
03300000
00000000
,
00000000
00000000
00000000
00000000
,
00200000
00000000
00000000
01300000
00000000
00000000
00100000
00000000
20000000
00000000
00000000
31000000
00000000
00000000
00100000
00000000
,
00020000
00000000
00000000
00130000
00000000
00000000
00010000
00000000
00200000
00000000
00000000
00000000
00302000
00000000
00000000
00000000
,
00020000
00000000
00033000
00000000
,
00011000
00011000
00022000
00033000
,
00010000
00000100
00001000
00000001
,
00000100
00000000
00000010
00000000
00000010
00000100
00000001
00000100
,
00000010
00000100
00000010
00000100
,
00000001
00000000
00001000
00000000
00000100
00010000
00001000
00100000
,
00010000
00110000
10000000
01010000
,
00100000
10010000
10000000
11000000
,
10000000
00010000
00100000
00010000
,
02000000
00000000
00000000
03000000
,
01000000
00010000
00100000
00000000
00100000
00000000
00110000
00000000
,
00100000
00001000
00010000
00000000
00010000
00000000
00010100
00000000
,
00000100
00001000
00000100
00000000
00000010
00000000
00000011
00000000
,
00000001
00000100
00000010
00000000
00000010
00000100
00000001
00001000
,
00000020
00000130
00000002
00000103
,
00000200
00000310
00000020
00001030
,
00001200
00010300
00020000
00001000
,
00002000
00000000
00000000
00000000
,
00033000
00000000
00000000
00000000
;

//---------------dance-single - ----------------
#NOTES:
     dance-single:
     :
     Medium:
     4:
     0.231,0.358,0.046,0.375,0.000:
0000
0000
0000
0000
,
0000
0000
0000
0000
,
0000
0000
0000
0000
,
0000
0000
0000
0000
,
0000
0000
0000
0000
,
0000
0000
0000
0000
,
0000
0000
0000
0000
,
0000
0000
0000
0000
,
0100
0000
0101
0000
0000
0001
0100
0000
,
0010
0000
1001
0000
0000
0010
0100
0000
,
0010
0000
1001
0000
0000
1000
0100
0000
,
1000
0000
0011
0000
0000
0001
0100
0000
,
0020
0000
2030
0000
,
3020
0000
2030
3020
,
0200
0000
0330
0000
,
0010
1000
0001
0000
,
1000
0001
0100
0001
,
0010
0001
0100
0010
,
2000
0000
3000
0000
,
0000
0000
0000
0000
,
1000
0010
0100
0001
,
0010
0001
0100
0010
,
2000
0000
3000
0000
,
1000
0002
0200
0303
,
0002
0103
0002
0013
,
0002
1003
0002
2003
,
0200
0000
3300
0000
,
0000
0000
0000
0000
,
1000
0010
0100
0001
,
0010
0001
0100
0010
,
2000
0000
3000
0000
,
1000
1000
1000
0000
,
2002
0000
0000
0000
,
0000
0000
0000
0000
,
0000
0000
0000
0000
,
0000
0000
0000
3003
,
0002
0003
2000
3000
,
0020
0030
0200
0300
,
0020
0030
2000
3000
,
0002
0000
1003
1001
,
0001
0100
0010
0100
,
0010
0000
1000
0000
0010
1000
0010
0000
,
2000
0000
3000
0000
,
0000
0000
0000
0000
,
0010
1000
0010
1000
,
0100
0000
1000
0000
0010
1000
0002
0000
,
0200
0000
0303
0000
,
0002
2003
0200
3300
,
1000
0001
0100
0001
,
0010
0001
0200
0320
,
2000
0000
3030
0000
,
0000
0000
0000
0000
,
1000
0001
0100
0001
,
0010
0001
0200
0320
,
2000
0000
3030
0000
,
2000
3002
0200
0303
,
0001
0000
1000
0000
,
0001
0000
0100
0010
,
1000
0000
0010
0000
,
0100
0000
0100
0010
,
1000
0000
0001
0000
,
0001
0000
0001
0100
,
0001
0000
0001
0000
,
0020
0000
0000
0000
,
0031
0000
0001
0000
,
1000
0000
1000
0001
,
0100
0000
0001
0000
,
0010
0000
0010
0001
,
0200
0300
0020
0030
,
2000
3000
0020
0030
,
0200
0300
0020
0030
,
2000
0000
0000
0000
,
3000
0000
0000
0000
;

//---------------dance-single - ----------------
#NOTES:
     dance-single:
     :
     Easy:
     3:
     0.175,0.276,0.054,0.145,0.000:
0000
0000
0000
0000
,
0000
0000
0000
0000
,
0000
0000
0000
0000
,
0000
0000
0000
0000
,
0000
0000
0000
0000
,
0000
0000
0000
0000
,
0000
0000
0000
0000
,
0000
0000
0000
0000
,
0001
0100
0000
0100
,
0100
0010
0000
0010
,
1000
0001
0000
0001
,
1000
1001
0000
0001
,
0100
0010
0000
0010
,
1000
0100
0000
0100
,
1000
1000
0000
0001
,
1000
1000
2000
3000
,
0001
0000
1000
0000
,
0001
0000
0001
0100
,
0020
0000
1000
0000
,
1030
0000
1000
0000
,
1000
1000
0001
0001
,
1000
0100
0010
0001
,
0202
0000
0303
0000
,
0001
0100
1000
0000
,
0100
0000
0001
0000
,
0010
0000
0100
0100
,
0200
0000
0300
0000
,
1000
0000
1000
0000
,
1001
0000
0010
0000
,
0100
0000
0010
0010
,
0020
0000
0030
0000
,
0100
0100
0100
0000
,
2002
0000
0000
0000
,
0000
0000
0000
0000
,
0000
0000
0000
0000
,
0000
0000
0000
3003
,
0220
0000
0000
0000
,
0000
0000
0000
0000
,
0000
0000
0000
0000
,
0000
0000
0000
0330
,
1000
0000
0001
0000
,
1000
0000
0001
0100
,
0020
0000
0030
0000
,
0000
0000
0000
0000
,
0010
0000
0100
0000
,
0010
0000
1000
0002
,
0020
0000
0033
0000
,
0001
0001
0002
0003
,
1000
0000
0001
0000
,
0100
0000
0010
0010
,
0020
0000
0030
0000
,
0000
0000
0000
0000
,
0100
0000
0010
0000
,
1000
0000
0001
0001
,
0002
0000
0003
0000
,
1000
1000
2000
3000
,
0100
0000
0100
0000
,
1000
0000
0010
0100
,
0001
0010
0000
0010
,
0000
0010
0001
1000
,
0100
0000
0100
0000
,
0100
0000
0100
1000
,
0010
0000
0010
0000
,
0200
0000
0000
0300
,
0010
1000
0010
0000
,
0001
0100
0001
0000
,
0010
0001
0010
0000
,
1100
0000
1010
0000
,
1000
0100
1000
0000
,
0001
1000
0001
0000
,
0100
0010
0100
0000
,
0020
0000
0000
0000
,
0030
0000
0000
0000
;

//---------------dance-single - ----------------
#NOTES:
     dance-single:
     :
     Beginner:
     1:
     0.086,0.165,0.008,0.038,0.000: // measure 1
0000
0000
0000
0000
,  // measure 2
0000
0000
0000
0000
,  // measure 3
0000
0000
0000
0000
,  // measure 4
0000
0000
0000
0000
,  // measure 5
0000
0000
0000
0000
,  // measure 6
0000
0000
0000
0000
,  // measure 7
0000
0000
0000
0000
,  // measure 8
0000
0000
0000
0000
,  // measure 9
1000
0000
0000
0000
,  // measure 10
1000
0000
0000
0000
,  // measure 11
0100
0000
0000
0000
,  // measure 12
0000
0000
0000
0000
,  // measure 13
0010
0000
0000
0000
,  // measure 14
0010
0000
0000
0000
,  // measure 15
0001
0000
0000
0000
,  // measure 16
0100
0100
0100
0000
,  // measure 17
0010
0000
0000
0000
,  // measure 18
0000
0000
0000
0000
,  // measure 19
0010
0000
0000
0000
,  // measure 20
0000
0000
0000
0000
,  // measure 21
1000
0000
0000
0000
,  // measure 22
1000
0000
0000
0000
,  // measure 23
0001
0000
0000
0000
,  // measure 24
1000
1000
1000
0000
,  // measure 25
0100
0000
0000
0000
,  // measure 26
0100
0000
0000
0000
,  // measure 27
1000
0000
0000
0000
,  // measure 28
0000
0000
0000
0000
,  // measure 29
0010
0000
0000
0000
,  // measure 30
0100
0000
0000
0000
,  // measure 31
0001
0000
0000
0000
,  // measure 32
1000
1000
1000
0000
,  // measure 33
0020
0000
0000
0000
,  // measure 34
0000
0000
0000
0000
,  // measure 35
0000
0000
0000
0000
,  // measure 36
0000
0000
0000
0000
,  // measure 37
0000
0000
0000
0000
,  // measure 38
0000
0000
0000
0000
,  // measure 39
0000
0000
0000
0000
,  // measure 40
0000
0000
0000
0030
,  // measure 41
0100
0000
0100
0000
,  // measure 42
0100
0000
0100
0000
,  // measure 43
0200
0000
0300
0000
,  // measure 44
0000
0000
0000
0000
,  // measure 45
0001
0000
0001
0000
,  // measure 46
0001
0000
0001
0000
,  // measure 47
0002
0000
0003
0000
,  // measure 48
0100
0100
0100
0000
,  // measure 49
0010
0000
0010
0000
,  // measure 50
0010
0000
0010
0010
,  // measure 51
0020
0000
0030
0000
,  // measure 52
0000
0000
0000
0000
,  // measure 53
1000
0000
1000
0000
,  // measure 54
1000
0000
1000
1000
,  // measure 55
2000
0000
3000
0000
,  // measure 56
0100
0100
0100
0000
,  // measure 57
1000
0000
0000
0000
,  // measure 58
1000
0000
0000
0000
,  // measure 59
0001
0000
0000
0000
,  // measure 60
0100
0000
0000
0000
,  // measure 61
0010
0000
0000
0000
,  // measure 62
0010
0000
0000
0000
,  // measure 63
1000
0000
0000
0000
,  // measure 64
0001
0000
0001
0000
,  // measure 65
1000
0000
0000
0000
,  // measure 66
0010
0000
0000
0000
,  // measure 67
0100
0000
0000
0000
,  // measure 68
0001
0000
0000
0000
,  // measure 69
1000
0000
0000
0000
,  // measure 70
0010
0000
0000
0000
,  // measure 71
0100
0000
0000
0000
,  // measure 72
0100
0000
0000
0000
,  // measure 73
1001
0000
0000
0000
;
