#TITLE:Forest Temple;
#SUBTITLE:(X-Dream Trance Version);
#ARTIST:Waldtempel;
#TITLETRANSLIT:;
#SUBTITLETRANSLIT:;
#ARTISTTRANSLIT:;
#CREDIT:;
#BANNER:bn.PNG;
#BACKGROUND:bg.png;
#LYRICSPATH:;
#CDTITLE:PandemiXium-cdtitle.png;
#MUSIC:23 Forest Temple (X-Dream Trance Version).mp3;
#OFFSET:1.931;
#SAMPLESTART:50.780;
#SAMPLELENGTH:12.000;
#SELECTABLE:YES;
#BPMS:0.000=118.300;
#STOPS:;
#BGCHANGES:;

//---------------dance-single - ----------------
#NOTES:
     dance-single:
     :
     Hard:
     7:
     0.339,0.335,0.133,0.240,0.053:
0000
0000
0000
0000
,
0000
0000
0000
0000
,
0000
0000
0000
0000
,
0000
0000
0000
0000
,
0000
0000
0000
0000
,
0001
1000
0100
0000
1000
0000
0010
0000
,
0100
0010
1000
0000
0001
0000
0010
0001
,
0100
0010
0100
0000
0010
0000
1000
0000
,
0001
1000
0100
0000
1000
0000
0100
0000
,
1000
0001
0010
0000
0001
0000
1100
0000
,
0001
1000
0100
0000
1000
0000
1010
0000
,
0001
1000
0100
0000
0001
0000
0110
0000
,
0010
0001
0100
0000
0010
0000
1001
0000
,
0000
0000
0000
1000
0200
0000
0000
1000
0000
1300
0000
0000
0000
0000
0000
0000
,
0000
0000
0000
0010
0002
0000
0000
0010
0000
0013
0000
0000
0000
0000
0000
0000
,
0000
0000
0000
0001
0200
0000
0000
0001
0000
0301
0000
0000
0000
0000
0000
0000
,
0000
0000
0000
0010
2000
0000
0000
0001
0000
0001
0000
0000
0000
0000
0000
0000
,
0002
0000
0000
0000
,
3003
0001
0100
0010
,
0100
0000
0010
0000
0010
1000
0001
0000
,
2002
0000
0000
0000
0000
0000
0000
3003
,
1000
0000
0001
0000
0100
0010
1000
0000
,
0100
0000
0110
0000
0010
1000
0001
0000
,
2200
0000
0000
0000
0000
0000
0000
3300
,
1000
0000
0001
0000
0100
0010
1000
0000
,
0001
1000
0001
0100
0001
0010
0100
1000
,
0010
0200
0000
0310
0000
0100
0000
0010
,
1000
0001
0000
1000
0000
1000
0000
0001
,
1000
0200
0000
1300
0000
1000
0000
1000
,
0001
0100
0000
0010
0000
0010
0000
0100
,
0010
1000
0000
1000
0000
1000
0001
0100
,
0010
1000
0000
0010
0000
1000
0000
0010
,
1000
0001
0000
0010
0000
0100
0000
0010
,
0001
0000
1000
0000
1000
0001
0100
0000
,
0001
0000
1010
0000
0001
0100
0010
0000
,
0100
0000
1001
0000
0001
0100
1000
0000
,
1000
0000
1100
0000
0100
0010
1000
0000
,
0100
0000
1001
0000
0001
0010
1000
0000
,
1000
0000
1010
0000
0001
0100
0010
0000
,
0100
0000
1001
0000
0001
1000
0010
0000
,
1000
0000
1100
0000
1000
1000
0001
0000
,
0100
0000
0101
0000
0001
0100
0010
0000
,
0200
0310
2000
3010
,
0002
0103
0020
0031
,
2000
3100
2000
3010
,
0200
0000
0310
0000
0200
0000
0310
1000
,
0002
0010
0010
0013
,
2000
0100
0100
3100
,
0020
0100
0100
0130
,
0200
0010
0010
0310
,
0100
0010
2000
0000
0001
0000
3001
0000
,
0001
0100
0020
0000
0100
0000
0130
0000
,
0100
0010
2000
0000
0100
0000
3100
0000
,
1000
0001
0200
0000
0001
0000
0001
0000
,
0300
0000
0000
0000
;

//---------------dance-single - ----------------
#NOTES:
     dance-single:
     :
     Medium:
     4:
     0.236,0.310,0.027,0.311,0.000:
0000
0000
0000
0000
,
0000
0000
0000
0000
,
0000
0000
0000
0000
,
0000
0000
0000
0000
,
0000
0000
0000
0000
,
0002
0000
0000
0003
,
2000
0000
0000
3000
,
0002
0000
0000
0003
,
2000
0000
0000
3000
,
0000
0010
0000
0010
,
0000
1000
0000
0001
,
2000
0100
0000
0100
,
0000
0100
0000
3100
,
0000
0000
2000
0000
0000
3000
0000
0000
,
0000
0000
0002
0000
0000
0003
0000
0000
,
0000
0000
0200
0000
0000
0300
0000
0000
,
0000
0000
0020
0000
0000
0030
0000
0000
,
0220
0000
0000
0330
,
0000
0010
0000
1000
,
0000
0001
0000
1000
,
0202
0000
0000
0000
0000
0000
0000
0303
,
0000
0001
0000
0100
,
0000
0001
0000
0010
,
2200
0000
0000
3300
,
1000
1000
0000
0001
,
0100
0010
1000
0001
,
1000
0001
0000
1000
0000
0001
0000
0100
,
0000
0001
0000
0010
0000
0001
0000
0100
,
0001
0100
0000
0010
0000
0100
0000
0010
,
0000
1000
0000
0010
0000
0100
0000
0010
,
1000
0001
0000
0001
0000
1000
0000
0001
,
0000
1000
0000
0100
0000
1000
0000
0010
,
0100
0001
0000
0100
0000
0010
0000
0100
,
0010
1000
0000
0010
0000
1000
0000
0001
,
0100
0010
1000
0000
0010
0000
0010
0000
,
1000
0100
1000
0000
0100
0000
0100
0000
,
1000
0010
0100
0000
0100
0000
0010
0000
,
0100
0010
0100
0000
0010
0000
0100
0000
,
0001
0100
0001
0000
0100
0000
0001
0000
,
0010
0001
0010
0000
0001
0000
0100
0000
,
0010
0100
0010
0000
0100
0000
0010
0000
,
0010
1000
0100
0000
0100
0000
1000
0000
,
0200
0000
1300
0000
0100
1000
0100
0000
,
1000
0000
0020
0000
0130
0010
0100
0000
,
0002
0000
0103
0000
0001
0010
0001
0000
,
0200
0000
0310
0000
0010
0001
0010
0000
,
0002
0003
2000
3000
,
0020
0030
0200
0300
,
0020
0030
2000
3000
,
0002
0003
0020
0030
,
0002
0000
0020
0033
,
2000
0000
0200
3300
,
0020
0000
2000
3030
,
0020
0000
0200
0330
;

//---------------dance-single - ----------------
#NOTES:
     dance-single:
     :
     Easy:
     2:
     0.143,0.168,0.027,0.213,0.000:
0000
0000
0000
0000
,
0000
0000
0000
0000
,
0000
0000
0000
0000
,
0000
0000
0000
0000
,
0000
0000
0000
0000
,
0001
0000
0000
0100
,
0010
0000
0000
0000
,
0010
0000
0000
1000
,
0001
0000
0000
0000
,
0000
0100
0000
0010
,
0000
1000
0000
0001
,
0010
0100
0000
0100
,
0000
1000
0000
1000
,
0000
0020
0030
0000
,
0000
0200
0300
0000
,
0000
0002
0003
0000
,
0000
2000
3000
0000
,
0202
0000
0000
0000
,
0303
0001
0000
0001
,
0000
1000
0000
0010
,
2020
0000
0000
3030
,
0000
1000
0000
0001
,
0000
0010
0000
0100
,
2002
0000
0000
3003
,
0000
0001
0000
0100
,
0010
1000
0100
0010
,
0002
0000
0000
0003
,
0100
0000
0010
0000
,
2000
0000
0000
0000
,
3010
0000
0100
0000
,
0002
0000
0000
0000
,
0103
0000
0010
0000
,
2000
0000
0000
0000
,
3010
0010
1000
0001
,
0010
0001
0000
0001
,
0100
0010
0000
0010
,
0010
1000
0000
1000
,
0001
0100
0000
0100
,
0010
1000
0000
1000
,
1000
0100
0000
0100
,
0001
0010
0000
0010
,
0100
1000
0000
0001
,
2000
0000
0000
3000
,
0002
0000
0000
0003
,
0200
0000
0000
0300
,
0020
0000
0000
0030
,
2000
0000
0000
3000
,
0002
0000
0000
0003
,
0020
0000
0000
0030
,
0200
0000
0000
0000
,
1000
0000
0000
0000
,
1000
0000
0000
0000
,
2300
0000
0000
0000
,
0020
0000
0000
0000
,
3030
0000
0000
0000
;

//---------------dance-double - ----------------
#NOTES:
     dance-double:
     :
     Challenge:
     6:
     0.328,0.335,0.115,0.355,0.000:
00000000
00000000
00000000
00000000
,
00000000
00000000
00000000
00000000
,
00000000
00000000
00000000
00000000
,
00000000
00000000
00000000
00000000
,
00000000
00000000
00000000
00000000
,
01000000
00010000
00100000
00000000
00010000
00000000
00110000
00000000
,
00100000
00001000
00010000
00000000
00000010
00000000
00000110
00000000
,
00000001
00000100
00001000
00000000
00000100
00000000
00000110
00000000
,
00000010
00001000
00000100
00000000
00000100
00010000
00001000
00000000
,
00001000
00100000
00020000
00000000
00100000
00000000
01030000
00000000
,
00010000
10000000
02000000
00000000
10000000
00000000
13000000
00000000
,
10000000
00010000
00200000
00000000
00010000
00000000
00310000
00000000
,
00100000
00001000
00020000
00000000
00000100
00000000
00030100
00000000
,
00002000
00000000
00000000
00003000
,
00000020
00000000
00000000
00000030
,
00000200
00000000
00000000
00000300
,
00000002
00000000
00000000
00000003
,
00002002
00000000
00000000
00003003
,
00000001
00000100
00000010
00001000
,
00000100
00010000
00001000
00100000
,
00220000
00000000
00000000
00330000
,
00010000
10000000
01000000
00100000
,
00010000
00100000
00001000
00010000
,
00020020
00000000
00000000
00030030
,
00000010
00000100
00000010
00001000
,
00000100
00010000
00100000
01000000
,
10000000
00010000
00000000
00100000
00000000
00001000
00100000
00010000
,
01000000
00010000
00000000
00100000
00000000
00100000
00000000
00100000
,
00001000
00010000
00000000
00000100
00000000
00000100
00001000
00000100
,
00001000
00000010
00000000
00000100
00000000
00000100
00000000
00000010
,
00001000
00000001
00000000
00001000
00000000
00000100
00001000
00000010
,
00000100
00000010
00000000
00001000
00000000
00000100
00000000
00010000
,
00001000
00100000
00000000
00010000
00000000
00100000
00000000
00010000
,
02000000
03010000
00020000
00130000
,
00100000
00010000
01000000
00000000
00100000
00000000
01100000
00000000
,
00100000
10000000
00010000
00000000
10000000
00000000
11000000
00000000
,
10000000
00010000
01000000
00000000
00100000
00000000
01010000
00000000
,
00010000
00100000
00001000
00000000
00100000
00000000
00011000
00000000
,
00010000
00000100
00001000
00000000
00000010
00000000
00001010
00000000
,
00000010
00001000
00000100
00000000
00001000
00000010
00000100
00000001
,
00000010
00000001
00000100
00000000
00000010
00000000
00001001
00000000
,
00000010
00001000
00000100
00000000
00000100
00001000
00000010
00000000
,
00000020
00001030
00000200
00001300
,
00002000
00003100
00000200
00010300
,
00020000
00031000
00002000
00103000
,
00200000
00310000
00020000
01030000
,
02000000
03100000
00200000
10300000
,
20000000
31000000
02000000
03100000
,
00200000
00310000
00200000
00301000
,
00020000
00030100
00002000
00003010
,
00000200
00000301
00000002
00000013
,
00000002
00000103
00000002
00000013
,
00000002
00000013
00000200
00000310
,
00002000
00003100
00000200
00010300
,
00011000
00000000
00000000
00000000
;

//---------------dance-single - ----------------
#NOTES:
     dance-single:
     :
     Beginner:
     1:
     0.053,0.071,0.000,0.027,0.000: // measure 1
0000
0000
0000
0000
,  // measure 2
0000
0000
0000
0000
,  // measure 3
0000
0000
0000
0000
,  // measure 4
0000
0000
0000
0000
,  // measure 5
0000
0000
0000
0000
,  // measure 6
0010
0000
0000
0000
,  // measure 7
0100
0000
0000
0000
,  // measure 8
1000
0000
0000
0000
,  // measure 9
0001
0000
0000
0000
,  // measure 10
0001
0000
0000
0000
,  // measure 11
0001
0000
0000
0000
,  // measure 12
1000
0000
0000
0000
,  // measure 13
0010
0000
0000
0000
,  // measure 14
0000
0000
0000
0000
,  // measure 15
0000
0000
0000
0000
,  // measure 16
0000
0000
0000
0000
,  // measure 17
0000
0000
0000
0000
,  // measure 18
0200
0000
0000
0000
,  // measure 19
0300
0000
0000
0000
,  // measure 20
0000
0000
0000
0000
,  // measure 21
0200
0000
0000
0000
,  // measure 22
0300
0000
0000
0000
,  // measure 23
0000
0000
0000
0000
,  // measure 24
0200
0000
0000
0000
,  // measure 25
0300
0000
0000
0000
,  // measure 26
0000
0000
0000
0000
,  // measure 27
0100
0000
0000
0000
,  // measure 28
1000
0000
0000
0000
,  // measure 29
0001
0000
0000
0000
,  // measure 30
0010
0000
0000
0000
,  // measure 31
0100
0000
0000
0000
,  // measure 32
1000
0000
0000
0000
,  // measure 33
0100
0000
0000
0000
,  // measure 34
0010
0000
0000
0000
,  // measure 35
0001
0000
0000
0000
,  // measure 36
0001
0000
0000
0000
,  // measure 37
1000
0000
0000
0000
,  // measure 38
0010
0000
0000
0000
,  // measure 39
0010
0000
0000
0000
,  // measure 40
0100
0000
0000
0000
,  // measure 41
0001
0000
0000
0000
,  // measure 42
0001
0000
0000
0000
,  // measure 43
1000
0000
0000
0000
,  // measure 44
1000
0000
0000
0000
,  // measure 45
0001
0000
0000
0000
,  // measure 46
0001
0000
0000
0000
,  // measure 47
0100
0000
0000
0000
,  // measure 48
0010
0000
0000
0000
,  // measure 49
1000
0000
0000
0000
,  // measure 50
0100
0000
0000
0000
,  // measure 51
1000
0000
0000
0000
,  // measure 52
1000
0000
0000
0000
,  // measure 53
0010
0000
0000
0000
,  // measure 54
0010
0000
0000
0000
;
