#TITLE:Finished Symphony;
#SUBTITLE:;
#ARTIST:hybird;
#TITLETRANSLIT:;
#SUBTITLETRANSLIT:;
#ARTISTTRANSLIT:;
#CREDIT:;
#BANNER:bn.png;
#BACKGROUND:bg.png;
#LYRICSPATH:;
#CDTITLE:;
#MUSIC:Hybrid Finished Symphony (HQ).mp3;
#OFFSET:-0.027;
#SAMPLESTART:58.160;
#SAMPLELENGTH:12.000;
#SELECTABLE:YES;
#BPMS:0.000=66.000,16.000=132.000,104.000=66.000,108.000=132.000,204.000=66.000,206.000=132.000;
#STOPS:;
#BGCHANGES:;

//---------------dance-single - ----------------
#NOTES:
     dance-single:
     :
     Hard:
     7:
     0.404,0.416,0.162,0.571,0.157:
0000
0000
0000
0000
,
0000
0000
0000
0000
,
0000
0000
0000
0000
,
0020
0000
2030
0000
0002
0000
0000
3003
,
1100
0000
0000
1000
0000
0000
0001
0000
0010
0000
0000
0100
0000
0000
0010
0000
,
0001
0000
0000
0001
0100
0000
0000
0000
0020
0000
0000
0000
1000
0000
0000
0000
,
0002
0000
0000
0003
0000
0000
0000
0000
,
2030
3100
0200
0310
,
0010
0000
0000
1001
0000
0000
0001
0000
0000
0000
1000
0000
0100
0000
1000
0000
,
0010
0000
0000
0100
0000
0000
1000
0000
0000
0000
0001
0000
0010
0000
0100
0000
,
0020
0000
0000
0100
0000
0000
0100
0000
,
0200
0000
0000
0330
,
0001
0000
0000
0101
0000
0000
0100
0000
0000
0000
0010
0000
1000
0000
0100
0000
,
0010
0000
0000
1100
0000
0000
0001
0000
0000
0000
0000
1000
0010
0000
0100
0000
,
0001
0000
0000
1100
0000
0000
0010
0000
0000
0000
0000
0100
0010
0000
0001
0000
,
0010
0000
0000
0100
0000
0000
0110
0000
0000
0000
0001
0000
0100
0000
0010
0000
,
2000
0000
0000
0100
0000
0000
3100
0000
0000
0000
0000
0000
2000
0000
0000
0000
,
3001
0000
0000
0010
0000
0000
0100
0000
1000
0000
0000
0010
0000
0000
0100
0000
,
0002
0000
0100
0000
,
0020
0000
0000
0000
0000
0000
0000
0000
0033
0000
0001
0100
0010
0000
1000
0000
,
0200
0000
1000
2300
0000
0010
0020
3030
,
0002
0000
0100
0200
0003
0010
0020
0330
,
0020
0000
1000
2030
0000
0100
0200
3300
,
2000
0000
0010
3020
0000
0100
0200
0330
,
2000
0000
0001
0002
3000
1000
2000
0003
,
0002
3000
0100
0200
0003
0010
0020
0300
,
2000
0000
0030
0000
0002
0000
3000
0000
0200
0000
0000
0003
0020
0000
0000
0330
,
1001
0000
0000
0001
0000
0000
0100
0000
0010
0000
0000
0000
0100
0000
0010
0000
,
0100
0000
0000
0001
0000
0000
0010
0000
0210
0000
0000
0000
0310
0000
0000
0000
,
0010
0000
0000
0001
0000
0000
0100
0000
0010
0000
0000
0000
1010
0000
0000
0000
,
2000
0000
0000
3100
0000
0000
1000
0000
0020
0000
0000
0000
0130
0000
0010
0000
,
1000
0000
0000
0001
0000
0000
0010
0000
0001
0000
0000
0000
0101
0000
0000
0000
,
0001
0000
0000
0100
0000
0000
0010
0000
2000
0000
0000
0000
0100
0000
0000
0000
,
3020
0000
0000
0130
0000
0000
0100
0000
0020
0000
0000
0000
1030
0000
0000
0000
,
0002
0000
0020
0033
,
0110
0000
0000
0010
0000
0000
0001
0000
1000
0000
0000
0000
0001
0000
1000
0000
,
0001
0000
0000
0010
0000
0000
1000
0000
1002
0000
0000
0000
1003
0000
0000
0000
,
1000
0000
0000
0010
0000
0000
0001
0000
1000
0000
0000
0000
1100
0000
0000
0000
,
0200
0000
0000
0301
0000
0000
0100
0000
2000
0000
0000
0000
3001
0000
1000
0000
,
0100
0000
0000
0010
0000
0000
0001
0000
0010
0000
0000
0000
0011
0000
0000
0000
,
0010
0000
0000
0001
0000
0000
1000
0000
0200
0000
0000
0000
0001
0000
0000
0000
,
2300
0000
0000
3001
0000
0000
0001
0000
2000
0000
0000
0000
3100
0000
0000
0000
,
0020
0000
0000
0000
0000
0000
0000
0000
0100
0000
0000
0000
0130
0010
1000
0001
,
0200
0000
0000
0001
,
0320
0000
0000
0000
,
2000
0000
0030
0100
,
0200
0000
0000
3300
,
1000
0001
0100
0001
0010
0100
1000
0010
,
0200
0000
0320
0000
,
0230
0000
0302
0000
,
1003
0001
0100
0001
0010
0000
0000
0000
1001
0000
0011
0000
0100
0000
0010
0000
,
0202
0000
0303
0000
;

//---------------dance-single - ----------------
#NOTES:
     dance-single:
     :
     Medium:
     5:
     0.337,0.367,0.076,0.628,0.000:
0000
0000
0000
0000
,
0000
0000
0000
0000
,
0000
0000
0000
0000
,
0020
0000
2030
0000
0200
0000
0000
3300
,
1000
0000
0001
0100
0000
0100
0010
0000
,
0110
0010
2000
0001
,
0020
0000
0000
3000
,
0100
0000
0200
0330
,
0110
0000
0000
1001
0000
0001
0100
0000
,
0110
0000
1000
0100
0010
0000
0010
1000
,
0002
0000
0000
2000
0000
0000
0003
0000
,
0200
0000
0000
3300
,
1000
0100
0010
0001
0000
0001
0001
0000
,
0001
0000
0100
0010
0000
0010
1000
0001
,
2000
0000
0100
0000
,
0200
3000
0020
0330
,
0010
1000
0010
0100
0000
0000
0110
0000
,
0100
0010
0001
0000
0001
0010
0100
0000
,
0200
1300
2000
3010
,
0200
0000
0301
0000
1000
0001
0100
0000
,
0002
0000
0000
1000
0000
0000
0203
0000
,
0320
0000
0000
1000
0000
0000
2030
0000
,
0100
0000
0000
3020
0000
0000
0100
0000
,
0230
0000
0000
0001
0000
0000
0320
0000
,
2030
0000
0000
3002
0000
0000
0203
0000
,
0320
0000
0030
2000
0000
0000
3200
0000
,
2000
0300
0020
3000
0200
0030
0002
0303
,
1002
0100
0020
0033
,
0001
0010
0100
0001
0200
0000
0310
0000
,
0020
2030
0200
3300
,
2200
0300
0020
3030
,
0010
1000
0010
0100
0002
0000
0000
0000
,
0000
0000
0010
0103
,
0010
1000
0001
1000
0200
0000
0000
0000
,
2300
0000
0020
3030
,
0020
2030
0200
0000
,
0000
3000
1000
1000
,
2300
3020
0200
0030
,
0020
0030
0020
0030
,
0302
0023
0200
0000
,
0000
0030
0010
0010
,
0320
2030
0002
3000
,
0200
0003
0020
0330
,
0120
0000
0000
1030
0000
1000
0001
0100
,
0020
0000
0000
1030
0000
1000
0100
0010
,
0002
0000
0000
0103
0000
0010
0100
0001
,
2000
0000
0000
3001
0000
0000
0100
0000
,
0001
0100
0010
0000
1000
0100
0010
0000
,
0100
0010
1000
0001
,
0100
0010
1000
0100
,
1000
0001
0100
0000
0001
0001
1000
0010
,
0200
0000
0300
0000
;

//---------------dance-double - ----------------
#NOTES:
     dance-double:
     :
     Challenge:
     7:
     0.433,0.441,0.495,0.656,0.114:
00000000
00000000
00000000
00000000
,
00000000
00000000
00000000
00000000
,
00000000
00000000
00000000
00000000
,
02000000
00000000
00000200
03000000
00002000
00000000
00000000
00003300
,
00001200
00001300
00000200
00010300
,
00000100
00010000
00001000
00100000
00020000
00000000
02030000
00000000
,
03200000
00000000
00000000
00000000
,
00302000
00000000
00000002
00003003
,
00001001
00000000
00000000
00000010
00000000
00000000
00001001
00000000
00000000
00000000
00001000
00000000
00000001
00000000
00000100
00000000
,
00000110
00000000
00000000
00001010
00000000
00000000
00001100
00000000
00000000
00000000
00000100
00000000
00020000
00000000
00000000
00000000
,
00002000
00000000
00000000
00030000
00000000
00000000
00000000
00000000
,
02000000
00000000
03003000
00000000
,
01100000
00000000
00000000
01000000
00000000
00000000
10010000
00000000
00000000
00000000
10000000
00000000
01000000
00000000
00100000
00000000
,
01100000
00000000
00000000
10000000
00000000
00000000
00110000
00000000
00000000
00000000
00010000
00000000
01000000
00000000
00010000
00000000
,
00110000
00000000
00000000
00010000
00000000
00000000
00010100
00000000
00000000
00000000
00000010
00000000
00000100
00000000
00000010
00000000
,
00001000
00000000
00000000
00001000
00000000
00000000
00020200
00000000
00000000
00000000
00000000
00000000
00030300
00000000
00000000
00000000
,
00002000
00000000
00000000
01000000
00000000
00000000
00103000
00000000
00000000
00000000
00000000
00000000
00011000
00000000
00000000
00000000
,
00021000
00000000
00000000
00000100
00000000
00000000
00030010
00000000
00000000
00000000
00000000
00000000
00011000
00000000
00000000
00000000
,
00012000
00000000
00000000
02003000
00000000
00000000
00100000
00000000
,
20000000
00000000
00000000
00000000
33000000
00000000
20020000
30030000
,
00200000
00000000
00000000
00302000
00000000
00000000
00023000
00000000
,
00030020
00000000
00000000
00000230
00000000
00000000
00000302
00000000
,
00000023
00000000
00000000
00002030
00000000
00000000
00003200
00000000
,
00020300
00000000
00030000
00002000
00000000
00000000
00203000
00000000
,
02300000
00000000
00000000
03020000
00000000
00000000
02030000
00000000
,
00200000
03000000
00000000
20000000
00300000
00000000
32000000
00000000
,
03100000
00001000
00010000
00000000
,
01010000
00000000
00000000
01000000
00000000
00000000
01000000
00000000
01100000
00000000
00000000
00000000
01000000
00000000
00100000
00000000
,
11000000
00000000
00000000
01000000
00000000
00000000
00100000
00000000
00110000
00000000
00000000
00000000
00011000
00000000
00000000
00000000
,
00001100
00000000
00000000
00001000
00000000
00000000
00001000
00000000
00000010
00000000
00000000
00000000
00000100
00000000
00000010
00000000
,
00002000
00000000
00000000
00000100
00000000
00000000
00003100
00000000
00000020
00000000
00000000
00000001
00000000
00000000
00000001
00000000
,
00000031
00000000
00000000
00001010
00000000
00000000
00000100
00000000
00000100
00000000
00000000
00000000
00000010
00000000
00001000
00000000
,
00000100
00000000
00000000
00010000
00000000
00000000
00001000
00000000
00101000
00000000
00000000
00000000
00110000
00000000
00000000
00000000
,
01100000
00000000
00000000
01000000
00000000
00000000
01000000
00000000
00010000
00000000
00100000
00000000
01000000
00000000
10000000
00000000
,
02000000
00000000
00000000
10000000
00000000
00000000
00100000
00000000
00200000
00000000
00000000
00000000
03300000
00000000
00000000
00000000
,
10010000
01010000
00220000
00000000
,
00330000
00000000
00110000
00101000
,
00010100
00000110
00000022
00000033
,
00000202
00000303
00002020
00003030
,
00001020
00001030
00022000
00000000
,
00000000
00000000
00033000
00000000
00022000
00033000
00220000
00330000
,
10010000
01010000
02200000
03300000
,
22000000
00000000
00000000
33000000
00220000
00000000
00000000
00330000
,
01000000
00000000
00000000
00010000
00000000
00000000
00100000
00000000
00000000
00000000
00100000
00000000
00001000
00000000
00010000
00000000
,
00000100
00001000
00000000
00000010
00000100
00000000
00001001
00000000
,
00000110
00000000
00000000
00000011
00000000
00000000
00000011
00000000
00000000
00000000
00000010
00000000
00000100
00000000
00001000
00000000
,
00000100
00010000
00000000
00010000
00001000
00000000
00010000
00000000
,
00001000
01000000
00100000
10000000
01000000
00100000
00010000
00000100
,
00002000
00003000
00000100
00000010
,
00000200
00000000
00000010
00000310
,
00000010
00001000
00000100
00001000
00000100
00000000
00000100
00010000
00001000
00000000
00001000
00010000
00000000
00010000
01000000
00000000
,
20200000
00000000
30300000
00000000
;

//---------------dance-single - ----------------
#NOTES:
     dance-single:
     :
     Easy:
     2:
     0.173,0.220,0.038,0.228,0.000:
0000
0000
0000
0000
,
0000
0000
0000
0000
,
0000
0000
0000
0000
,
0000
0000
0000
0000
,
0001
0000
1000
0000
,
0010
0000
0100
0001
,
0020
0000
0000
0030
,
0010
0000
0001
0000
,
0110
0000
0000
0100
,
0010
0000
0000
0010
,
0200
0000
0000
0000
,
0300
0000
0000
0000
,
0001
0000
0000
1000
,
0010
0000
0000
0000
,
0100
0000
0001
0000
,
0020
0000
0000
0030
,
0001
0000
0000
0100
,
0020
0000
0000
0030
,
0100
0000
0010
0000
,
2000
0000
0000
3000
,
0001
0000
0000
1000
,
0010
0000
0000
0100
,
0001
0000
0000
0001
,
0010
0000
0000
0100
,
1000
0000
0000
1000
,
0010
0000
0000
0100
,
0001
0000
1000
0000
0020
0000
0000
0030
,
0100
0010
2000
0000
,
0000
3000
0001
0100
,
0010
0010
2000
0000
,
0100
0000
0200
3300
,
1000
0010
0200
0000
,
0000
0000
0010
0310
,
0100
0001
0020
0000
,
0200
0030
0020
0330
,
0010
0001
0200
0000
,
0000
0300
0010
1000
,
0100
0010
0002
0000
,
0010
0000
0200
0303
,
0001
0100
0020
0000
,
0000
0000
0130
0010
,
1000
0100
0020
0000
,
0001
0000
0130
0000
,
2002
0000
0000
0000
,
0000
0000
0000
3003
,
0220
0000
0000
0000
,
0000
0000
0000
0330
,
0010
1000
0100
1000
,
0010
0100
0001
1000
,
0001
0010
0001
1000
,
0001
0100
0010
1000
,
0022
0000
0033
0000
;

//---------------dance-single - ----------------
#NOTES:
     dance-single:
     :
     Beginner:
     1:
     0.124,0.196,0.038,0.295,0.000: // measure 1
0000
0000
0000
0000
,  // measure 2
0000
0000
0000
0000
,  // measure 3
0000
0000
0000
0000
,  // measure 4
0000
0000
0000
0000
,  // measure 5
0010
0000
0000
0000
,  // measure 6
1000
0000
0000
0000
,  // measure 7
0002
0000
0000
0000
,  // measure 8
0003
0000
0000
0000
,  // measure 9
1000
0000
0000
0000
,  // measure 10
0010
0000
0000
0000
,  // measure 11
0200
0000
0000
0000
,  // measure 12
0300
0000
0000
0000
,  // measure 13
0010
0000
0000
0000
,  // measure 14
1000
0000
0000
0000
,  // measure 15
0002
0000
0000
0000
,  // measure 16
0003
0000
0000
0000
,  // measure 17
1000
0000
0000
0000
,  // measure 18
0010
0000
0000
0000
,  // measure 19
0200
0000
0000
0000
,  // measure 20
0300
0000
0000
0000
,  // measure 21
0002
0000
0000
0003
,  // measure 22
2000
0000
0000
3000
,  // measure 23
0020
0000
0000
0030
,  // measure 24
0200
0000
0000
0300
,  // measure 25
0020
0000
0000
0030
,  // measure 26
2000
0000
0000
3000
,  // measure 27
2002
0000
3003
0000
,  // measure 28
0010
0010
0020
0000
,  // measure 29
0030
0000
0100
0100
,  // measure 30
0100
0100
0200
0000
,  // measure 31
0020
0000
0000
0330
,  // measure 32
0010
0010
0020
0000
,  // measure 33
0000
0030
1000
1000
,  // measure 34
0001
0001
0002
0000
,  // measure 35
2000
0000
0000
3003
,  // measure 36
0001
0000
2000
0000
,  // measure 37
0000
0000
3010
0010
,  // measure 38
0100
0000
0020
0000
,  // measure 39
2000
0000
0000
3030
,  // measure 40
1000
0000
0002
0000
,  // measure 41
0000
0003
0010
0000
,  // measure 42
0010
0000
0200
0000
,  // measure 43
2000
0000
0000
3300
,  // measure 44
2002
0000
0000
0000
,  // measure 45
0000
0000
0000
3003
,  // measure 46
0220
0000
0000
0000
,  // measure 47
0000
0000
0000
0330
,  // measure 48
0020
0000
0000
0000
,  // measure 49
0000
0000
0000
0000
,  // measure 50
0030
0000
0000
0000
,  // measure 51
0000
0000
1000
0001
,  // measure 52
2002
0000
3003
0000
;
