#TITLE:Fairytale;
#SUBTITLE:;
#ARTIST:Bass Piratez;
#TITLETRANSLIT:;
#SUBTITLETRANSLIT:;
#ARTISTTRANSLIT:;
#CREDIT:;
#BANNER:bn.png;
#BACKGROUND:bg.png;
#LYRICSPATH:;
#CDTITLE:PandemiXium-cdtitle.png;
#MUSIC:Fairytale.mp3;
#OFFSET:-0.015;
#SAMPLESTART:68.740;
#SAMPLELENGTH:12.000;
#SELECTABLE:YES;
#BPMS:0.000=144.000,130.000=72.000,146.000=144.000;
#STOPS:33.000=1.250
;
#BGCHANGES:;

//---------------dance-single - ----------------
#NOTES:
     dance-single:
     :
     Hard:
     7:
     0.375,0.421,0.328,0.115,0.000:
0000
0000
0000
0000
,
0000
0000
0000
0000
,
0000
0000
0000
0000
,
0000
0000
0000
0000
,
0000
0000
0000
0000
,
0000
0000
0000
0000
,
0000
0000
0000
0000
,
0000
0000
0000
0000
,
0000
0000
0000
0000
0100
0000
0000
0001
,
0010
0000
0000
0000
0000
0000
0000
0001
,
1000
0100
1000
0010
0100
0000
0000
0100
,
0001
0000
0000
0000
,
0000
0000
0010
0000
0100
0000
1000
0010
,
0100
0000
0000
0000
,
0000
0010
1000
0100
0010
0000
0000
0000
,
0000
0000
0001
1000
0200
0000
0000
0000
,
1300
0000
1000
0000
1001
0000
0000
0001
,
0020
0000
0000
0000
0030
0000
0000
0001
,
0010
1000
0010
0001
0100
0000
0000
0010
,
2000
0000
3000
0000
,
0000
0000
0010
0000
2002
0000
3003
1000
,
0020
0000
0000
0000
0000
0000
0030
0100
,
0010
1000
0001
0010
0200
0000
0000
0000
,
0300
0000
1000
0010
0100
0000
0010
0000
,
1000
0000
0001
0000
0001
0010
0001
0000
,
1000
0100
1000
0000
0001
0000
0110
0000
,
0001
0000
0011
0000
0001
0100
0010
0000
,
0001
0100
0010
0000
0100
0000
0110
0000
,
0010
0000
1100
0000
1000
0001
0100
0000
,
1000
0001
0100
0000
0001
0000
1010
0000
,
0001
0000
0110
0000
1000
0100
0010
0000
,
1000
0100
0010
0000
1000
0000
0011
0000
,
0001
1001
0200
0000
,
0000
0300
0020
0000
,
0000
0030
2000
0000
,
0000
3000
0002
0003
,
0020
0030
1001
0101
,
0001
0100
0010
0000
0100
0000
0110
0000
,
0010
1000
0001
1000
0100
0000
1100
0000
,
1000
0001
0100
0000
0010
0000
0110
0000
,
0010
0100
0010
0100
0010
0000
1001
0000
,
1000
0001
0100
0000
0010
0000
1001
0000
,
0001
0100
1000
0000
1000
0000
0101
0000
,
1000
0001
0010
0001
0100
0000
0110
0000
,
0010
0100
1000
0001
0010
0000
0011
0000
,
0001
0010
0100
1000
0100
0000
1100
0000
,
1000
0100
0010
0001
0010
0000
1001
0000
,
0001
1000
0010
0100
0001
0000
1001
0000
,
1000
0001
0100
0010
1000
0000
0011
0000
,
0001
0100
0010
1000
0001
0000
1100
0000
,
1000
0001
0100
0010
1000
0000
1100
0000
,
0001
0100
0010
0000
0100
0000
0110
0000
,
0010
0100
0010
1000
0001
0000
1000
0001
,
0010
0001
0100
0010
1000
0000
1100
0000
,
1000
0100
1000
0010
0100
0000
0110
0000
,
0010
0100
1000
0001
0010
0000
0011
0000
,
0001
0010
0100
1000
0001
0000
1001
0000
,
0001
0100
0010
0000
0100
0000
0010
0000
,
0010
1000
0001
0000
1000
0000
1000
0000
,
1000
0001
1000
0001
0010
0000
0010
0000
,
0010
0001
0010
0100
1000
0000
1100
0000
,
0100
1100
1000
1100
,
0100
0000
1000
0001
0100
0000
0101
0000
,
0001
0101
0100
0101
,
0001
1000
0001
1000
0010
0000
1010
0000
,
1000
1010
0010
1010
,
1000
0010
0100
0001
0200
0000
0020
0000
,
0000
0000
0000
0000
,
0000
0000
0000
0330
0000
0000
0000
0000
;

//---------------dance-single - ----------------
#NOTES:
     dance-single:
     :
     Medium:
     5:
     0.306,0.450,0.550,0.213,0.000:
0000
0000
0000
0000
,
0000
0000
0000
0000
,
0000
0000
0000
0000
,
0000
0000
0000
0000
,
0000
0000
0000
0000
,
0000
0000
0000
0000
,
0000
0000
0000
0000
,
0000
0000
0000
0000
,
0000
0000
0000
0000
0010
0000
0000
1000
,
0200
0000
0300
0000
,
1000
0000
0010
0000
0200
0000
0000
0301
,
0200
0000
0000
0300
,
0000
0000
0001
0000
1001
0000
0000
0002
,
2000
0000
3003
0000
,
0001
1000
0010
0000
,
0000
0000
0010
1000
0200
0000
0000
0000
,
1000
0000
1000
0000
1300
0000
0000
1000
,
0200
0000
0300
0000
,
1000
0000
0010
0000
0200
0000
0000
0001
,
0002
0000
0000
0000
,
0303
0000
0101
0000
1100
0000
0000
1000
,
0200
0000
0300
0000
,
0100
1000
0010
0000
,
0000
0000
0010
0100
0002
0000
0000
0000
,
2000
0000
3003
0000
0001
0000
0000
0002
,
0200
0000
0303
0000
,
0001
0000
0100
0000
0020
0000
0000
0130
,
0020
0000
0000
0000
,
0030
0000
0100
0000
1001
0000
0000
1000
,
0200
0000
0000
0000
0000
0300
0000
0000
,
1000
0100
2000
0000
,
0000
0000
3010
0001
0200
0000
0000
0000
,
0001
0000
0001
0300
0202
0000
0000
0300
,
0100
0100
0200
0000
,
0303
0000
2000
0000
,
3000
0000
0002
0000
,
0200
0000
0000
0303
0101
0000
0101
0000
,
0101
0000
1100
1100
,
1100
0000
1010
1010
,
0010
1000
1010
1010
,
0101
0000
0011
0011
,
0011
0000
1100
1100
,
1100
0000
1001
1001
,
1001
1000
0001
0100
,
0010
0100
0110
1010
,
0110
0000
0110
0101
,
0011
0000
0101
0110
,
1010
0010
1010
1000
,
1000
0100
0010
0001
0010
0000
0011
0000
,
0011
0000
0001
0100
,
0010
0000
0110
0000
,
0010
0000
0010
0100
,
0010
1000
1001
1001
,
1001
0000
0100
0000
,
0100
0000
0110
0110
,
0110
0000
0010
0000
,
0001
0010
0001
0010
0001
0000
0001
0000
,
0001
0000
1000
1000
,
1000
0000
1001
0000
,
0000
0000
0110
0000
,
0010
1000
1100
0011
,
1100
0011
1100
0011
,
1100
0000
0101
1010
,
0101
1010
0101
1010
,
0101
0000
1001
0110
,
1001
0110
1001
0110
,
1001
0000
1000
0000
,
0001
0000
0200
0000
,
0000
0000
0300
0000
;

//---------------dance-double - ----------------
#NOTES:
     dance-double:
     :
     Challenge:
     8:
     0.477,0.756,0.427,0.312,0.033:
00000000
00000000
00000000
00000000
,
00000000
00000000
00000000
00000000
,
00000000
00000000
00000000
00000000
,
00000000
00000000
00000000
00000000
,
00000000
00000000
00000000
00000000
,
00000000
00000000
00000000
00000000
,
00000000
00000000
00000000
00000000
,
00000000
00000000
00000000
00000000
,
00000000
00000000
00000000
00000000
20000000
00000000
30000000
00200000
,
00020000
00000000
00330000
00000000
00000000
00000000
00000000
00010000
,
00001000
00000010
00000100
00000001
00000200
00000000
00000000
00000010
,
00000310
00000000
00000000
00000000
,
00000000
00000000
00000110
00000000
00002200
00000000
00003000
00001000
,
00002000
00000000
00003300
00000000
,
00000000
00000100
00010000
00001000
00100000
00000000
00000000
00000000
,
00000000
00000000
00010000
01000000
00200000
00000000
01000000
00000000
,
01000000
00000000
01300000
00000000
01000000
00010000
00100000
00000000
,
00100000
00000000
00101000
00000000
00001000
00010000
00000100
00001000
,
00000001
00000010
00000001
00000100
00000020
00000000
00000130
00000010
,
00002000
00000100
00000000
00000100
,
00000000
00000000
00003200
00000000
00020300
00000000
00032000
00103000
,
00020000
00000000
00130000
00000000
01000000
00000000
01010000
00010000
,
01000000
00100000
10000000
01000000
00200000
00000000
00000000
00000000
,
00300000
00000000
00001000
00020000
00000200
00000000
00030300
00000000
,
00011000
00000000
00001100
00000000
00000001
00001000
00000100
00000000
,
00000100
00001000
00000010
00000000
00000010
00001000
00000001
00000010
,
00000100
00001000
00000100
00000000
00000100
00010000
00001000
00000000
,
00001000
01000000
00001000
00000000
00001000
00100000
00010000
01000000
,
00100000
10000000
10010000
00000000
10000000
10000000
01000000
00000000
,
01000000
01000000
00100000
00000000
00100000
00100000
00001000
00010000
,
00000100
00000100
00001000
00000010
00000200
00000000
00000000
00000000
,
00000300
00000000
00000010
00001000
00000200
00000000
00000000
00000000
,
00001000
00001300
00020200
00030300
,
00000100
00010000
00001000
01000000
00200000
01300000
01000000
00100000
,
20000000
00000000
31000000
00000000
10000000
00000000
00010000
00000000
00100000
00000000
00110000
00000000
00100000
00001000
00010000
00000100
,
00001000
00000000
00001100
00000000
00000100
00010000
00001000
00100000
00010000
00000000
00110000
00000000
00010000
01000000
00100000
10000000
,
00010000
00000000
00110000
00000000
00100000
00001000
00010000
00000010
00000100
00000000
00000000
00000000
00000110
00000000
00000000
00000000
,
00000010
00000100
00000001
00001000
00001001
00000000
00001001
00000000
,
00000001
00001000
00000100
00001000
00000010
00000000
00001010
00000000
,
00000010
00010000
00001000
00100000
00110000
00000000
00110000
00000000
,
00010000
00100000
01000000
10000000
10010000
00000000
10010000
00000000
,
00010000
01000000
00100000
10000000
10100000
00000000
10100000
00000000
,
10000000
00010000
00100000
00001000
00101000
00000000
00011000
00000000
,
00010000
00000100
00001000
00000010
00000200
00000000
00000310
00000000
,
00000020
00001030
00000101
00001100
,
00000001
00000100
00000010
00001000
00001100
00000000
00001100
00000000
,
00000100
00001000
00000100
00010000
00011000
00000000
00011000
00000000
,
00001000
00100000
00010000
01000000
01100000
00000000
01100000
00000000
,
00100000
10000000
00010000
00100000
10000000
00000000
11000000
00000000
,
10000000
00010000
01000000
00010000
00100000
00000000
00101000
00000000
,
00001000
00010000
00000100
00001000
00000010
00000000
00000110
00000000
,
00000010
00000100
00000001
00000000
00000011
00000000
00001100
00000000
,
00001001
00001001
00000002
00000013
,
00000001
00000100
00000010
00001000
00000200
00000000
00001300
00000000
,
00000100
00010000
00001000
01000000
00200000
00000000
01300000
00000000
,
00100000
10000000
00010000
00100000
00002000
00000000
00013000
00000000
,
00001000
00100000
00001000
00010000
00002000
00000000
00013000
00000000
,
00010000
00000100
00001000
00000010
00000200
00000000
00000310
00000000
,
00000010
00001000
00000001
00000010
00000200
00000000
00000310
00000000
,
00000010
00000001
00000100
00000010
00002000
00000000
00003100
00000000
,
00000100
00010000
00001000
00100000
00010000
00000000
00110000
00000000
,
00100000
00110000
00010000
01100000
,
00100000
10010000
00100000
00110000
,
00010000
00011000
00001000
00011000
,
00010100
00001100
00000011
00000011
,
00000001
00000100
00000110
00001001
,
00000001
00001000
00000020
00001030
,
00000200
00001300
00000200
00020300
,
00032000
00103000
00000000
00000000
;

//---------------dance-single - ----------------
#NOTES:
     dance-single:
     :
     Easy:
     4:
     0.258,0.365,0.131,0.156,0.000:
0000
0000
0000
0000
,
0000
0000
0000
0000
,
0000
0000
0000
0000
,
0000
0000
0000
0000
,
0000
0000
0000
0000
,
0000
0000
0000
0000
,
0000
0000
0000
0000
,
0000
0000
0000
0000
,
0000
0000
0001
0000
,
0200
0000
0000
0300
,
0010
1000
0100
0000
,
0020
0000
0000
0000
,
0030
0001
0100
0000
,
0020
0000
0000
0000
,
0030
0100
0020
0000
,
0030
1000
2002
0000
,
0000
3003
0001
0100
,
0020
0000
0000
0030
,
0100
0010
1000
0100
,
0020
0000
0000
0000
,
0030
0001
0100
0010
,
2000
0000
0000
0000
,
3100
1000
0020
0000
,
0000
0100
0200
0000
,
0000
0330
0001
1000
,
0200
0000
0000
0300
,
1000
0010
0100
0001
,
0200
0000
0000
0000
,
0300
0010
1000
0001
,
0200
0000
0000
0300
,
0001
1000
0010
0000
,
0000
0010
0100
0000
,
0001
1000
2002
0000
,
3003
0000
0010
0010
,
0100
0100
0001
0001
,
1000
1000
0010
0100
,
0001
1000
0100
1000
,
0100
1000
0100
1000
,
0100
1000
0100
0010
,
0100
0010
0100
0010
,
0100
0010
0100
1000
,
0010
0100
0001
0010
,
0100
0010
0001
0100
,
0010
1000
0001
0100
,
0001
1000
0001
0010
,
0001
0010
0001
0010
,
0001
0010
0100
0010
,
0100
0010
0100
0010
,
0100
0010
0100
1000
,
0100
0010
0001
0010
,
0100
1000
0001
0100
,
0010
1000
0001
0001
,
1000
1000
0010
0010
,
0100
0100
0110
1001
,
0001
0100
1010
0101
,
1000
0100
0011
1100
,
0001
0100
0110
1001
,
0001
0100
0110
0101
,
0001
0100
1010
1010
,
1000
0100
0011
0011
,
0001
0100
0010
0010
,
0010
0010
0010
0010
,
0010
0010
0100
0100
,
0100
0100
0100
0100
,
0100
0100
0010
1000
,
0010
0100
0010
1000
,
0001
0010
0200
0000
,
2300
0000
0020
0000
,
0000
0000
0000
3030
0000
0000
0000
0000
;

//---------------dance-single - ----------------
#NOTES:
     dance-single:
     :
     Challenge:
     9:
     0.568,0.787,0.492,0.386,0.074:
0000
0000
0000
0000
,
0000
0000
0000
0000
,
0000
0000
0000
0000
,
0000
0000
0000
0000
,
0000
0000
0000
0000
,
0000
0000
0000
0000
,
0000
0000
0000
0000
,
0000
0000
0000
0000
,
0000
0110
0020
1000
,
0130
0001
0020
0000
1000
0000
0031
1000
,
0001
0100
0010
1000
0200
0000
1000
0000
,
1300
0010
0200
0000
0001
0000
1000
0000
,
0301
0010
0001
0100
2000
0000
0100
0000
,
3100
1000
0100
0001
0020
0000
1030
0000
,
1000
0010
0001
0100
0020
0000
0100
0000
,
1000
0000
0130
0001
1001
0000
1100
0000
,
0101
0000
1100
0000
0001
1000
0100
0000
,
0100
1000
0010
0000
0100
0010
1000
0001
,
0010
0001
0100
0010
1000
0100
0001
0000
,
0001
0100
1000
0000
0100
1000
0100
0001
,
0100
1000
0010
0100
0002
0000
0013
0001
,
0200
0000
0010
0000
1000
0000
0310
1000
,
0001
0010
1000
0010
0002
0000
0100
0000
,
0010
0000
0013
0001
0101
0100
0101
0001
,
0101
0100
0101
0001
0220
0000
0330
0100
,
2002
0000
0000
0000
0000
0000
3003
1000
,
0100
0001
0100
1000
2020
0000
3030
0100
,
0202
0000
0000
0000
,
0303
0000
2002
3003
0202
0000
0303
0100
,
2020
0000
0000
0000
0000
0000
3030
1000
,
0001
0010
0100
0010
0002
0000
0100
0000
,
0010
0000
0013
0001
0101
0000
1100
0000
,
1010
0000
0000
0000
0000
0000
0000
0000
0011
0000
0000
0000
0000
0000
0000
0000
1001
0000
0000
0000
0001
0000
0000
0100
0000
0000
0010
0000
1000
0000
0100
0000
,
0010
0000
0100
0000
0100
0100
1000
0010
0100
0000
0001
0000
1000
0000
0001
0000
,
0200
0000
0301
0000
0100
0010
1000
0001
2000
0000
3100
0000
0100
1000
0010
0100
,
0002
0000
0013
0000
0001
0100
0010
1000
0002
0000
0013
0000
0200
0000
0310
0000
,
0020
2030
3002
0023
0130
0000
1100
0000
,
1000
0100
0001
0100
1000
0000
0101
0000
,
0010
1000
0001
0010
1000
0000
0011
0001
,
0001
0100
0010
1000
0100
0000
1100
0000
,
1000
0001
0100
0010
1000
0000
1001
0001
,
0100
0010
1000
0100
0010
0000
1100
0000
,
1000
0001
0010
0100
0020
0000
0031
0001
,
0001
0100
0010
1000
0002
0000
1000
0000
,
0103
0010
0010
1000
0001
0000
0110
0010
,
0010
1000
0100
0010
0002
0000
0103
0000
,
0010
1000
1000
0001
0020
0000
0130
0010
,
0001
0010
1000
0010
0002
0000
0103
0000
,
0001
0010
1000
0010
0002
0000
0103
0010
,
1000
0001
0010
0001
0200
0000
1300
0000
,
0001
0010
0001
0100
0020
0000
1030
0100
,
1000
0010
0100
0001
2000
0000
3100
0000
,
0200
0000
0000
0000
0310
0000
0000
0000
0001
0000
0000
0000
1000
0000
0001
1000
,
0001
1000
0001
0100
0010
0000
1010
0000
,
1010
0000
0010
1000
0010
0000
1000
0000
0001
0000
0000
0000
0011
0000
0001
1000
,
0001
1000
0001
0010
0100
0000
0011
0000
,
0001
0000
0100
0000
1000
0000
0100
0000
0001
0000
0000
0000
0110
0000
0010
0100
,
0010
0100
0010
1000
0001
0000
1100
0000
,
0010
0000
0100
0010
1000
0000
0001
0000
0010
0000
0000
0000
1100
0000
1000
0100
,
1000
0010
0100
0001
0200
0000
0001
0000
,
0310
0000
0100
0010
0100
0000
0010
0000
1010
0000
1000
0000
1010
0000
0010
0000
,
1010
1000
1010
0010
0110
0010
0110
0100
,
0110
0010
0110
0100
0101
0100
0101
0001
,
0101
0100
0101
0001
0011
0010
0011
0001
,
0011
0010
0011
0001
1001
1000
1001
0001
,
1001
1000
1001
0001
0101
0100
0110
0010
,
0110
0010
0110
0100
2002
0000
0000
0000
,
0000
0000
0000
0000
,
0000
0000
3003
0000
;

//---------------dance-single - ----------------
#NOTES:
     dance-single:
     :
     Beginner:
     1:
     0.108,0.196,0.066,0.016,0.000: // measure 1
0000
0000
0000
0000
,  // measure 2
0000
0000
0000
0000
,  // measure 3
0000
0000
0000
0000
,  // measure 4
0000
0000
0000
0000
,  // measure 5
0000
0000
0000
0000
,  // measure 6
0000
0000
0000
0000
,  // measure 7
0000
0000
0000
0000
,  // measure 8
0000
0000
0000
0000
,  // measure 9
0000
0000
0010
0000
,  // measure 10
1000
0000
0000
0000
,  // measure 11
0001
0000
0001
0000
,  // measure 12
1000
0000
0000
0000
,  // measure 13
0000
0000
0010
0000
,  // measure 14
0100
0000
0000
0000
,  // measure 15
0000
0001
0001
0000
,  // measure 16
0000
0000
1000
0000
,  // measure 17
0000
0000
0010
0000
,  // measure 18
0100
0000
0000
0000
,  // measure 19
0010
0000
1000
0000
,  // measure 20
0100
0000
0000
0000
,  // measure 21
0000
0000
1000
0000
,  // measure 22
0010
0000
0000
0000
,  // measure 23
0100
0000
0100
0000
,  // measure 24
0000
0000
0001
0000
,  // measure 25
0000
0000
1000
0000
,  // measure 26
1000
0000
0000
0000
,  // measure 27
0000
0000
0010
0000
,  // measure 28
0010
0000
0000
0000
,  // measure 29
0000
0000
0100
0000
,  // measure 30
0100
0000
0000
0000
,  // measure 31
0010
0000
1000
0000
,  // measure 32
0000
0001
0001
0000
,  // measure 33
0000
0000
1001
0000
,  // measure 34
0000
0000
0000
0000
,  // measure 35
0000
0000
0010
0000
,  // measure 36
0010
0000
0100
0000
,  // measure 37
0100
0000
0001
0000
,  // measure 38
0000
0000
1000
0000
,  // measure 39
0000
0000
0010
0000
,  // measure 40
0000
0000
0100
0000
,  // measure 41
0000
0000
0001
0000
,  // measure 42
0000
0000
1000
0000
,  // measure 43
0000
0000
0010
0000
,  // measure 44
0000
0000
0100
0000
,  // measure 45
0100
0000
0100
0000
,  // measure 46
0000
0000
0001
0000
,  // measure 47
0000
0000
0010
0000
,  // measure 48
0000
0000
0100
0000
,  // measure 49
0000
0000
0010
0000
,  // measure 50
0000
0000
0001
0000
,  // measure 51
0000
0000
1000
0000
,  // measure 52
0000
0000
0010
0000
,  // measure 53
0010
0000
0010
0000
,  // measure 54
1000
1000
1000
0000
,  // measure 55
0001
0001
0001
0000
,  // measure 56
0100
0100
0100
0000
,  // measure 57
0010
0010
0010
0000
,  // measure 58
0100
0000
0010
0010
,  // measure 59
0010
0000
1000
0000
,  // measure 60
0001
0000
0100
0100
,  // measure 61
0100
0000
0110
0000
,  // measure 62
0000
0000
1001
0000
,  // measure 63
0000
0000
0110
0000
,  // measure 64
0000
0000
1001
0000
,  // measure 65
0000
0000
0110
0000
,  // measure 66
0000
0000
1001
0000
,  // measure 67
0000
0000
0220
0000
,  // measure 68
0000
0000
0000
0000
,  // measure 69
0000
0000
0000
0000
0000
0000
0000
0000
0000
0000
0000
0000
0000
0000
0000
0000
0000
0000
0000
0000
0000
0000
0000
0000
0000
0000
0000
0000
0000
0000
0000
0000
0000
0000
0000
0000
0000
0000
0000
0000
0000
0000
0000
0000
0000
0000
0000
0000
0000
0000
0000
0000
0000
0000
0000
0000
0000
0000
0000
0000
0000
0000
0000
0000
0000
0000
0000
0000
0000
0000
0000
0000
0000
0330
0000
0000
0000
0000
0000
0000
0000
0000
0000
0000
0000
0000
0000
0000
0000
0000
0000
0000
0000
0000
0000
0000
0000
0000
0000
0000
0000
0000
0000
0000
0000
0000
0000
0000
0000
0000
0000
0000
0000
0000
0000
0000
0000
0000
0000
0000
0000
0000
0000
0000
0000
0000
0000
0000
0000
0000
0000
0000
0000
0000
0000
0000
0000
0000
0000
0000
0000
0000
0000
0000
0000
0000
0000
0000
0000
0000
0000
0000
0000
0000
0000
0000
0000
0000
0000
0000
0000
0000
0000
0000
0000
0000
0000
0000
0000
0000
0000
0000
0000
0000
0000
0000
0000
0000
0000
0000
0000
0000
0000
0000
0000
0000
0000
0000
0000
0000
0000
0000
;
