#TITLE:Epilogue;
#SUBTITLE:;
#ARTIST:when machines dream;
#TITLETRANSLIT:;
#SUBTITLETRANSLIT:;
#ARTISTTRANSLIT:;
#CREDIT:;
#BANNER:Epilogue-banner.png;
#BACKGROUND:Epilogue-bg.png;
#LYRICSPATH:;
#CDTITLE:PandemiXium-cdtitle.png;
#MUSIC:Epilogue.ogg;
#OFFSET:-0.003;
#SAMPLESTART:39.360;
#SAMPLELENGTH:12.000;
#SELECTABLE:YES;
#BPMS:0.000=128.000;
#STOPS:132.000=3.281
;
#BGCHANGES:0.000=Epilogue.mpg=1.000=1=1=0,
204.000=Epilogue-bg.png=1.000=1=0=1,
99999=-nosongbg-=1.000=0=0=0 // don't automatically add -songbackground-
;

//---------------dance-single - ----------------
#NOTES:
     dance-single:
     :
     Easy:
     3:
     0.230,0.295,0.116,0.078,0.000:
0000
0000
0000
0000
,
0000
0000
0000
0000
,
0000
0000
0000
0000
,
0000
0000
0000
0000
,
0000
0000
0000
0000
,
0001
1000
0001
0000
,
0100
0010
0100
0000
,
0001
0100
0001
0000
,
0010
0001
0010
0000
,
0200
0000
0000
0000
,
1300
0010
0100
0001
,
0020
0000
0000
0030
,
0200
1000
1000
1300
,
2200
0000
0000
3300
,
1000
0010
0100
0100
,
0001
0000
1000
0000
,
0010
0000
0100
0000
,
0001
1000
0001
1000
,
0001
1000
0001
1000
,
0001
1000
0001
1000
,
0001
1000
0110
0110
,
0010
0100
0010
0010
,
0100
0010
1000
1000
,
0001
0100
0010
0010
,
1000
0100
0010
0010
,
0001
0011
1100
0010
,
0100
1010
0101
0001
,
0110
0010
0010
0010
,
0100
0001
1000
0010
,
1000
1100
1000
0100
,
0010
1100
0100
0010
,
0001
0001
0001
0001
,
0001
0001
0001
0001
,
1001
0010
0000
0010
,
0000
0010
0001
0100
,
0000
0100
0000
0010
,
0000
1000
0000
1000
,
0000
1000
1000
0001
,
0001
0100
0100
0010
,
0010
1000
0010
0100
,
0001
0010
0100
1000
,
0100
0000
1000
0010
,
0100
0002
0000
0000
,
0003
1000
0000
0001
,
0000
0100
0000
0010
,
0000
0100
0010
1000
,
0001
1000
0100
0010
,
0100
1000
1000
1000
,
1000
1000
1000
1000
,
1000
2002
0000
0000
,
0000
0000
0000
0000
0000
3003
0000
0000
;

//---------------dance-single - ----------------
#NOTES:
     dance-single:
     :
     Hard:
     7:
     0.428,0.540,0.417,0.233,0.019: // measure 1
0000
0000
0000
0000
,  // measure 2
0000
0000
0000
0000
,  // measure 3
0000
0000
0000
0000
,  // measure 4
0000
0000
0000
0000
,  // measure 5
0000
0000
0000
0000
,  // measure 6
0001
0000
1000
0000
0100
0000
1000
0010
,  // measure 7
0100
0000
0001
0000
0010
0000
0001
1000
,  // measure 8
0100
0000
1000
0000
0010
0000
0100
0001
,  // measure 9
1000
0000
0001
0010
0001
0000
0001
1000
,  // measure 10
0100
1000
0010
1000
,  // measure 11
0010
0000
0100
0000
0010
1000
0000
0000
0001
0000
0000
0100
0000
0000
0010
0000
,  // measure 12
0100
0000
0010
0000
1000
0001
0010
0001
,  // measure 13
1000
0000
0102
0000
0023
0000
0130
1000
,  // measure 14
1002
1000
1000
0100
,  // measure 15
0103
0000
0001
0000
0010
0001
0000
0000
0001
0000
0000
0100
0000
0000
0010
0000
,  // measure 16
0100
0010
1000
0001
,  // measure 17
0010
0000
0001
0000
0100
0000
0010
1000
,  // measure 18
1001
0101
1001
0101
,  // measure 19
1001
0000
0101
0000
1001
0000
0001
1000
,  // measure 20
0100
1100
1010
1100
,  // measure 21
1010
0000
1100
0000
1000
0010
0100
0001
,  // measure 22
0010
0000
0011
0000
0010
0001
0200
0000
,  // measure 23
0301
0000
0101
0000
0001
0100
0010
0100
,  // measure 24
0001
0000
0101
0000
0001
0100
0010
0000
,  // measure 25
0100
0000
1001
0000
0110
0000
0100
0010
,  // measure 26
1000
0000
0201
0000
0010
0000
0301
1000
,  // measure 27
0020
0000
0130
0000
0110
0000
0010
1000
,  // measure 28
1002
0000
1003
0000
1000
0100
1000
0010
,  // measure 29
0100
0000
0101
0000
0001
0001
1000
0100
,  // measure 30
1000
0000
1002
0000
2003
0000
3002
0103
,  // measure 31
0020
0000
0130
0000
0110
0000
0010
1000
,  // measure 32
0001
1000
0001
1000
0001
1000
0001
1000
,  // measure 33
0001
1000
0001
1000
0001
1000
0001
1000
,  // measure 34
0000
1000
0001
0020
,  // measure 35
0031
0001
1000
0200
,  // measure 36
0310
0010
0100
2000
,  // measure 37
3100
1000
0001
0020
,  // measure 38
0130
0000
0110
0010
0110
0000
1001
1000
,  // measure 39
1001
0000
1001
0001
0101
0100
0010
1000
,  // measure 40
1100
0000
1100
0100
1100
0000
0011
0001
,  // measure 41
0011
0000
0011
0001
0101
0100
0010
1000
,  // measure 42
1001
1001
0201
0320
,  // measure 43
1030
0001
0020
0000
0031
0000
0010
0000
,  // measure 44
0001
0100
0010
0000
0110
0000
0010
1000
,  // measure 45
0001
0010
0001
0000
0011
0000
0001
1000
,  // measure 46
0100
1000
0010
0000
0200
0000
0320
0000
,  // measure 47
1030
0001
0200
0000
0002
0003
0002
0003
,  // measure 48
0301
1000
0010
1000
0010
1000
0010
1000
,  // measure 49
0010
1000
0010
1000
0010
1000
0010
1000
,  // measure 50
0010
1000
0002
0000
0000
0000
0000
0000
,  // measure 51
0000
0000
0000
0000
0000
0003
0000
0000
;

//---------------dance-single - ----------------
#NOTES:
     dance-single:
     :
     Medium:
     5:
     0.315,0.442,0.349,0.194,0.000:
0000
0000
0000
0000
,
0000
0000
0000
0000
,
0000
0000
0000
0000
,
0000
0000
0000
0000
,
0000
0000
0000
0000
,
1001
0001
0100
0001
,
0010
0001
0100
0010
,
0100
0010
1000
0010
,
0110
0010
0110
0010
,
2002
0000
0000
0000
0000
0000
0000
3003
,
0000
0001
0100
0000
0202
0000
0303
0000
,
0001
0000
0100
0000
,
0010
0000
0100
0000
0010
0000
0010
2000
,
0002
0000
0000
3003
,
0101
0000
1100
0000
1000
0001
0100
0000
,
0001
0000
0001
0000
,
0001
0000
1000
0000
0100
0000
1000
0010
,
0100
0100
0100
0100
,
0100
0000
0100
0000
0100
0000
0100
0100
,
0010
0010
0010
0010
,
0010
0000
0010
0000
0010
1000
0001
1000
,
0001
0101
0001
0100
,
0010
0110
0010
1000
,
0100
1100
1000
0100
,
0010
1100
0010
0101
,
0001
0000
2000
0000
3001
0000
0001
0100
,
0020
0000
0130
0000
0110
0000
0010
1000
,
0002
1000
0000
1003
,
1000
0000
0001
0000
1000
0001
1000
0000
,
0001
0000
0101
0000
1010
0000
1000
0100
,
2000
0000
3100
0000
1100
0000
1000
0100
,
0020
0001
0001
0001
,
0001
0001
0001
0031
,
1100
1000
0001
0200
,
0300
0001
1000
0200
,
0300
0100
1000
0020
,
0030
0010
1000
0002
,
0003
1001
1001
0101
,
0101
1010
0101
1100
,
0011
1001
1001
1010
,
1010
1100
0011
0110
,
1001
0001
0100
0010
,
0010
1000
0200
0000
0300
0000
0000
0000
,
0000
1000
0000
0001
,
0000
0100
0000
0010
,
0010
1000
0001
0000
1001
0000
0101
0000
,
0001
0100
0020
0000
0100
0000
0130
0000
,
0010
2000
0001
0000
0001
0000
0001
0000
,
0001
0001
0001
0001
,
3001
0220
0000
0000
,
0000
0000
0000
0000
0000
0330
0000
0000
;

//---------------dance-double - ----------------
#NOTES:
     dance-double:
     :
     Challenge:
     8:
     0.504,0.589,0.534,0.456,0.058:
00000000
00000000
00000000
00000000
,
00000000
00000000
00000000
00000000
,
00000000
00000000
00000000
00000000
,
00000000
00000000
00000000
00000000
,
00000000
00000000
00000000
00000000
,
01000000
00010000
00100000
00001000
00010000
00000100
00000020
00000000
,
00000130
00000010
00001000
00000100
00000001
00000100
00002000
00000000
,
00003100
00010000
00001000
00100000
00010000
01000000
00100000
00000000
,
00100000
00000000
10010000
00000000
11000000
01000000
10000000
00000000
,
22000000
00000000
00000000
33000000
,
10000000
00000000
00010000
00000000
00100000
00001000
00000000
00000000
00001000
00000000
00010000
00001000
00000000
00010000
00001000
00000000
,
00011000
00000000
00001100
00000000
00001000
00000010
00000100
00000001
,
00000020
00000000
00000130
00000000
00001001
00000000
00000001
00000100
,
00002000
00000000
00000100
00000000
00000100
00000000
00003100
00000010
,
00010000
00000000
00001000
00000000
00010000
00001000
00000000
00000000
00001000
00000000
00100000
00010000
00000000
00010000
01000000
00000000
,
00100000
00000000
01100000
00000000
00100000
10000000
00010000
00000000
,
00110000
00000000
00010000
01000000
00010000
00100000
00010000
00000000
,
00110000
00011000
00110000
00011000
,
00110000
00000000
00011000
00000000
00110000
00000000
00100000
00000100
,
00001100
00011000
00001100
00011000
,
00001100
00000000
00000000
00000000
00011000
00000000
00000000
00000000
00001000
00000010
00000100
00000001
00000010
00000000
00001000
00000000
,
00001100
00000000
00001100
00000000
00000100
00001000
00000010
00000100
,
00000101
00000000
00000101
00000000
00000001
00000100
00000010
00001000
,
00001100
00000000
00001100
00000000
00001000
00000001
00000010
00000001
,
00000101
00000000
00000011
00000000
00000001
00000100
00000010
00001000
,
00000100
00000200
00100000
00020300
,
00000100
00000000
00030200
00000000
00200300
00000000
00310000
01000000
,
20000000
01000000
01000000
31000000
,
01000000
00010000
00100000
00001000
00010000
00000100
00000010
00000010
,
00000110
00000210
00020300
00032000
,
02003000
00000000
03200000
00000000
20300000
00000000
31000000
00100000
,
00002000
00013000
00002000
00103000
00002000
00013000
00000200
00010300
,
00002000
00103000
00002000
00013000
00000200
00010300
00002000
00103000
,
00011000
02000000
03020000
00230000
,
00301000
00200000
00300200
00002300
,
00003010
00000020
00020030
00030200
,
00100300
00000000
00011000
00000000
00000100
00100000
00020000
00000000
,
00030000
00000000
00010000
01000000
00010000
00100000
00010000
01000000
,
00010000
00000000
00100000
00000000
00110000
00000000
00011000
00000000
00001100
00000000
00000110
00000000
00000011
00000000
00000001
00001000
,
00000010
00000101
00000100
00000001
00000010
00000001
00000100
00000001
,
00000010
00000000
00000100
00000000
00001100
00000000
00000110
00000000
00001100
00000000
00010100
00000000
00010000
00001000
00000000
00001000
,
00100000
01000000
10000000
00000000
10001000
00000000
01000100
00000000
,
00100010
00020002
00000000
00030003
,
00000000
00000000
00000001
00000100
00000010
00001000
00000100
00010000
,
00001000
00000000
00100000
00000000
01000000
00000000
00010000
00000000
00100000
00000000
01000000
00000000
10000000
00000000
00100000
01000000
,
00100000
10000000
10010000
00000000
00010100
00000000
00010010
00000000
,
00000101
00000110
00001010
00001100
,
00000100
00010000
00002000
00103000
00020000
01030000
00200000
01300000
,
00200000
10300000
20000000
31000000
02000000
03100000
00200000
00301000
,
00020000
00030100
00020200
00000000
00000000
00000000
00000000
00000000
,
00000000
00000000
00000000
00000000
00000000
00030300
00000000
00000000
;

//---------------dance-single - ----------------
#NOTES:
     dance-single:
     :
     Beginner:
     1:
     0.105,0.167,0.029,0.058,0.000:
0000
0000
0000
0000
,
0000
0000
0000
0000
,
0000
0000
0000
0000
,
0000
0000
0000
0000
,
0000
0000
0000
0000
,
0010
0000
0000
0000
,
0010
0000
0000
0000
,
1000
0000
0000
0000
,
0001
0000
0000
0000
,
0200
0000
0000
0000
,
0300
0000
0000
0000
,
0020
0000
0000
0000
,
0030
1000
1000
1000
,
2002
0000
0000
3003
,
0000
0010
0000
0010
,
0010
0000
0000
0000
,
1000
0000
0000
0000
,
0000
0100
0000
0000
,
0000
0100
0000
0000
,
0000
0100
0000
0100
,
0000
0100
0000
0000
,
1000
0000
0000
0000
,
0001
0000
0000
0000
,
0010
0000
0000
0000
,
0010
0000
0000
0000
,
0000
0010
0010
0010
,
0020
0000
0000
0000
,
0030
0000
0000
0000
,
0100
0000
0000
0000
,
0000
0100
1000
0100
,
2000
0000
0000
3000
,
0001
0000
0001
0000
,
0001
0000
0001
0000
,
0001
1000
0000
0000
,
0000
0010
0000
0000
,
0000
0100
0000
0000
,
0000
0001
0000
0000
,
0000
1000
0000
1000
,
0000
1000
0000
1000
,
0000
0001
0000
0001
,
0000
0001
0000
0001
,
0001
1001
0000
0010
,
0000
0100
0000
0010
,
0000
1000
0000
0001
,
0000
0010
0000
0100
,
0000
0010
0000
0001
,
0000
1000
0000
0010
,
0000
0100
0000
0100
,
0000
0100
0000
0100
,
0000
1001
0000
0000
;
