#TITLE:Elysium;
#SUBTITLE:;
#ARTIST:Scott Brown;
#TITLETRANSLIT:;
#SUBTITLETRANSLIT:;
#ARTISTTRANSLIT:;
#CREDIT:;
#BANNER:bn.png;
#BACKGROUND:bg.png;
#LYRICSPATH:;
#CDTITLE:PandemiXium-cdtitle.png;
#MUSIC:elysium.ogg;
#OFFSET:0.000;
#SAMPLESTART:54.857;
#SAMPLELENGTH:12.000;
#SELECTABLE:YES;
#BPMS:0.000=175.000;
#STOPS:;
#BGCHANGES:;

//---------------dance-single - ----------------
#NOTES:
     dance-single:
     :
     Hard:
     9:
     0.574,0.618,0.122,0.344,0.000:
0000
0000
0000
0000
,
0000
0000
0000
0000
,
0000
0000
0000
0000
,
0000
0000
0000
0000
,
1000
1000
1000
1001
,
0001
0001
0001
1001
,
0010
0010
0010
0110
,
0100
1001
0010
1001
,
1000
0100
0000
1000
0000
0001
0010
0000
,
0001
0100
0000
0001
0000
0100
0010
1000
,
0001
0010
0000
0001
0000
0010
0001
0000
,
0001
0100
0010
0000
0010
1000
0100
0000
,
1000
0001
0000
0010
0000
0001
0100
0010
,
1000
0100
0000
1000
0000
0100
1000
0001
,
0100
0010
0000
0010
0000
0010
1000
0001
,
0010
0001
0011
0000
1000
0100
1100
0000
,
1000
0000
0001
0010
0000
0001
0100
0000
,
0010
0100
0000
0010
1000
0000
1000
0100
,
0001
0000
0100
0010
0000
0100
1000
0000
,
1000
0001
0000
0001
0010
0000
0001
0100
,
0010
0000
0100
0010
0000
0010
1000
0000
,
1000
0100
0000
0010
0001
0000
0001
1000
,
0100
0000
1000
0100
0000
0001
0100
0000
,
0010
1000
0000
0001
0010
0000
0001
1000
,
0100
1000
0001
0010
0001
0000
0001
0100
,
0000
0010
0000
1000
0100
0000
1000
0001
,
0000
0010
0001
0000
0100
0001
0000
0100
,
0010
0000
0010
1000
0001
0010
0001
0100
,
0010
1000
0100
0010
0100
0000
1000
0001
,
0000
0010
0000
0001
0100
0000
0010
1000
,
0001
0000
0001
0010
0000
0010
0100
0000
,
0100
1000
0000
1000
0001
0100
0010
1000
,
0100
1000
0001
0100
,
0010
0000
1000
0000
0001
0000
0001
1000
,
0010
0100
0010
1000
,
0001
0000
0010
0000
0001
0000
1000
0010
,
0100
0010
1000
0010
,
0100
0000
0010
0000
1000
0000
0001
0010
,
0001
0000
0001
0010
0000
1000
0100
0000
,
0001
0100
0000
0010
1000
0000
1000
0001
,
0100
0000
0001
0002
0000
0100
0203
0000
,
0310
0020
0000
0130
0200
0000
0310
1000
,
0001
0000
1000
2000
0000
3001
0002
0000
,
0103
0200
0000
0310
0020
0000
0130
0010
,
2000
0000
3010
0020
0000
0130
0200
0000
,
0310
0020
0000
1030
2000
0000
3010
1000
,
0002
0000
1003
2000
0000
3001
0002
0000
,
0103
0200
0000
0301
0002
0000
0103
0001
,
0010
0000
0002
0010
0003
0020
0100
0030
,
0200
1000
0300
2000
0100
3000
1000
0001
,
0100
0000
0002
0100
0003
0020
0001
0030
,
0002
0100
0003
0002
1000
0003
0001
1000
,
0001
0000
2000
0100
3000
0020
0001
0030
,
2000
0100
3000
0020
0001
0030
0010
0001
,
0100
0000
0020
0100
0030
0020
1000
0030
,
0002
0100
0003
0020
1000
0030
0001
1000
,
0001
0001
0001
1001
,
1000
1000
1000
1001
,
0010
0010
0010
0110
,
0100
1001
0010
1001
,
1000
0100
1000
0100
1000
0100
1000
0000
,
0001
0100
0001
0100
0001
0100
0001
0000
,
0010
0001
0010
0001
0010
0001
0010
0000
,
0001
1000
0010
0000
0001
0100
0010
0000
,
0100
0100
0100
0100
,
0010
0010
0010
0010
,
1000
0001
1000
0001
,
0000
1000
0000
0001
,
1000
0001
0100
0001
,
0001
0010
0001
0100
,
0010
1000
0100
1000
,
0000
0010
0000
0010
;

//---------------dance-single - ----------------
#NOTES:
     dance-single:
     :
     Medium:
     7:
     0.460,0.545,0.203,0.000,0.000:
0000
0000
0000
0000
,
0000
0000
0000
0000
,
0000
0000
0000
0000
,
0000
0000
0000
0000
,
0001
0001
0001
0000
,
1000
1000
1000
0000
,
0010
0010
0010
0000
,
0100
0000
0100
0000
,
0010
0100
0010
0110
,
0100
0010
0100
0110
,
0010
0100
0010
0110
,
0010
1001
0010
1001
,
1000
0001
1000
1001
,
0001
1000
0001
1001
,
1000
0001
1000
1001
,
0001
1001
1000
1010
,
1000
0100
0010
0001
,
0010
0100
1000
1100
,
1000
0001
0100
0010
,
0100
0010
1000
1001
,
0001
0100
0010
1000
,
0100
0010
0001
0011
,
0001
0100
0010
1000
,
0001
1001
0010
0110
,
0010
0000
0000
0000
0100
0000
0000
0010
,
0000
0010
0000
0010
1000
0000
0000
0001
,
1000
0000
1000
0100
0000
0100
0010
0000
,
0010
0001
0000
0010
0001
0100
0000
0000
,
0001
0000
0100
0000
0010
0000
0100
0010
,
0000
0010
0000
0010
0100
0000
0000
0010
,
1000
0000
0010
0100
0000
0010
1000
0000
,
1000
0100
0000
1000
0100
0010
0001
0000
,
0001
1000
0001
0100
,
0001
0000
0100
0000
0010
0000
0100
0010
,
0100
0010
1000
0010
,
1000
0000
0100
0000
1000
0000
0100
1000
,
0100
0000
1000
0100
0000
0010
0001
0000
,
0001
0100
0000
0100
0010
0000
0010
1000
,
0001
0000
0001
1000
0000
1000
0100
0000
,
0100
0010
0000
0010
0001
0000
0010
0001
,
0010
0001
0100
0010
,
0100
0000
0010
0000
1000
0000
0010
1000
,
0100
1000
0100
0010
,
0001
0000
0100
0000
0010
0000
0010
1000
,
0010
0100
0010
1000
,
0100
0000
0010
0000
0001
0000
0010
0001
,
0100
0010
0100
0010
,
0010
0100
0000
0010
1000
0000
0010
0000
,
1000
0000
1000
0001
0000
0001
1000
0000
,
1000
0001
0000
0001
1000
0000
0001
1000
,
0100
0000
0100
1000
0000
1000
0100
0000
,
0100
1000
0000
1000
0100
0000
1000
0100
,
0010
0000
0010
0001
0000
0001
0010
0000
,
0010
0001
0000
0001
0010
0000
0001
0010
,
0001
0000
0010
0001
0000
0001
0100
0000
,
0100
0010
0000
0010
1000
0000
0010
0000
,
1000
1000
1000
1001
,
0001
0001
0001
1001
,
0100
0100
0100
0110
,
0010
0101
0010
1100
,
0001
1000
0001
1000
0001
1000
0100
0000
,
0010
0100
0010
0100
0010
0100
1000
0000
,
0100
1000
0100
1000
0100
1000
0010
0000
,
0010
1000
0001
0000
0001
0100
0010
0000
,
0100
0100
0100
0000
,
0010
0010
0010
1000
,
0001
0001
0001
0000
,
1000
0000
0001
0000
,
1000
0001
0100
0000
,
0001
0100
0010
0000
,
0010
0100
0010
1000
,
0000
0001
0000
0001
;

//---------------dance-double - ----------------
#NOTES:
     dance-double:
     :
     Challenge:
     9:
     0.608,0.654,0.405,0.081,0.000:
00000000
00000000
00000000
00000000
,
00000000
00000000
00000000
00000000
,
00000000
00000000
00000000
00000000
,
00000000
00000000
00000000
00000000
,
00100000
10000000
00010000
00100000
10000000
00010000
00100000
00000000
,
01000000
10000000
01000000
00010000
01000000
01000000
00010000
00000000
,
01000000
10000000
00100000
01000000
00010000
00100000
00001000
00000000
,
00010000
00001000
00010000
00000000
00010000
00000100
00001000
00000000
,
00001000
00000100
00000010
00000100
00001000
00000100
00000110
00000000
,
00000010
00000001
00000010
00000100
00000010
00000001
00000011
00000000
,
00000001
00000100
00000010
00001000
00000100
00000010
00000011
00000000
,
00000001
00001000
00001010
00000000
00000010
00001000
00010100
00000000
,
00000100
00010000
00001000
00100000
00001000
00010000
00011000
00000000
,
00001000
00100000
00010000
00100000
00001000
00100000
00101000
00000000
,
00001000
00100000
00010000
01000000
00100000
10000000
11000000
00000000
,
10000000
01000000
00110000
00000000
00010000
01000000
10100000
00000000
,
10000000
00000000
10000000
01000000
00000000
01000000
00100000
00000000
,
00100000
00010000
00000000
00010000
00001000
00000000
00011000
00000000
,
00001000
00000000
00001000
00000100
00000000
00000100
00000010
00000000
,
00000010
00000001
00000000
00000001
00000010
00000000
00001001
00000000
,
00000010
00000000
00000010
00000200
00000000
00000310
00002000
00000000
,
00003100
00020000
00000000
00001000
00031000
00000000
01010000
00000000
,
01020000
00000000
01030000
00200000
00000000
10300000
02000000
00000000
,
03100000
00020000
00000000
00230000
00001000
00300000
00001000
00100000
,
00010000
00100000
01000000
10000000
01000000
00000000
01000000
00100000
,
00000000
00010000
00000000
00100000
00001000
00000000
00000000
00010000
,
00010000
00000000
00000100
00000100
00000000
00001000
00001000
00000000
,
00000010
00000010
00000000
00000010
00010000
00001000
00000000
00000000
,
00000100
00010000
00001000
00100000
01000000
10000000
01000000
00100000
,
10000000
01000000
00000000
10000000
01000000
00100000
00000000
00010000
,
00100000
00000000
00010000
01000000
00000000
01000000
00001000
00000000
,
00001000
00010000
00000000
00010000
00000100
00001000
00000100
00000010
,
00000001
00000010
00000100
00001000
,
00000100
00010000
00001000
00010000
,
00100000
01000000
10000000
01000000
,
00100000
00000000
00010000
01000000
00100000
10000000
01000000
00100000
,
00110000
00100000
00001000
00010000
,
00000100
00000000
00001000
00000000
00000010
00000000
00000100
00000001
,
00001000
00000000
00000001
00001000
00000000
00001000
00000100
00000000
,
00000100
00010000
00000000
00001000
00100000
00000000
00010000
01000000
,
00100000
00000000
01000000
00010000
00000000
00100000
00001000
00000000
,
00001000
00010000
00000000
00010000
00000100
00000000
00000100
00001000
,
00000010
00000000
00000010
00000100
00000000
00000100
00000001
00000000
,
00000001
00000010
00000000
00000010
00000100
00000000
00000010
00001000
,
00000100
00000000
00000100
00010000
00000000
00010000
00001000
00000000
,
00001000
00100000
00000000
00100000
01000000
00000000
01000000
10000000
,
00100000
00000000
01000000
00100000
00000000
10000000
01000000
00000000
,
00100000
00001000
00000000
00001000
00010000
00000000
00000100
00001000
,
00000010
00000000
00000010
00010000
00000000
00010000
00000100
00000000
,
00000100
00010000
00000000
00010000
00000010
00000000
00000010
00010000
,
00001000
00000000
00001000
00100000
00000000
00001000
01000000
00000000
,
01000000
00001000
00000000
00001000
00100000
00000000
00001000
00010000
,
00000100
00000000
00001000
00000010
00000000
00000100
00000001
00000000
,
00000010
00001000
00000000
00000010
00010000
00000000
00010000
00001000
,
00100000
00000000
00100000
01000000
00000000
01000000
10000000
00000000
,
10000000
01000000
00000000
01000000
00100000
00000000
00100000
00001000
,
00011000
00011000
00011000
00000000
,
00011000
00110000
00011000
00000000
,
00001100
00000110
00000011
00000000
,
00000001
00000100
00001010
00000000
00001000
00000100
00000011
00000000
,
00000001
00000100
00000010
00001000
00000100
00000010
00000011
00000000
,
00000001
00000100
00000010
00001000
00000100
00010000
00001000
00100000
,
00010000
01000000
00100000
10000000
01000000
00100000
00110000
00000000
,
00100000
01000000
10010000
00000000
01000000
00100000
10010000
00000000
,
10000000
00010000
00100000
00110000
,
00100000
00000000
00001000
00000000
00010000
00000000
00010100
00010000
,
00000100
00001000
00000010
00000101
,
00000100
00001010
00000010
00010100
,
00000100
00010000
00001000
00110000
,
00010000
01000000
00100000
00011000
,
00001000
01000000
00100000
01010000
,
10000000
00101000
00001000
00001010
;

//---------------dance-single - ----------------
#NOTES:
     dance-single:
     :
     Easy:
     4:
     0.286,0.471,0.051,0.041,0.000:
0000
0000
0000
0000
,
0000
0000
0000
0000
,
0000
0000
0000
0000
,
0000
0000
0000
0000
,
0001
1000
0001
0000
,
0100
0001
0100
0000
,
0001
0010
0001
0000
,
0100
0000
0010
0000
,
1000
0001
1000
0100
,
1000
0001
1000
0001
,
0001
1000
0001
0100
,
0001
0010
0001
0100
,
0010
0100
0010
1000
,
0010
0100
0010
1000
,
0010
0100
0010
1000
,
0010
0100
0010
1000
,
0002
0000
0000
0000
,
1000
0000
1000
0000
,
2003
0000
0000
0000
,
0100
0000
0100
0000
,
3200
0000
0000
0000
,
0010
0000
0010
0000
,
0320
0000
0000
0000
,
0001
0000
0001
0000
,
0031
0000
1000
0000
,
0001
0100
0010
0000
,
0100
0000
0010
0000
,
1000
0000
0001
0000
,
1000
0001
0100
0000
,
0010
0000
1000
0000
,
0100
0000
1000
0000
,
0010
0000
0100
0000
,
1001
0000
0001
0000
,
1000
0000
0010
0000
,
1000
0000
0010
0000
,
0100
0000
0001
0000
,
0010
0100
0010
0001
,
0100
0010
1000
0001
,
0010
0100
1000
0100
,
1100
1100
1100
1100
,
1000
0000
0000
0100
0000
0000
0010
0000
,
0000
0001
0000
0000
0100
0000
0010
0000
,
1000
0000
0000
1000
0000
0000
0001
0000
,
0000
0100
0000
0000
0010
0000
1000
0000
,
0001
0000
0000
0100
0000
0000
0010
0000
,
0000
1000
0000
0000
0100
0000
1000
0000
,
0010
0000
0000
0010
0000
0000
0100
0000
,
0000
0100
0000
0000
0010
0000
1000
0000
,
0001
0000
0000
1000
0000
0000
0100
0000
,
0000
0001
0000
0000
0100
0000
1000
0000
,
0010
0000
0000
0100
0000
0000
0001
0000
,
0000
0100
0000
0000
0010
0000
0100
0000
,
0010
0000
0000
1000
0000
0000
0001
0000
,
0000
0100
0000
0000
0010
0000
0100
0000
,
0010
0000
0000
1000
0000
0000
0001
0000
,
0000
0010
0000
0000
0100
0000
1000
0000
,
0010
0010
0010
0000
,
0100
0100
0100
0000
,
0001
0001
0001
0000
,
1000
0000
1000
0000
,
0010
0010
0010
0000
,
0100
0100
0100
0000
,
0001
0001
0001
0000
,
1000
0000
0010
0000
,
0100
0100
0100
0000
,
0001
0001
0001
0000
,
1000
1000
1000
0000
,
0010
0000
0100
0000
,
0010
1000
0010
0000
,
0100
0001
0100
0000
,
0010
0001
0010
0000
,
0100
0000
1000
0000
;

//---------------dance-single - ----------------
#NOTES:
     dance-single:
     :
     Beginner:
     2:
     0.185,0.290,0.030,0.041,0.000: // measure 1
0000
0000
0000
0000
,  // measure 2
0000
0000
0000
0000
,  // measure 3
0000
0000
0000
0000
,  // measure 4
0000
0000
0000
0000
,  // measure 5
0000
0000
0000
0010
,  // measure 6
0000
0000
0000
0010
,  // measure 7
0000
0000
0000
0010
,  // measure 8
0000
0010
0000
0010
,  // measure 9
0000
0000
0000
1000
,  // measure 10
0000
0000
0000
0001
,  // measure 11
0000
0000
0000
1000
,  // measure 12
0000
1000
0000
1000
,  // measure 13
0000
0000
0000
0010
,  // measure 14
0000
0000
0000
0100
,  // measure 15
0000
0000
0000
0010
,  // measure 16
0000
0010
0000
0010
,  // measure 17
2000
0000
0000
0000
,  // measure 18
0000
0000
3000
0000
,  // measure 19
0002
0000
0000
0000
,  // measure 20
0000
0000
0003
0000
,  // measure 21
0200
0000
0000
0000
,  // measure 22
0000
0000
0300
0000
,  // measure 23
0020
0000
0000
0000
,  // measure 24
0030
0000
0000
0000
,  // measure 25
0100
0000
0000
0000
,  // measure 26
0100
0000
0100
0000
,  // measure 27
0010
0000
0000
0000
,  // measure 28
1000
0000
0001
0000
,  // measure 29
1000
0000
0000
0000
,  // measure 30
1000
0000
1000
0000
,  // measure 31
0001
0000
0000
0000
,  // measure 32
1000
0000
0010
0000
,  // measure 33
0110
0000
0000
0000
,  // measure 34
0100
0000
0000
0000
,  // measure 35
0010
0000
0000
0000
,  // measure 36
1000
0000
0000
0000
,  // measure 37
0001
0000
0001
0000
,  // measure 38
0001
0000
0001
0000
,  // measure 39
1000
0000
1000
0000
,  // measure 40
0010
0010
0100
0100
,  // measure 41
0110
0000
0010
0000
,  // measure 42
0010
0000
0010
0000
,  // measure 43
1000
0000
1000
0000
,  // measure 44
1000
0000
1000
0000
,  // measure 45
0001
0000
0001
0000
,  // measure 46
0001
0000
0001
0000
,  // measure 47
1000
0000
1000
0000
,  // measure 48
1000
0000
1000
1000
,  // measure 49
0100
0000
0100
0000
,  // measure 50
0100
0000
0100
0000
,  // measure 51
0010
0000
0010
0000
,  // measure 52
0010
0000
0010
0000
,  // measure 53
0001
0000
0100
0000
,  // measure 54
0010
0000
1000
0000
,  // measure 55
0001
0000
0001
0000
,  // measure 56
1001
0000
0000
0000
,  // measure 57
0010
0010
0010
0000
,  // measure 58
0010
0010
0010
0000
,  // measure 59
0010
0010
0010
0000
,  // measure 60
0010
0000
0010
0000
,  // measure 61
0100
0100
0100
0000
,  // measure 62
0100
0100
0100
0000
,  // measure 63
0100
0100
0100
0000
,  // measure 64
0100
0000
0100
0000
,  // measure 65
0001
0001
0001
0000
,  // measure 66
0001
0001
0001
0000
,  // measure 67
0001
0001
0001
0000
,  // measure 68
0001
0000
0001
0000
,  // measure 69
1000
1000
1000
0000
,  // measure 70
1000
1000
1000
0000
,  // measure 71
1000
1000
1000
0000
,  // measure 72
1000
0000
1000
0000
;
