#TITLE:Electric Fountain;
#SUBTITLE:;
#ARTIST:Akitaka Tohyama;
#TITLETRANSLIT:;
#SUBTITLETRANSLIT:;
#ARTISTTRANSLIT:;
#CREDIT:;
#BANNER:bn.png;
#BACKGROUND:bg.png;
#LYRICSPATH:;
#CDTITLE:PandemiXium-cdtitle.png;
#MUSIC:Tekken 6 Soundtrack Electric Fountain Theme.ogg;
#OFFSET:-0.025;
#SAMPLESTART:19.886;
#SAMPLELENGTH:12.000;
#SELECTABLE:YES;
#BPMS:0.000=145.000;
#STOPS:208.000=1.201
;
#BGCHANGES:;

//---------------dance-single - Pandemonium X----------------
#NOTES:
     dance-single:
     Pandemonium X:
     Hard:
     8:
     0.462,0.563,0.140,0.281,0.218:
0000
0000
0000
0000
,
0000
0000
0000
0000
,
0000
0000
0000
0000
,
0000
0000
0000
0000
,
1000
0000
0000
0001
0000
0000
0010
0000
0000
0001
0000
0000
0100
0000
0010
0000
,
1000
0000
0000
1000
0000
0000
0001
0000
0000
0001
0000
0000
0010
0000
0001
0000
,
0100
0000
0000
0010
0000
0000
1000
0000
0000
0001
0000
0000
0010
0000
0001
0000
,
0100
0000
0000
0101
0000
0000
0100
0000
0000
0110
0000
0000
0010
0000
1000
0000
,
0001
0000
0000
0010
0000
0000
0001
0000
0000
0100
0000
0000
0010
0000
1000
0000
,
0100
0000
0000
1000
0000
0000
0010
0000
0000
0100
0000
0000
0100
0000
0001
0000
,
0010
0000
0000
0010
0000
0000
0001
0000
0000
0100
0000
0000
0010
0000
1000
0000
,
0200
0000
0000
1000
0000
0000
1000
0000
0000
1000
0000
0000
1300
0000
0010
0000
,
0101
0000
0000
0100
0000
0000
0010
0000
0000
1000
0000
0000
1000
0000
0100
0000
,
0001
0000
0000
0100
0000
0000
1000
0000
0000
0010
0000
0000
0100
0000
0010
0000
,
1000
0000
0000
0010
0000
0000
0001
0000
0000
0010
0000
0000
1000
0000
0100
0000
,
0020
0000
0000
0001
0000
0000
0001
0000
0000
0001
0000
0000
0031
0000
0100
0000
,
0110
0000
0000
0100
0000
0000
0010
0000
0000
1000
0000
0000
1000
0000
0001
0000
,
0010
0000
0000
0001
0000
0000
0100
0000
0000
0010
0000
0000
0010
0000
1000
0000
,
0002
0000
0000
0010
0000
0000
0010
0000
0000
0010
0000
0000
0013
0000
0001
0000
,
0101
0000
0000
1001
0000
0000
1100
0000
0000
1001
0000
0000
0010
0000
0100
0000
,
1001
0000
0101
0000
0001
1000
0100
0000
,
1000
0010
0010
0110
,
0200
0000
0310
0000
0010
1000
0001
0000
,
0020
0000
0031
0000
0001
1000
0001
0100
,
0001
0000
0000
0001
0000
0000
1000
0000
0000
0001
0000
0000
0100
0000
0010
0000
,
1000
0001
0010
0001
0200
0000
0310
0000
,
0010
0000
0000
1000
0000
0000
0001
0000
0000
0010
0000
0000
0011
0000
0000
0000
,
0001
0000
0000
0100
0000
0000
0010
0000
2000
0000
0000
0000
3100
0000
0000
0000
,
1000
0000
0000
0010
0000
0000
0100
0000
0000
0001
0000
0000
0010
0000
0000
0000
,
0001
0000
0000
0001
0000
0000
1000
0000
0000
0100
0000
0000
1100
0000
0000
0000
,
0001
0000
0000
0100
0000
0000
0010
0000
0000
0100
0000
0000
0010
0000
0000
0000
,
1000
0000
0000
0010
0000
0000
0100
0000
0000
0010
0000
0000
1000
0000
0001
0000
,
0010
0000
0000
0001
0000
0000
0100
0000
0000
0010
0000
0000
1000
0000
0010
0000
,
0100
0001
0010
0001
1000
0100
0020
0000
,
0031
0000
0100
0000
0010
0000
0010
1000
,
0001
0000
0000
0010
0000
0000
0001
0000
0200
0000
0000
0000
0310
0000
0000
0000
,
0200
1000
0001
1000
,
0001
0000
1000
0000
0301
0000
0001
1000
,
0020
1000
0001
1000
,
0001
1000
0032
0000
,
0023
0100
0100
0100
,
0001
0001
0100
0130
,
0020
1000
0001
1030
,
2002
0000
0000
3003
,
0001
0010
0001
0000
0100
0000
0010
0000
,
0010
1000
0001
0000
1000
0000
0001
0000
,
0001
1000
0100
0000
1000
0000
0010
0000
,
0100
0010
1000
0000
1000
0001
0010
0001
,
0100
0000
0100
0000
0010
1000
0001
0000
,
0010
0000
0010
0000
0010
0100
0001
0000
,
1000
0000
1000
0000
0001
0100
0010
0000
,
0100
0000
0010
0000
0010
1000
0001
0000
,
0000
0000
1001
0000
0101
0000
0001
0100
,
0020
0000
1030
0000
1000
0000
1000
0010
,
0100
0001
0010
0000
0010
0000
0001
0010
,
0001
0000
0100
0000
0010
0000
0010
1000
,
0001
0000
1000
0000
0001
0020
0002
0000
,
0033
0001
0200
0020
,
0330
0000
0020
0000
0100
0200
0000
0000
,
0330
0000
0000
0000
0010
0000
0000
1000
0000
0000
0001
0000
0010
0000
0000
0001
,
0000
0100
0020
0000
1030
0000
1000
0010
,
0100
0000
0010
0000
0100
0000
0010
1000
,
0001
0000
0010
0000
0001
0000
0001
0100
,
1000
1000
0100
0001
,
0010
0000
0000
0000
0001
0000
0000
0100
0000
0000
0020
0000
2030
0000
0000
0000
,
3100
0000
0000
0000
1000
0000
0000
0001
0000
0000
0020
0000
0032
0000
0000
0000
,
0103
0000
0010
1000
0100
0200
1000
0000
,
1300
0000
0000
0000
1100
0000
0000
1000
0000
0000
0001
0000
0101
0000
0000
0100
,
0000
0010
2000
0000
3200
0000
2300
0000
,
3010
0000
0100
0010
1000
0001
0010
0000
,
0001
0010
0001
0100
,
0010
0000
0100
0010
1000
0000
0001
0000
,
0010
0000
0000
0000
0000
0002
0200
0000
,
0000
0000
0000
0300
0000
0000
0020
0000
,
0000
0000
0000
0003
0001
0002
0000
0000
,
0033
0000
0000
0000
0001
0000
0000
0001
0000
0000
1000
0000
0000
1000
0000
0000
,
0001
0010
0000
0000
0000
0000
0000
0000
;

//---------------dance-single - Pandemonium X----------------
#NOTES:
     dance-single:
     Pandemonium X:
     Medium:
     6:
     0.346,0.386,0.109,0.249,0.008:
0000
0000
0000
0000
,
0000
0000
0000
0000
,
0000
0000
0000
0000
,
0000
0000
0000
0000
,
0010
0000
0010
0000
0010
0000
0010
1000
,
0100
0000
0100
0000
0100
0000
0100
1000
,
0010
0000
0010
0000
0010
0000
0010
1000
,
0200
1300
0020
0130
,
0001
0000
0001
0000
0001
0000
0001
0100
,
0010
0000
0010
0000
0010
0000
0010
0100
,
0001
0000
0001
0000
0001
0000
0001
1000
,
0020
1000
0100
1030
,
1000
0000
0100
0000
0010
0000
1000
0100
,
0010
0000
0010
0000
0010
0000
0010
0001
,
0100
0000
0100
0000
0100
0000
0100
0010
,
2000
3010
0200
0310
,
0100
0000
0100
0000
0100
0000
0100
0010
,
1000
0000
1000
0000
1000
0000
1000
0001
,
0100
0000
0100
0000
0100
0000
0100
0010
,
2000
0000
0000
3000
,
1001
0000
0110
0000
0010
0100
0010
0000
,
0100
0100
0010
1000
,
0002
0010
0010
0010
,
0010
0000
0010
0000
0010
0000
0013
0001
,
0200
0310
0020
1030
,
2000
0000
3001
0000
0100
0001
0100
0000
,
0010
0010
0100
0100
,
0010
1000
2002
3003
,
1001
0000
0001
0000
0100
0001
0100
0000
,
0010
0000
1000
0000
1000
0100
0010
0001
,
0010
0000
0001
0000
0001
0100
1000
0000
,
1000
0100
0001
0000
0100
0000
0110
0000
,
0010
1000
0001
0200
0000
0000
0000
0000
,
0010
0000
0010
0300
,
0010
1000
0001
0010
,
0100
1000
0202
0303
,
0002
0100
0100
0100
,
0010
0010
0010
0010
,
0100
0100
0100
0100
,
0010
0010
2000
3003
,
2001
0001
0001
0001
,
0100
0100
0100
0100
,
0001
0001
0001
0001
,
0020
0000
0000
3030
,
0010
2000
3100
0000
,
0010
0002
0103
0000
,
0100
0020
1030
0000
,
1000
0002
0103
0000
,
0010
0100
1000
0000
,
1000
0100
0010
0000
,
0010
0100
1000
0000
,
0001
0100
0010
0000
,
0000
0000
1002
0000
2003
0000
3100
1000
,
0020
0030
0000
0000
,
0100
0010
0000
0000
,
1000
0001
0000
0001
,
0000
0000
0101
0000
0000
0001
0100
0000
,
0000
0020
0000
0030
,
0000
0000
0000
0000
0100
0100
0000
0000
,
0000
0110
0000
1001
,
0000
0000
1002
0000
0100
0000
0013
0100
,
2000
0200
0000
0000
,
3300
1010
0000
0010
,
0000
0100
0100
0010
,
1000
0001
0100
0000
0000
0001
0100
0000
,
0000
0000
0000
0010
,
0000
0000
0000
0000
1000
1000
0000
0000
,
0000
1000
0001
0100
,
0010
0000
0120
0000
1030
0000
1000
0100
,
0001
0001
0100
1000
,
1000
0010
0001
0000
0010
0000
1000
0000
,
0010
0001
0001
1000
,
1000
0001
0100
0000
0000
0001
0100
0000
,
0000
0020
0000
0030
,
0000
0000
0000
0000
0100
0100
0000
0000
,
0000
0000
0000
0000
0010
0000
0000
1000
0000
0000
0001
0000
0000
0010
0000
0000
,
0100
0010
0000
0000
0000
0000
0000
0000
;

//---------------dance-double - ----------------
#NOTES:
     dance-double:
     :
     Challenge:
     8:
     0.461,0.564,0.460,0.312,0.191:
00000000
00000000
00000000
00000000
,
00000000
00000000
00000000
00000000
,
00000000
00000000
00000000
00000000
,
00000000
00000000
00000000
00000000
,
01010000
00000000
00000000
01000000
00000000
00000000
00100000
00000000
00000000
10000000
00000000
00000000
10000000
00000000
01000000
00000000
,
00100000
00000000
00000000
01000000
00000000
00000000
10000000
00000000
00000000
00010000
00000000
00000000
00100000
00000000
00001000
00000000
,
00010000
00000000
00000000
00000100
00000000
00000000
00001000
00000000
00000000
00000010
00000000
00000000
00000100
00000000
00000001
00000000
,
00000011
00000000
00000000
00000110
00000000
00000000
00001100
00000000
00000000
00000110
00000000
00000000
00000001
00000000
00000100
00000000
,
00000010
00000000
00000000
00001000
00000000
00000000
00000100
00000000
00000000
00010000
00000000
00000000
00001000
00000000
00100000
00000000
,
00010000
00000000
00000000
01000000
00000000
00000000
00100000
00000000
00000000
10000000
00000000
00000000
01000000
00000000
10000000
00000000
,
00100000
00000000
00000000
00100000
00000000
00000000
01000000
00000000
00000000
01000000
00000000
00000000
00010000
00000000
00100000
00000000
,
01100000
00000000
00000000
00110000
00000000
00000000
00011000
00000000
00000000
00001100
00000000
00000000
00000110
00000000
00000001
00000000
,
00001001
00000000
00000000
00001001
00000000
00000000
00001001
00000000
00000000
00001001
00000000
00000000
00001001
00000000
00000001
00000000
,
00001000
00000010
00001000
00000100
,
00010100
00000000
00000000
00010100
00000000
00000000
00010100
00000000
00000000
00010100
00000000
00000000
00010100
00000000
00000100
00000000
,
00010000
00002000
00203000
01300000
,
00110000
00000000
00000000
00110000
00000000
00000000
00110000
00000000
00000000
00110000
00000000
00000000
00110000
00000000
00100000
00000000
,
00010000
00000000
01000000
00000000
00100000
00000000
10000000
01000000
,
01100000
00000000
00000000
11000000
00000000
00000000
01100000
00000000
00000000
00110000
00000000
00000000
00100000
00000000
00001000
00000000
,
00020000
00000000
00000000
00000100
00000000
00000000
00001000
00000000
00000000
00000010
00000000
00000000
00031000
00000000
00001000
00000000
,
00021000
00030100
00000200
00001000
,
00000010
00000001
00000010
00001000
,
00000010
00000001
00000010
00001000
,
00000010
00000000
00000001
00000000
00000010
00000000
00001300
00000100
,
00010000
00000000
00000000
00001000
00000000
00000000
00100000
00000000
00000000
00010000
00000000
00000000
01000000
00000000
00100000
00000000
,
10000000
01000000
00100000
01000000
10000000
01000000
00100000
00000000
,
10000000
00000000
00000000
01000000
00000000
00000000
00010000
00000000
00000000
01000000
00000000
00000000
11000000
00000000
00000000
00000000
,
10000000
00000000
00000000
00010000
00000000
00000000
00100000
00000000
00102000
00000000
00000000
00000000
00013000
00000000
00000000
00000000
,
01001000
00110000
02100000
00010000
,
10000000
00100000
00010000
00100000
,
10000000
00100000
00010000
00100000
,
10000000
00100000
00010000
03100000
,
01200000
00000000
10000000
00000000
00010000
00000000
01000000
01000000
,
01300000
00000000
02100000
00000000
10000000
00000000
00010000
00010000
,
03010000
00000000
00210000
00000000
00001000
00001000
00301000
00000000
,
00100000
00000000
00000000
00001000
00000000
00000000
00010000
00000000
00000020
00000000
00000000
00000000
00000130
00000000
00000000
00000000
,
00000010
00010000
00000010
00001000
,
00010000
00001000
00100000
00010000
,
00000100
00001000
01000000
00000010
,
00000001
00000000
00100000
00000000
00010000
00000000
00010000
00100000
,
10000000
00100000
00001000
00010000
,
00000100
00001000
00000001
00000010
,
00000100
00000100
00001000
00000100
,
00010000
00001000
00202000
00303000
,
00010000
01000000
00100000
00000000
00100000
10000000
00010000
00000000
,
01020000
01030000
02010000
03010000
,
00010000
00100000
00001000
00000000
00001000
00100000
00001000
00000000
,
00102000
00013000
00020100
00030100
,
00000100
00001000
00000010
00000000
00000010
00001000
00000001
00000000
,
00001002
00000103
00002001
00003100
,
00000001
00000100
00000010
00000000
00000010
00001000
00000100
00000000
,
00010200
00100300
00102000
00013000
,
00000000
00000000
01200000
00000000
10000000
00000000
00010000
00010000
,
00020000
00330000
00000000
00000000
,
00000000
00000000
00000000
00000000
00000000
00110000
00000000
00000100
,
00002000
00003000
00000000
00000000
,
00000000
00000000
00000000
00000000
00000000
00000000
00000000
00000000
00000000
00000000
00001000
00100000
00020000
00000000
00000000
00000000
,
00000000
00000000
00000000
00000000
00000000
00000000
00000000
00030000
,
00000000
00000000
00000000
00000000
00110000
00011000
00000000
00000000
,
00000000
00000000
00000000
00000000
00010000
00000000
00000000
00000100
00000000
00000000
00001000
00000000
00000000
00000010
00000000
00000000
,
00000100
00000000
00000001
00000000
00000010
00000000
00000000
00000100
00001000
00000000
00000000
00000100
00010000
00000000
00000000
00001000
,
00200000
00000000
00300000
00000000
00000000
00000000
00000000
00020000
,
02000000
00000000
03030000
00000000
00000000
10020000
00000000
00100000
,
00130000
00020000
00100000
01000000
,
10030000
00000000
00000000
00000000
00000000
00000000
00000000
00000000
00000000
00000000
10000000
01000000
00200000
00000000
00000000
00000000
,
00000000
00000000
00000000
00000000
00000000
00000000
00000000
00300000
,
00000000
00000000
00000000
00000000
00001000
00000020
00000000
00000000
,
00000030
00000000
00000000
00000000
00000110
00000000
00000000
00000110
00000000
00000000
00001010
00000000
00000000
00000101
00000000
00000000
,
00000001
00000000
00000100
00000000
00000010
00000000
00000010
00001000
00000000
00001000
00000100
00000000
00000100
00010000
00001000
00000000
,
00202000
00000000
00000000
00000000
,
00303000
00000000
00000000
00000000
00000000
00110000
00000000
00000100
,
00001100
00000000
00000000
00000000
00000001
00000000
00000000
00000001
00000000
00000000
00001000
00000000
00000000
00001000
00000000
00000000
,
00000001
00000000
00000100
00000000
00000010
00000000
00000000
00000000
00000000
00000000
00000010
00001000
00000200
00000000
00000000
00000000
,
00000000
00000000
00000000
00000300
,
00000000
00000000
00000000
00000000
00000200
02000000
03000300
00000000
,
00000000
00000000
00000000
00000000
00002000
00000000
00000000
00100000
00000000
00000000
00100000
00000000
00000000
00100000
00000000
00000000
,
00203000
02000000
03300000
00000000
00000000
00000000
00000000
00000000
;

//---------------dance-single - ----------------
#NOTES:
     dance-single:
     :
     Easy:
     3:
     0.196,0.267,0.031,0.140,0.000: // measure 1
0000
0000
0000
0000
,  // measure 2
0000
0000
0000
0000
,  // measure 3
0000
0000
0000
0000
,  // measure 4
0000
0000
0000
0000
,  // measure 5
0001
1000
0001
0100
,  // measure 6
0001
1000
0001
0010
,  // measure 7
0001
1000
0001
0100
,  // measure 8
0002
0000
2003
0000
,  // measure 9
3100
1000
0010
1000
,  // measure 10
0100
1000
0010
1000
,  // measure 11
0100
1000
0010
1000
,  // measure 12
0200
0000
0000
0300
,  // measure 13
0010
0001
0100
0001
,  // measure 14
0010
0001
0100
0001
,  // measure 15
0010
0001
0100
0001
,  // measure 16
0020
0000
0000
0030
,  // measure 17
0010
1000
0010
0001
,  // measure 18
0010
1000
0010
0001
,  // measure 19
0010
1000
0010
0002
,  // measure 20
0200
0000
0000
0303
,  // measure 21
0001
0000
1000
0000
,  // measure 22
0010
0000
0100
0000
,  // measure 23
0010
0000
1000
0000
,  // measure 24
1001
0000
0001
0000
,  // measure 25
0010
0000
0001
0000
,  // measure 26
1010
0000
1000
0000
,  // measure 27
0010
0000
0100
0000
,  // measure 28
0001
1000
0020
0030
,  // measure 29
0100
0000
0010
0000
,  // measure 30
1000
0000
0100
0000
,  // measure 31
0010
0000
0001
0000
,  // measure 32
0001
0000
0010
0000
,  // measure 33
0100
0000
1000
0000
,  // measure 34
0001
0000
0100
0000
,  // measure 35
0010
0000
1000
0000
,  // measure 36
0100
0000
2000
3000
,  // measure 37
0010
0100
0002
0003
,  // measure 38
1000
0010
2000
3000
,  // measure 39
0010
1000
0200
0300
,  // measure 40
0100
1000
0020
0000
,  // measure 41
2000
0000
0000
0000
,  // measure 42
0000
0000
0000
3030
,  // measure 43
0010
0000
1000
0000
,  // measure 44
0001
0000
0000
0000
,  // measure 45
0100
0000
0010
0000
,  // measure 46
1000
0000
0001
0000
,  // measure 47
0010
0000
0100
0000
,  // measure 48
0010
0000
0001
0000
,  // measure 49
1000
0000
0001
0000
,  // measure 50
0100
0000
0001
0000
,  // measure 51
0010
0000
0100
0000
,  // measure 52
1000
0000
0010
0000
,  // measure 53
0000
0100
0010
1000
,  // measure 54
0002
0003
0000
0000
,  // measure 55
1000
0000
0000
0000
,  // measure 56
0000
0000
0000
0000
,  // measure 57
0000
0000
0000
0110
,  // measure 58
0000
0000
0000
0010
,  // measure 59
0000
0000
0000
0000
1000
0001
0000
0000
,  // measure 60
0000
0100
0100
0010
,  // measure 61
0010
1000
0001
0010
,  // measure 62
0200
0000
0000
0000
,  // measure 63
0300
0000
0000
0000
,  // measure 64
1000
0000
0000
0000
,  // measure 65
0000
0000
0000
1010
,  // measure 66
0000
0000
0000
0000
,  // measure 67
0000
0000
0000
0000
0001
0010
0000
0000
,  // measure 68
0000
0100
1000
0010
,  // measure 69
0100
0001
1000
0002
,  // measure 70
0200
0000
0000
0000
,  // measure 71
0003
0000
0000
0000
,  // measure 72
0001
0001
0000
0000
,  // measure 73
0300
0000
0000
0010
,  // measure 74
0000
0000
0000
0100
,  // measure 75
0000
0000
0000
0000
0010
1000
0000
0000
,  // measure 76
0000
0002
0000
0000
,  // measure 77
0000
0003
0000
0000
0000
0000
0000
0000
;

//---------------dance-single - ----------------
#NOTES:
     dance-single:
     :
     Beginner:
     1:
     0.094,0.178,0.008,0.070,0.000:
0000
0000
0000
0000
,
0000
0000
0000
0000
,
0000
0000
0000
0000
,
0000
0000
0000
0000
,
0001
0000
0000
0000
,
0001
0000
0000
0000
,
0001
0000
0000
0000
,
0001
0000
0000
0000
,
1000
0000
0000
0000
,
1000
0000
0000
0000
,
1000
0000
0000
0000
,
1000
0000
0000
0000
,
0100
0000
0000
0000
,
0100
0000
0000
0000
,
0100
0000
0000
0000
,
0100
0000
0000
0000
,
0010
0000
0000
0000
,
0010
0000
0000
0000
,
0010
0000
0000
0000
,
1001
0000
0000
0000
,
0000
0000
0020
0000
,
0000
0000
0000
0000
,
0000
0000
0000
0000
,
0000
0000
0000
0030
,
0200
0000
0000
0000
,
0000
0000
0000
0300
,
0010
0000
0000
0000
,
1000
0000
0001
0001
,
1000
0000
0000
0000
,
0200
0000
0000
0000
,
0000
0000
0000
0000
,
0000
0000
0000
0300
,
0200
0000
0000
0000
,
0000
0000
0000
0300
,
0100
0000
0000
0000
,
1000
0000
0001
0000
,
0200
0000
0000
0000
,
0000
0000
0000
0000
,
0000
0000
0000
0000
,
0300
0000
0010
0000
,
0020
0000
0000
0000
,
0000
0000
0000
0000
,
0000
0000
0000
0000
,
0030
0000
0000
0000
,
1000
0000
1000
0000
,
0000
0000
0000
0000
,
0001
0000
0001
0000
,
0000
0000
0000
0000
,
0100
0100
0100
0000
,
0100
0000
0010
0000
,
1000
1000
1000
0000
,
0001
0000
1000
0000
,
0000
0100
0000
0010
,
0010
0000
0000
0000
,
0000
0000
0000
0000
,
0100
1000
0000
0000
,
0000
0000
0000
1000
,
0000
0000
0000
0001
,
0000
0000
0100
0000
,
0000
0020
0000
0000
,
0030
0100
0000
0010
,
0000
0000
0000
0000
,
1000
1000
0000
0000
,
0001
1000
0000
0000
,
0000
0000
0000
0001
,
0000
0000
0000
0000
,
0000
0000
1000
0000
,
0000
0020
0000
0000
,
0030
0100
0100
0100
,
0100
0000
0000
0000
,
0000
0010
0000
0000
,
0000
1000
0000
0000
,
0000
0001
0000
1000
,
0000
0000
0000
0100
,
0000
0000
1000
0000
,
0000
0020
0000
0000
,
0000
0000
0000
0000
0000
0000
0000
0000
0000
0000
0000
0000
0000
0000
0000
0000
0000
0000
0000
0000
0000
0000
0000
0000
0000
0030
0000
0000
0000
0000
0000
0000
0000
0000
0000
0000
0000
0000
0000
0000
0000
0000
0000
0000
0000
0000
0000
0000
0000
0000
0000
0000
0000
0000
0000
0000
0000
0000
0000
0000
0000
0000
0000
0000
0000
0000
0000
0000
0000
0000
0000
0000
0000
0000
0000
0000
0000
0000
0000
0000
0000
0000
0000
0000
0000
0000
0000
0000
0000
0000
0000
0000
0000
0000
0000
0000
0000
0000
0000
0000
0000
0000
0000
0000
0000
0000
0000
0000
0000
0000
0000
0000
0000
0000
0000
0000
0000
0000
0000
0000
0000
0000
0000
0000
0000
0000
0000
0000
0000
0000
0000
0000
0000
0000
0000
0000
0000
0000
0000
0000
0000
0000
0000
0000
0000
0000
0000
0000
0000
0000
0000
0000
0000
0000
0000
0000
0000
0000
0000
0000
0000
0000
0000
0000
0000
0000
0000
0000
0000
0000
0000
0000
0000
0000
0000
0000
0000
0000
0000
0000
0000
0000
0000
0000
0000
0000
0000
0000
0000
0000
0000
0000
;
