#TITLE:Egg Disco;
#SUBTITLE:(Launch Base Zone);
#ARTIST:MaxieDaMan;
#TITLETRANSLIT:;
#SUBTITLETRANSLIT:;
#ARTISTTRANSLIT:;
#CREDIT:;
#BANNER:bn.png;
#BACKGROUND:bg.png;
#LYRICSPATH:;
#CDTITLE:;
#MUSIC:Egg Disco (Launch Base Zone).mp3;
#OFFSET:-0.022;
#SAMPLESTART:30.480;
#SAMPLELENGTH:12.000;
#SELECTABLE:YES;
#BPMS:0.000=126.000;
#STOPS:;
#BGCHANGES:;

//---------------dance-single - ----------------
#NOTES:
     dance-single:
     :
     Hard:
     7:
     0.311,0.444,0.140,0.172,0.066:
0000
0000
0000
0000
,
0000
0000
0000
0000
,
0000
0000
0000
0000
,
0000
0000
0000
0000
,
0001
1000
0001
1000
,
0010
0010
0010
0010
,
1000
0001
1000
0001
,
0100
0100
0100
0100
,
0010
1000
0200
1300
,
1000
0010
0200
0301
,
0010
0001
0020
0130
,
0100
0010
0002
1003
,
0010
0000
0000
0000
0100
0000
0000
0000
0010
0000
0000
0000
1000
0100
0000
0000
,
0010
0000
0000
0000
0001
0000
0000
0000
0100
0000
0000
0000
0100
0001
0000
0000
,
0010
0000
0000
0000
1000
0000
0000
0000
0100
0000
0000
0000
1000
0001
0000
0000
,
0100
0010
1000
0100
,
1100
0000
0000
0000
,
0001
0000
0100
0000
0010
0000
1000
0100
0000
1000
0100
0000
0010
0000
0100
0000
,
0000
0000
0000
0000
,
0001
0000
1000
0000
0010
0000
0010
0100
0000
0001
0100
0000
0001
0000
0010
0000
,
0000
0000
0000
0000
,
1000
0000
0010
0000
0100
0000
0001
0100
0000
0100
0010
0000
1000
0000
0100
0000
,
0000
0000
0000
0000
,
0100
0000
0010
0000
0001
0000
0001
0010
0000
1000
0010
0000
0010
0000
0100
0000
,
0020
1000
0001
1000
,
0001
1000
0001
1030
,
0200
1000
0001
1000
,
0001
1000
0001
1300
,
2000
0100
0010
0100
,
0010
0100
0010
3100
,
0002
0100
0010
0100
,
0020
0000
0000
0033
,
0000
0001
0001
0001
1001
0000
0000
0000
,
0000
0010
0010
0010
1010
0000
0000
0000
,
0000
1000
1000
1000
1100
0000
0000
0000
,
0000
0001
0001
0001
0010
0010
0001
0100
,
0000
0010
1000
0001
0101
0000
0000
0000
,
0000
0001
0100
0010
1010
0000
0000
0000
,
0000
1000
0100
0010
1010
0000
0000
0000
,
0000
0001
0100
0010
1000
0000
0000
0000
,
0210
1000
0010
0001
,
0010
1000
0010
0001
,
0010
1000
0010
0001
,
0010
1000
0010
0301
,
0020
1000
0100
0001
,
0100
1000
0100
0001
,
0100
1000
0100
0001
,
0100
1000
0100
0031
,
2002
0000
3003
0000
,
0220
0000
0330
0000
,
2002
0000
0000
3003
,
0101
1010
1100
0011
0120
0000
0130
0000
,
0011
0000
1000
0000
0100
1000
0010
0000
,
0100
0000
0100
0000
0100
0010
1000
0000
,
0000
0001
1000
0000
1000
0001
0000
0001
,
0200
0001
0010
1300
,
0010
0000
0000
0100
0000
0000
0010
0000
0000
1000
0000
0000
0100
0000
0000
1000
,
0000
0000
0010
0000
0000
0100
0000
0000
0010
0000
0000
1000
0000
0000
1000
0000
,
0002
0000
0000
0010
0000
0000
0100
0000
,
2000
0000
0000
0000
,
3003
0000
0000
0000
;

//---------------dance-double - ----------------
#NOTES:
     dance-double:
     :
     Challenge:
     8:
     0.411,0.567,0.197,0.304,0.152:
00000000
00000000
00000000
00000000
,
00000000
00000000
00000000
00000000
,
00000000
00000000
00000000
00000000
,
00000000
00000000
00000000
00000000
,
01000000
00001000
01000000
00010000
,
01000000
00001000
00010000
00000100
,
00002000
00000000
00000000
00000010
00000000
00000000
00003200
00000000
,
00020000
00000000
00000000
00030300
,
00001000
00100000
00020000
01030000
,
00010000
00100000
00002000
00013000
,
00001000
00000100
00000002
00000103
,
00000001
00000010
00000100
00001000
,
00000200
00010000
00002000
00003300
,
00002000
00000100
00000020
00003030
,
00000200
00010000
00020000
00030300
,
00000100
00010000
00001000
00100000
,
00020000
01000000
01000000
01030000
,
10000000
00000000
00010000
00000000
00100000
00000000
00100000
00001000
00000000
00010000
00000010
00000000
00000100
00000000
00000001
00000000
,
00000020
00000001
00000001
00000031
,
00000001
00000000
00000010
00000000
00000100
00000000
00000100
00010000
00000000
00001000
00100000
00000000
00010000
00000000
01000000
00000000
,
00200000
01000000
01000000
01000000
,
01300000
00000000
00010000
00000000
00100000
00000000
00100000
00001000
00000000
00001000
00010000
00000000
00000100
00000000
00001000
00000000
,
00000020
00001000
00000001
00000130
,
00000010
00000000
00001000
00000000
00001100
00000000
00000100
00010000
00000000
00010000
00001000
00000000
00001000
00000000
00100000
00000000
,
02020000
00000000
00000000
03030000
,
01000000
00000000
00100000
00000000
10000000
00000000
00100000
01000000
00000000
00010000
00100000
00000000
00001000
00000000
00000010
00000000
,
00000002
00000010
00000010
00000013
,
00000001
00000000
00000010
00000000
00000100
00000000
00000010
00000001
00000000
00000001
00001000
00000000
00000100
00000000
00010000
00000000
,
00002000
00100000
00100000
00100000
,
00103000
00000000
00010000
00000000
10000000
00000000
10000000
00010000
00000000
00010000
00001000
00000000
00001000
00000000
00000001
00000000
,
00000020
00000100
00000100
00000130
,
00000001
00000000
00001000
00000000
00000001
00000000
00000001
00001000
00000000
00000100
00010000
00000000
00001000
00000000
00100000
00000000
,
00000000
00000000
00010000
01000000
00010000
01000000
00010000
00000000
01010000
00000000
00000000
00000000
00000000
00000000
00000000
00000000
,
00000000
00000000
00010000
00000100
00010000
00000100
00010000
00000000
00010100
00000000
00000000
00000000
00000000
00000000
00000000
00000000
,
00000000
00000000
00000001
00000010
00000001
00000010
00000001
00000000
00000011
00000000
00000000
00000000
00000000
00000000
00000000
00000000
,
00000000
00000000
00000001
00000100
00000010
00001000
00000100
00000000
00001000
00000000
00000100
00000000
00010000
00001000
00100000
00000000
,
00010000
01000000
00100000
10000000
01000000
00000000
00000000
00000000
,
10000000
00010000
00100000
00001000
00010000
00000100
00001000
00000010
,
00000100
00000001
00000010
00000100
00001000
00000000
00000000
00000000
,
00022000
00000000
00000000
00033000
,
00012000
00010000
00100000
01000000
,
01000000
00100000
00010000
00013000
,
00001000
00100000
00010000
01000000
00100000
10000000
01000000
00100000
,
00010000
00100000
00001000
00010000
00000100
00001000
00001010
00000000
,
00021000
00001000
00000100
00000010
,
00000100
00001000
00000100
00000010
,
00030100
00000000
00010100
00000000
00000100
00001000
00000100
00010000
,
00002000
00013000
00001000
00100000
,
02020000
00000000
00000000
03030000
,
00020200
00000000
00000000
00030300
,
00000202
00000000
00000000
00000303
,
00001001
00000000
00011000
00000000
10010000
00000000
11000000
00000000
00110000
00000000
00100000
00000000
00101000
00000000
00001000
00010000
,
00000020
00000000
00000130
00000000
00000010
00001000
00000200
00001000
,
00002300
00000000
00003100
00000000
00000100
00010000
00001000
00100000
,
00010000
00100000
00001000
00000000
00001000
00100000
01000000
00000000
,
01000000
10000000
00100000
01000000
00010000
00100000
00001000
00010000
,
00000010
00001000
00000000
00001100
00000000
00000000
00001000
00000100
00000000
00010100
00000000
00000000
00000100
00010000
00000000
00011000
,
00000000
00000000
00010000
00001000
00000000
01100000
00000000
00000000
01000000
00100000
00000000
00110000
00000000
00000000
01000000
00001000
,
00020000
00000000
00000000
00001000
00000000
00000000
00000100
00000000
,
00000002
00000000
00000000
00000000
,
00030003
00000000
00000000
00000000
;

//---------------dance-single - ----------------
#NOTES:
     dance-single:
     :
     Medium:
     5:
     0.276,0.345,0.140,0.230,0.000:
0000
0000
0000
0000
,
0000
0000
0000
0000
,
0000
0000
0000
0000
,
0000
0000
0000
0000
,
0001
0000
1000
0000
,
0010
0100
0010
1000
,
0100
0000
0000
0010
0000
0000
0100
0000
,
2200
0000
0000
3300
,
0001
0100
0020
0130
,
0100
0010
0002
0103
,
0001
0100
2000
3100
,
1000
0100
0001
0010
,
0200
0000
0300
1100
,
0020
0000
0030
1001
,
2000
0000
3000
0110
,
0100
0000
0010
0000
1000
0000
0001
0100
,
0020
0000
0000
0030
,
1000
0001
1000
0001
1000
0001
1000
1000
,
0000
0000
0000
0000
,
1000
0100
1000
0100
1000
0100
1000
1000
,
0000
0000
0000
0000
,
0001
0010
0001
0010
0001
0010
0001
0001
,
0000
0000
0000
0000
,
0001
0100
0001
0100
0001
0100
0001
0001
,
0200
0310
2000
3010
,
2000
0001
0100
3010
,
0200
0310
0020
1030
,
0002
0100
0010
0103
,
0120
0000
0100
0000
0100
0000
0130
0010
,
2000
0100
0010
3100
,
0020
0130
0200
0310
,
0100
0010
1000
0001
0010
0100
1000
0100
,
0000
1000
0100
0000
1100
0000
0000
0000
,
0000
0001
0100
0000
1010
0000
0000
0000
,
0000
1000
0010
0000
0101
0000
0000
0000
,
0000
0001
0100
0000
0010
0010
0010
0000
,
0100
0010
1001
0000
,
0100
0001
0010
0100
,
1000
0000
0000
0010
0000
0000
0100
0000
,
2002
0000
3003
0000
,
0001
0000
0000
0000
,
1000
0000
0010
1000
,
0100
0100
0010
0010
,
0100
1000
0100
0010
,
2200
0000
3300
0000
,
0011
0000
0101
0000
,
0001
0100
0010
0010
,
0100
0001
0010
0100
,
2000
0000
3000
0000
,
0020
0000
0030
0000
,
0200
0000
0300
0000
,
0001
1000
0001
1000
0001
0000
0110
0000
,
1001
0000
0101
0000
0001
0100
0010
0000
,
0100
0000
0010
0000
1000
0100
1000
0000
,
1000
0000
0001
0000
,
0100
0010
1000
0001
,
0101
0000
0000
0001
0000
0000
0100
0000
,
0000
0010
0000
0000
1000
0000
0000
1000
,
0200
0000
0000
1000
0000
0000
0010
0000
,
2300
0000
0000
0000
,
3000
0000
0000
0000
;

//---------------dance-single - ----------------
#NOTES:
     dance-single:
     :
     Easy:
     2:
     0.160,0.197,0.016,0.082,0.000:
0000
0000
0000
0000
,
0000
0000
0000
0000
,
0000
0000
0000
0000
,
0000
0000
0000
0000
,
0001
0000
1000
0000
,
0010
1000
0100
0010
,
0001
0000
0010
0000
,
0001
0100
0020
0030
,
1000
0010
0100
0000
,
0010
1000
0001
0000
,
0010
0010
0001
0000
,
0100
0010
1000
0000
,
1000
0100
0001
0000
,
0001
0100
1000
0010
,
0100
0000
0000
1000
0000
0000
0010
0000
,
0100
0100
0001
1000
,
0002
0000
0000
0003
,
1000
0000
0010
0000
,
0200
0000
0000
0300
,
0100
0000
0010
0000
,
2000
0000
0000
3000
,
0001
0000
0010
0000
,
0200
0000
0000
0300
,
0010
0000
0001
0000
,
0100
0001
0010
0100
,
2000
0000
0000
3000
,
0010
1000
0010
0100
,
0020
0000
0000
0030
,
0010
1000
0001
0010
,
0200
0000
0000
0300
,
0100
1000
0010
0100
,
0020
0000
0000
0030
,
0000
1000
0001
0000
,
0000
0001
0010
0000
,
0000
0100
1000
0000
,
0000
0010
1000
0001
,
0000
0001
0010
0000
,
0000
0100
1000
0000
,
0000
1000
0010
0100
,
0001
0000
1000
0000
,
1010
0000
0000
0000
,
0100
0000
0010
0000
,
1000
0000
0001
0000
,
0010
0000
0100
0000
,
1001
0000
0000
0000
,
0010
0000
1000
0000
,
0001
0000
0000
0000
,
1000
0000
0010
0010
,
0100
0000
0000
0000
,
0010
0000
0000
0000
,
0100
0000
0000
0000
,
0001
1000
0001
1000
0001
0000
0000
0000
,
1000
0000
0001
0000
,
0100
0000
0010
0000
,
1000
0000
1000
0000
,
0001
0001
0001
0001
,
0100
0000
0000
0000
,
0010
0000
0000
0000
,
1000
0000
0001
0000
,
0020
0000
0000
0000
,
0030
0000
0000
0000
;

//---------------dance-single - ----------------
#NOTES:
     dance-single:
     :
     Beginner:
     1:
     0.103,0.197,0.025,0.000,0.000: // measure 1
0000
0000
0000
0000
,  // measure 2
0000
0000
0000
0000
,  // measure 3
0000
0000
0000
0000
,  // measure 4
0000
0000
0000
0000
,  // measure 5
0010
0000
0000
0000
,  // measure 6
0100
0000
0010
0000
,  // measure 7
1000
0000
0000
0000
,  // measure 8
0001
0000
0000
0000
,  // measure 9
1000
0000
0000
0000
,  // measure 10
0010
0000
0000
0000
,  // measure 11
0100
0000
0000
0000
,  // measure 12
0001
0000
0000
0000
,  // measure 13
1000
0000
0000
0000
,  // measure 14
1000
0000
0000
0000
,  // measure 15
0001
0000
0000
0000
,  // measure 16
0010
0000
0010
0000
,  // measure 17
0100
0000
0000
0000
,  // measure 18
0100
0000
0100
0000
,  // measure 19
0000
0000
0000
0000
,  // measure 20
1000
0000
0001
0000
,  // measure 21
0000
0000
0000
0000
,  // measure 22
0010
0000
0100
0000
,  // measure 23
0000
0000
0000
0000
,  // measure 24
0001
0000
1000
0000
,  // measure 25
0100
0100
0100
0100
,  // measure 26
0100
0000
0000
0000
,  // measure 27
1000
0001
1000
0001
,  // measure 28
1000
0000
0000
0000
,  // measure 29
0010
0100
0001
0010
,  // measure 30
0000
0000
0000
0000
,  // measure 31
0100
0100
1000
1000
,  // measure 32
0001
0000
0000
0000
,  // measure 33
0000
1000
1000
0000
,  // measure 34
0000
0010
0010
0000
,  // measure 35
0000
0100
0100
0000
,  // measure 36
0000
0001
0001
0001
,  // measure 37
0000
1000
1000
0000
,  // measure 38
0000
0010
0010
0000
,  // measure 39
0000
0100
0100
0000
,  // measure 40
0000
0010
0010
0000
,  // measure 41
1000
0000
0000
0000
,  // measure 42
0001
0000
0000
0000
,  // measure 43
0100
0000
0000
0000
,  // measure 44
0100
0000
0000
0000
,  // measure 45
0010
0000
0000
0000
,  // measure 46
1000
0000
0000
0000
,  // measure 47
0001
0000
0000
0000
,  // measure 48
1000
0000
0000
0000
,  // measure 49
0010
0000
0000
0000
,  // measure 50
0010
0000
0000
0000
,  // measure 51
0010
0000
0000
0000
,  // measure 52
0100
0100
0100
1001
,  // measure 53
0110
0000
0000
0000
,  // measure 54
0010
0000
0000
0000
,  // measure 55
1000
0000
0000
0000
,  // measure 56
0001
0000
1000
0000
,  // measure 57
0010
0000
0000
0000
,  // measure 58
0100
0000
0000
0000
,  // measure 59
0010
0000
1000
0000
,  // measure 60
0001
0000
0000
0000
,  // measure 61
1001
0000
0000
0000
;
