#TITLE:Digitank System;
#SUBTITLE:;
#ARTIST:DJ Mass MAD Izm*;
#TITLETRANSLIT:;
#SUBTITLETRANSLIT:;
#ARTISTTRANSLIT:;
#CREDIT:;
#BANNER:bn.png;
#BACKGROUND:bg.png;
#LYRICSPATH:;
#CDTITLE:PandemiXium-cdtitle.png;
#MUSIC:Digitank System.mp3;
#OFFSET:-1.900;
#SAMPLESTART:71.554;
#SAMPLELENGTH:15.000;
#SELECTABLE:YES;
#BPMS:0.000=128.000;
#STOPS:178.000=0.469
;
#BGCHANGES:;

//---------------dance-single - ----------------
#NOTES:
     dance-single:
     :
     Hard:
     8:
     0.456,0.563,0.198,0.339,0.078:
0000
0000
0000
0000
,
0000
0000
0000
0000
,
0000
0000
0000
0000
,
1000
0100
1000
0100
1000
0100
1000
0100
1000
0100
1000
0100
1000
0000
0000
0000
,
0010
1000
0001
0010
,
0001
0100
0010
0000
0010
1000
0001
0000
,
1000
1000
0001
0001
,
1000
0010
0100
0000
0100
0010
0100
0000
,
0010
0000
1000
0000
0001
0100
0010
0000
,
0100
0000
0010
0000
1000
0001
0010
0000
,
0002
0010
0000
0010
,
0013
0011
1000
1100
,
0001
0001
0100
0100
0010
0010
0000
0000
,
0100
1001
0010
1001
,
1000
1100
0100
1100
,
1000
0010
0100
0000
0010
0000
0010
0000
,
0010
1000
0001
0000
0010
0000
0001
0000
,
0100
0010
0000
0000
0110
0000
0000
0000
0010
0000
1000
0000
0001
0000
0000
0000
,
0001
0100
0000
0000
0110
0000
0000
0000
0010
0000
1000
0000
0100
0000
0000
0000
,
1000
0100
0000
0000
0011
0000
0000
0000
0001
0000
0100
0000
1000
0000
0000
0000
,
1000
0100
0001
0010
0100
0010
0001
0100
,
0010
0100
0010
1000
0002
0000
0023
0000
,
0031
1000
0001
1000
0002
0000
0203
0000
,
0310
1000
0010
1000
0020
0000
0130
0000
,
0010
1000
0001
0010
0200
0000
0310
0000
,
0010
0100
0000
0000
0110
0000
0000
0000
0100
0000
0010
0000
0001
0000
0000
0000
,
1000
0001
0000
0000
1010
0000
0000
0000
1000
0000
0010
0000
0001
0000
0010
0000
,
1000
0100
0000
0000
1100
0000
0000
0000
1000
0000
1000
0000
0010
0000
0000
0000
,
0100
0001
0010
0100
1000
0010
0100
0010
,
1000
0000
0001
0000
0010
0000
0001
0000
0100
0000
0000
0010
0000
0000
1000
0000
,
0001
0000
0010
0000
0001
0000
0100
0000
0010
0000
0000
1000
0000
0000
0100
0000
,
1000
0000
0010
0000
0100
0000
0001
0000
0010
0000
0000
0001
0000
0000
0100
0000
,
0010
0000
1000
0000
0010
0000
0100
0000
0010
0000
0000
1000
0000
0000
0001
0000
,
0010
0000
0001
0000
0100
0000
0010
0000
1000
0000
0000
0001
0000
0000
0010
0000
,
0001
0000
0100
0000
0001
0000
0010
0000
0100
0000
0000
0010
0000
0000
0001
0000
,
0100
0000
0010
0000
1000
0000
0001
0000
0010
0000
0000
0001
0000
0000
0100
0000
,
0020
0130
0200
0301
,
0001
0100
1000
0000
1000
0100
0001
0000
,
1000
0001
1000
0001
,
0001
0100
0010
0000
0010
1000
0100
0000
,
1000
0001
1000
0001
,
0100
0010
1000
0000
0001
0100
0010
0000
,
1000
0001
1000
0001
,
0100
0010
1000
0000
0010
1000
0100
0000
,
1000
0000
0001
0000
0000
0000
2000
3001
,
0200
0300
0020
1030
0200
0300
0200
1300
,
0020
0130
0001
0010
0200
0300
2000
3100
,
0020
0030
0020
0031
0200
0300
0020
1030
,
0002
0013
0002
0103
0020
0030
0200
0010
,
0020
0330
0020
1000
2000
3030
2000
3100
,
0020
0031
0002
0203
0320
0030
0200
0310
,
2000
3000
2000
3001
0020
0030
2002
0000
,
0000
0000
0000
3000
0003
0000
1010
0000
,
0001
0010
0100
1100
,
1000
0001
0100
0110
,
1000
0001
0010
0011
,
0001
0001
1000
1001
,
1000
0100
0001
0101
,
0001
0100
0010
1010
,
1000
0011
0100
1010
,
0100
0011
1000
2002
,
0000
0000
0000
0000
,
3003
0000
0000
0000
;

//---------------dance-single - ----------------
#NOTES:
     dance-single:
     :
     Medium:
     6:
     0.402,0.432,0.198,0.496,0.000:
0000
0000
0000
0000
,
0000
0000
0000
0000
,
0000
0000
0000
0000
,
0001
1000
0001
1000
0001
1000
1001
0000
,
0001
0001
1000
1000
,
0002
0103
0200
0310
,
1000
0010
0100
0010
,
1000
0001
0001
0000
1000
0010
0010
0000
,
0100
0010
0100
0100
,
0010
1000
0001
0100
,
0002
0000
0000
0000
0000
0000
0100
0103
,
0100
0010
1000
0000
0010
0100
0010
0000
,
1000
0001
1000
0001
1000
1000
0000
0000
,
0001
0100
0020
0130
,
0010
1000
0200
1300
,
0010
0100
0002
0013
,
0100
0010
0002
0103
,
2001
0000
3100
0000
0010
1000
0010
0000
,
2100
0000
3010
0000
0100
0010
1000
0000
,
0102
0000
0013
0000
0001
0100
0010
0000
,
2000
3002
0203
0320
,
1030
0010
0100
0001
0200
0000
0301
0000
,
0100
0100
0010
1000
,
0001
1000
0010
0000
2000
0000
3100
0000
,
1000
0000
0010
0000
0100
0010
1000
0000
,
0002
0000
1003
0000
0001
1000
0001
0000
,
1002
0000
0103
0000
0010
0100
0010
0000
,
1020
0000
0130
0000
0010
1000
0100
0000
,
2000
0001
0010
3100
,
0010
2000
0100
3010
,
0002
0000
0103
0000
0001
0100
1001
0000
,
0002
0103
0200
0310
,
1000
0000
0010
0000
0010
1000
1100
0000
,
2000
3100
0020
0130
,
0020
0000
1030
0000
0001
0100
0010
0000
,
0200
0310
2000
3100
,
1100
0101
1100
0101
,
0002
2003
3002
2003
,
3001
0001
0001
0001
,
0200
0320
0230
0320
,
0130
0100
0100
0100
,
0020
2030
3020
2030
,
3010
0100
0010
0100
,
0020
2030
3002
0023
,
0230
0000
2300
0000
3000
0000
0001
0100
,
0000
0100
0020
0000
0130
0000
0010
1000
,
0001
0100
0020
0000
0030
0000
1000
0200
,
0000
1300
0200
0000
1300
0000
0020
0000
,
0230
0000
0301
1000
0020
0000
2030
0000
,
3100
0000
0010
0001
0010
0000
0001
0100
,
0010
1000
0200
0000
1300
0000
1000
0010
,
0100
0010
1000
2002
,
0000
0000
0000
3000
0003
0000
1001
0000
,
0001
0100
0010
0101
,
0010
1000
0100
0011
,
0001
0100
0010
1100
,
0010
1000
0100
1100
,
0010
0100
0001
1001
,
0100
0010
1000
0101
,
0010
1010
0100
0011
,
0001
1010
0100
2002
,
0000
0000
3003
0000
;

//---------------dance-single - ----------------
#NOTES:
     dance-single:
     :
     Easy:
     3:
     0.217,0.251,0.215,0.000,0.000:
0000
0000
0000
0000
,
0000
0000
0000
0000
,
0000
0000
0000
0000
,
0000
0000
0000
0000
,
0010
0000
0100
0000
,
0001
0001
1000
1000
,
0010
0000
0100
0000
,
0001
0100
0010
1000
,
0100
0000
1000
0000
,
0100
1000
0010
0100
,
0001
0000
0000
0000
,
0010
0100
0010
0100
,
0010
0110
1001
0000
,
0001
0100
1000
0000
,
1000
0100
0001
0000
,
0001
0100
1000
0000
,
1000
0100
0001
0000
,
1001
0010
0000
0000
,
1001
0100
0000
0000
,
0110
1000
0000
0000
,
0001
0100
0010
1000
,
1000
0100
0001
0000
,
0001
0100
1000
0000
,
1000
0100
0001
0000
,
0001
0100
1000
0000
,
0110
1000
0000
0000
,
0110
0001
0000
0000
,
1001
0100
0000
0000
,
0010
0010
0010
0010
,
1000
0001
0100
0000
,
0100
0001
0010
0010
,
0100
1000
0010
0000
,
0100
0001
1000
0100
,
1000
0010
0100
0000
,
0100
0010
1000
0001
,
0010
0000
0001
0000
,
0001
0001
1000
1000
,
0010
0010
0010
0010
,
1001
0000
0110
0000
,
0100
0100
0100
0100
,
1001
0000
0101
0000
,
0010
0010
0010
0010
,
1100
0000
0011
0000
,
0001
0001
1000
1000
,
0010
0100
0000
0001
,
0000
1000
0000
0001
,
1000
0000
0001
0100
0010
0000
0100
0000
,
0000
0100
0000
0010
,
0010
0000
0010
0100
0010
0000
0100
0000
,
0000
0010
0000
1000
,
0001
0000
1000
0001
1000
0000
0001
0000
,
0001
1000
1000
1001
,
0000
0000
0000
0110
,
0000
0000
0000
0101
,
0000
0000
0000
1100
,
0000
0000
0000
1010
,
0000
0000
0000
0011
,
0000
0000
0000
0101
,
0000
0000
0000
0110
,
0000
1001
0000
1010
,
0000
0101
0000
1001
;

//---------------dance-single - ----------------
#NOTES:
     dance-single:
     :
     Beginner:
     1:
     0.117,0.201,0.058,0.000,0.000: // measure 1
0000
0000
0000
0000
,  // measure 2
0000
0000
0000
0000
,  // measure 3
0000
0000
0000
0000
,  // measure 4
0000
0000
0000
1001
,  // measure 5
0010
0000
0000
0000
,  // measure 6
0100
0000
0100
0000
,  // measure 7
0010
0000
0000
0000
,  // measure 8
1000
0000
1000
0000
,  // measure 9
0001
0000
0000
0000
,  // measure 10
0001
0000
0001
0000
,  // measure 11
0100
0000
0000
0000
,  // measure 12
0000
0000
0000
0000
,  // measure 13
0010
0010
0010
0000
,  // measure 14
0100
0000
0000
0000
,  // measure 15
0010
0000
0000
0000
,  // measure 16
1000
0000
0000
0000
,  // measure 17
0001
0000
0000
0000
,  // measure 18
0100
0100
0000
0000
,  // measure 19
0010
0000
0000
0000
,  // measure 20
0001
0000
0000
0000
,  // measure 21
1000
0000
0001
0000
,  // measure 22
1001
0000
0000
0000
,  // measure 23
1000
0000
0000
0000
,  // measure 24
0010
0000
0000
0000
,  // measure 25
0100
0000
0000
0000
,  // measure 26
0001
0000
0000
0000
,  // measure 27
0001
0000
0000
0000
,  // measure 28
0001
0000
0000
0000
,  // measure 29
1001
0000
0110
0000
,  // measure 30
1001
0000
1000
0000
,  // measure 31
1000
0000
0001
0000
,  // measure 32
0100
0100
0000
0000
,  // measure 33
0010
0010
0000
0000
,  // measure 34
1000
1000
0000
0000
,  // measure 35
0001
0001
0000
0000
,  // measure 36
1000
1000
0000
0000
,  // measure 37
0010
0000
0100
0000
,  // measure 38
1001
0000
0000
0000
,  // measure 39
0001
0001
0001
0001
,  // measure 40
0000
0000
0000
0000
,  // measure 41
1000
1000
1000
1000
,  // measure 42
0000
0000
0000
0000
,  // measure 43
0010
0010
0010
0010
,  // measure 44
0000
0000
0000
0000
,  // measure 45
0100
0100
0000
0100
,  // measure 46
0000
0100
0000
0100
,  // measure 47
0100
0100
0000
0001
,  // measure 48
0000
1000
0000
0001
,  // measure 49
1000
0001
0000
0010
,  // measure 50
0000
0010
0000
0010
,  // measure 51
0010
0010
0000
0100
,  // measure 52
0000
0100
0000
0000
,  // measure 53
0000
0000
0000
1000
,  // measure 54
0000
0000
0000
0001
,  // measure 55
0000
0000
0000
1000
,  // measure 56
0000
0000
0000
0001
,  // measure 57
0000
0000
0000
1000
,  // measure 58
0000
0000
0000
0001
,  // measure 59
0000
0000
0000
1000
,  // measure 60
0000
0001
0000
1000
,  // measure 61
0000
0001
0000
1001
;
