#TITLE:CURE FOR THE ITCH;
#SUBTITLE:;
#ARTIST:LINKIN PARK;
#TITLETRANSLIT:;
#SUBTITLETRANSLIT:;
#ARTISTTRANSLIT:;
#CREDIT:;
#BANNER:bn.png;
#BACKGROUND:bg.png;
#LYRICSPATH:;
#CDTITLE:PandemiXium-cdtitle.png;
#MUSIC:Cure for the Itch.mp3;
#OFFSET:-0.056;
#SAMPLESTART:21.580;
#SAMPLELENGTH:18.200;
#SELECTABLE:YES;
#BPMS:0.000=100.000;
#STOPS:29.000=3.600
;
#BGCHANGES:;

//---------------dance-single - ----------------
#NOTES:
     dance-single:
     :
     Hard:
     9:
     0.485,0.576,0.278,0.176,0.523:
0000
0000
0000
0000
,
0000
0000
0000
0000
,
0000
0000
0000
0000
,
0000
0000
0000
0000
,
0001
1000
0220
0000
0000
0000
0330
0000
,
0001
0010
0100
0010
0001
0000
0000
0000
0100
0000
0001
0010
0001
0000
0002
0000
,
1003
0000
0000
0100
0000
0000
0010
0000
0000
0001
0000
0000
1000
0000
0100
0000
1000
0000
0100
0000
0000
0000
0000
0000
0010
0000
0000
0000
0000
0000
0001
0000
0000
0100
0000
0000
0010
0000
0000
0000
0000
0000
0000
0000
0000
0000
0000
0000
,
2000
0000
0000
0000
3000
0000
0000
0000
1000
0001
0010
0100
0010
0000
0000
0000
,
0010
0000
0100
0000
1000
0000
0000
0000
0010
0100
0001
1000
0010
0000
0000
0000
,
0100
0000
0100
0010
1000
0000
0000
0000
0001
0100
0001
1000
0010
0000
0000
0000
,
0100
0001
0100
0000
0010
0000
0000
0000
0010
0100
0010
0100
0010
0000
0000
0000
,
1000
0000
0100
1000
0100
0000
0000
0000
0010
0100
1000
0001
0100
0000
0000
0000
,
0010
0000
0100
0000
0120
0000
0000
0030
0010
1000
0100
0010
0001
0000
0000
0000
,
0010
0000
0000
0100
0000
0000
1001
0000
0000
0000
0000
0000
0000
0000
1000
0000
1000
0000
0100
0000
0100
0000
0010
0000
,
0010
0001
0001
0100
0100
0010
1001
0000
0000
0000
0000
0000
,
1002
0000
1000
0000
1000
0000
1000
0000
1003
0010
0100
0010
0100
0000
0000
1000
,
0001
1000
0100
0000
1000
0000
0000
0000
0010
0100
0010
0000
1000
0000
0000
0000
,
0001
0000
0000
0000
0000
0000
1000
0000
0000
0001
0000
0000
0100
0000
0000
1000
0000
0000
0100
0000
0000
0000
0000
0000
1100
0000
0000
0000
0011
0000
0000
0000
0110
0000
0000
0000
1001
0000
0000
0000
0000
0000
0000
0000
0000
0000
0000
0000
,
0010
0100
0010
0000
0010
0000
0000
0000
1001
0000
0100
0000
0010
0000
0000
0000
,
0001
0100
0001
0000
0001
0000
1000
0200
0020
0000
0000
0000
0330
0000
1000
0001
,
1000
0100
0010
0000
0011
0000
0000
0000
0100
0001
1000
0010
0100
0000
0000
0000
,
0000
0000
0000
0000
0000
0000
0001
0000
0000
1000
0000
0000
0010
0000
0000
0000
0000
0000
0000
0000
0000
0000
0000
0000
0000
0000
0000
0000
0001
0000
0000
0000
0010
0000
0000
0000
0100
0000
0000
0000
1000
0000
0000
0000
0100
0000
0000
0000
,
0010
0001
0010
0100
1000
0010
1001
0000
0000
0110
0000
0000
,
0010
0000
1000
0001
0010
0000
0000
0000
0001
1000
0001
0100
0010
0100
1000
0100
,
0010
0001
0010
0000
0010
0000
0001
0000
0010
0000
0001
0100
0001
0000
1000
0000
,
0010
0100
0010
0000
1001
0000
0001
0000
0001
1000
0010
0100
0010
0000
0000
0000
,
0001
1000
0010
0000
0011
0000
0000
0000
1100
0000
1000
0000
0110
0000
0010
0000
,
1010
0000
0101
0000
1100
0000
0011
0000
1000
0001
0010
1000
0100
0000
0000
0000
,
0010
0000
0001
0000
1010
0000
0000
0000
0001
0100
0010
1000
0001
0000
0000
0000
,
0010
0100
0110
0000
1000
0000
0020
0000
,
0130
0000
0001
0000
1000
0000
0000
0000
0010
0100
0010
0000
1010
0000
0000
0000
,
0001
0000
0100
0010
1000
0000
0000
0000
2002
0000
0000
0000
3003
0000
0000
0000
,
0010
0100
1000
0100
0010
0001
0010
0100
1000
0100
0010
0100
0010
0100
0010
1000
,
0001
0000
0000
0100
0000
0000
0010
0000
0000
1000
0000
0000
0001
0000
0000
0100
0000
0000
0010
0000
0000
1000
0000
0000
0000
0000
0000
0000
1000
0000
0000
0000
0100
0000
0000
0000
1000
0000
0000
0000
0100
0000
0000
0000
0010
0000
0000
0000
,
0001
0010
0100
1000
0001
0100
0120
0000
0000
0130
0000
0000
,
2000
0000
3002
0000
2003
0000
3002
0000
1003
0100
0010
0001
0010
0000
0000
0000
,
0010
0000
0000
0000
0110
0000
0000
0000
0001
1000
0010
0100
0001
0000
0000
0000
,
2000
0000
0000
0000
3000
0000
0000
0000
0001
0100
0010
0100
0010
1000
0001
0100
,
0010
0100
0010
1000
0010
1000
0010
1000
0001
0100
0010
1000
0010
0100
0010
0001
,
0010
0000
0000
0100
0000
0000
1000
0000
0000
0100
0000
0000
0010
0000
0000
0000
0011
0000
0000
0000
1100
0000
0000
0000
2002
0000
0000
0000
0000
0000
0000
0000
0000
0000
0000
0000
0000
0000
0000
0000
0000
0000
0000
0000
0000
0000
0000
0000
,
0000
0000
0000
0000
,
0000
0000
3003
0000
;

//---------------dance-single - ----------------
#NOTES:
     dance-single:
     :
     Medium:
     6:
     0.301,0.326,0.213,0.102,0.005:
0000
0000
0000
0000
,
0000
0000
0000
0000
,
0000
0000
0000
0000
,
0000
0000
0000
0000
,
0001
0100
0010
0000
0000
0000
0000
0000
,
0010
0100
0010
0000
0100
0000
0000
0000
0010
0000
1000
0000
1001
0000
0000
0000
,
1000
0100
0020
0031
0010
0000
0001
0000
,
0100
0000
1001
0000
0001
0100
0010
0000
,
0100
0100
0100
0000
0010
1000
0100
0000
,
1000
0010
0110
0000
0010
1000
0001
0000
,
1000
1000
0001
0000
0100
0010
1000
0000
,
0100
0010
0001
0000
0001
0100
0010
0000
,
1000
0000
1001
0000
0001
0100
0010
0000
,
0000
0100
0100
0000
0020
0000
1000
0000
,
1000
1000
1030
0000
,
1000
0100
0001
0100
1000
0010
1010
0000
,
1000
1000
0001
0000
0100
0010
1000
0000
,
0001
0100
0100
0000
0010
0000
1001
0000
,
0001
0100
1000
0000
1000
0100
0001
0000
,
0000
0001
0010
0000
0000
0000
0110
0100
,
1000
0010
0110
0000
0010
1000
0001
0000
,
0000
0001
1100
0000
0010
0000
1000
0000
,
0001
0010
2200
3300
,
1000
1000
1000
1000
0001
0100
0001
0010
,
0011
0000
0011
0000
0001
0100
1010
0000
,
0010
0100
0100
0010
1000
0001
1100
0000
,
1000
0100
0010
0000
0010
0100
1000
0010
,
0100
0010
0100
0010
0001
0001
0011
0000
,
0001
0100
0010
0000
0010
1000
0100
0000
,
1000
0100
0010
0001
0010
0000
0101
0000
,
1100
1001
1001
0110
,
0010
1000
0100
0000
0000
0000
1001
0000
,
0001
0100
0002
0000
0100
0000
0010
0000
,
1000
1000
1003
0000
0001
0000
1000
0000
,
0010
0100
0220
0330
,
0010
0100
0010
0100
0020
1000
1030
0000
,
1000
0000
1100
0000
0002
0010
0010
0000
,
0000
0000
0003
0000
0100
0001
0100
0010
,
1000
0100
0010
0100
1000
0010
0001
0100
,
0010
1000
0001
0200
2000
0000
0000
0000
,
0000
0000
0000
0000
,
0000
0000
3300
0000
;

//---------------dance-double - ----------------
#NOTES:
     dance-double:
     :
     Challenge:
     9:
     0.489,0.496,0.361,0.213,0.481:
00000000
00000000
00000000
00000000
,
00000000
00000000
00000000
00000000
,
00000000
00000000
00000000
00000000
,
00000000
00000000
00000000
00000000
,
10000000
01000000
00110000
00000000
00000000
00000000
00000000
00000000
,
00100000
00010000
01000000
00100000
10000000
00000000
10000000
00000000
00010000
00100000
00001000
00000000
00101000
00000000
00100000
00001000
,
00010000
00000000
00000000
00000100
00000000
00000000
00001000
00000000
00000000
00000000
00000000
00000000
00000010
00000000
00000100
00000000
00000010
00000000
00000100
00000000
00000000
00000000
00000000
00000000
00000110
00000000
00000000
00000000
00000000
00000000
00000010
00000000
00000000
00001000
00000000
00000000
00000001
00000000
00000000
00000000
00000000
00000000
00000000
00000000
00000000
00000000
00000000
00000000
,
00000100
00000000
00000000
00000000
00101000
00000000
00000000
00000000
00010000
01000000
00100000
10000000
02000000
00000000
00000000
00000000
,
10000000
00000000
10000000
00000000
13000000
00000000
00000000
00000000
10000000
00010000
00100000
00010000
02000000
00000000
00000000
00000000
,
03010000
00000000
00010000
00100000
00101000
00000000
00000000
00000000
00010000
00000100
00001000
00000010
00000100
00000000
00000000
00000000
,
00000010
00001000
00000001
00000000
00000011
00000000
00000000
00000000
00000010
00000000
00001000
00001000
00000001
00000000
00000000
00000000
,
00000001
00000010
00000100
00000000
00001100
00000000
00000000
00000000
00000100
00010000
00001000
00100000
01000000
00000000
00000000
00000000
,
10000000
00000000
01000000
00000000
00220000
00000000
00330000
00000000
00100000
00001000
00010000
00000100
00010000
00000000
00000000
00000000
,
00011000
00000000
00000000
00101000
00000000
00000000
00101000
00000000
00000000
00000000
00000000
00000000
00000000
00000000
00001000
00000000
00100000
00000000
00010000
00000000
01000000
00000000
10000000
00000000
,
00100000
00000000
01000000
00000000
00010000
00000000
00100000
00000000
01000000
00000000
10000000
00000000
20020000
00000000
00000000
00000000
00000000
00000000
00000000
00000000
00000000
30030000
00000000
00000000
,
10010000
00000000
00110000
00000000
00101000
00000000
00011000
00000000
00000100
00010000
00001000
00100000
00010000
00000000
00000000
00100000
,
00001000
00010000
00000100
00000000
00001100
00000000
00000000
00000000
00000110
00000000
00000010
00001000
00000100
00000000
00001000
00000000
,
00000100
00000000
00000000
00000000
00000000
00000000
00000100
00000000
00000000
00010000
00000000
00000000
00001000
00000000
00000000
00000000
00000000
00000000
00200000
00000000
00000000
00000000
00000000
00000000
00010000
00000000
00000000
00000000
00010000
00000000
00000000
00000000
00010000
00000000
00000000
00000000
00310000
00000000
00000000
00000000
00000000
00000000
00000000
00000000
00000000
00000000
00000000
00000000
,
00010000
01000000
00100000
00000000
10100000
00000000
00000000
00000000
10000000
01000000
00100000
00010000
00100000
00000000
00000000
00000000
,
00100000
00000000
00000000
00010000
00000000
00000000
00000000
00000000
00000000
00010000
00000000
00000000
00001000
00000000
00000000
00000000
00001000
00000000
00000000
00000000
00001000
00000000
00000000
00000000
00001000
00000000
00000000
00000000
00000000
00000000
00000000
00000000
00000000
00000000
00000000
00000000
00011000
00000000
00000000
00000000
00000000
00000000
00010000
00000000
00000000
00000100
00000000
00000000
,
00010000
00001000
00010000
00000000
00011000
00000000
00000000
00000000
00001000
00010000
00100000
01000000
00100000
00000000
00000000
00000000
,
00000000
00000000
00000000
00000000
00000000
00000000
00100000
00000000
00000000
01000000
00000000
00000000
10010000
00000000
00000000
00000000
00000000
00000000
00000000
00000000
00000000
00000000
00000000
00000000
00000000
00000000
00000000
00000000
10000000
00000000
00000000
00000000
01000000
00000000
00000000
00000000
00100000
00000000
00000000
00000000
00001000
00000000
00000000
00000000
00010000
00000000
00000000
00000000
,
00000100
00001000
00000010
00000100
00000001
00000010
00000100
00000000
00000000
00000000
00000000
00000000
,
00001100
00000000
00000011
00000000
00000101
00000000
00001010
00000000
00000001
00000100
00000001
00001000
00000001
00000100
00000001
00001000
,
00000001
00000000
00001010
00000000
00000010
00000000
00001100
00000000
00000100
00010000
00001000
00100000
00010000
00000000
00000000
00000000
,
01000000
00000000
01000000
00100000
01000000
00000000
00100000
00000000
00100000
10000000
01000000
00100000
01000000
00000000
00000000
00000000
,
01000000
10000000
00100000
00000000
01010000
00000000
00000000
00000000
01010000
00000000
00010000
00100000
00001000
00000000
00010000
00000100
,
00002000
00000000
00003020
00000000
00000230
00000000
00000302
00000000
00000013
00000100
00001000
00000100
00000010
00000000
00000000
00000000
,
00000001
00000100
00000010
00000000
00001010
00000000
00000000
00000000
00000010
00001000
00000100
00010000
00001000
00000000
00000000
00000000
,
00002000
00203000
00320000
00230000
01300000
00000000
00110000
00000000
,
00100010
00000000
00020200
00030300
00010100
00001000
00101000
00000000
,
00110000
00000000
00010000
01000000
00100000
00000000
10000000
00000000
20020000
00000000
30030000
00000000
00000000
00000000
00000000
00000000
,
10000000
01000000
00100000
01000000
10000000
00010000
00100000
00001000
,
00010000
00000000
00000000
00000100
00000000
00000000
00001000
00000000
00000000
00000010
00000000
00000000
00000001
00000000
00000010
00000000
00001000
00000000
00000100
00000000
00000010
00000000
00000100
00000000
,
00001000
00000100
00010000
00001000
00100000
00010000
02020000
00000000
00000000
03030000
00000000
00000000
,
00000000
00000000
00000000
00000000
00000000
00000000
00000000
00000000
00100000
10000000
01000000
00100000
01000000
10000000
00100000
01000000
,
00010000
00100000
01000000
10000000
00010000
00000000
00000000
00000000
01000000
00010000
00100000
00001000
00020000
00000000
00000000
00000000
,
00000000
00000000
00000000
00000000
00030000
00000000
00000000
00000000
00001000
00010000
00000100
00000000
00000100
00010000
00001000
00000000
,
00001000
00100000
00010000
00000000
00010000
01000000
00100000
00000000
00100000
10000000
01000000
00100000
00001000
00010000
00000100
00001000
,
00000010
00000000
00000000
00000100
00000000
00000000
00000001
00000000
00000000
00000010
00000000
00000000
00000100
00000000
00000000
00000000
00010000
00000000
00000000
00000000
00001000
00000000
00000000
00000000
00200000
00000000
00000000
00000000
00000000
00000000
00000000
00000000
00000000
00000000
00000000
00000000
00000000
00000000
00000000
00000000
00000000
00000000
00000000
00000000
00000000
00000000
00000000
00000000
,
00000000
00000000
00000000
00000000
,
00000000
00300000
00000000
00000000
;

//---------------dance-single - ----------------
#NOTES:
     dance-single:
     :
     Easy:
     3:
     0.209,0.250,0.111,0.037,0.000:
0000
0000
0000
0000
,
0000
0000
0000
0000
,
0000
0000
0000
0000
,
0000
0000
0000
0000
,
0001
0100
0001
0000
0000
0000
0000
0000
,
0100
0010
1000
1001
,
0010
0110
0100
0010
,
1000
0101
0001
0000
,
1000
0100
1000
0000
0010
0000
0000
0000
,
0100
0010
0100
0000
0001
0000
0000
0000
,
1000
0100
1000
0000
0010
0000
0000
0000
,
0100
0010
0100
0000
0010
0000
0000
0000
,
1000
1001
0001
0100
,
0000
0010
0010
0000
0100
0000
0010
0000
,
1000
0001
1000
0000
,
1000
0100
0001
0100
,
0100
1000
0010
0000
0100
0000
0001
0000
,
0010
0001
0002
0003
,
0100
0110
0010
1000
,
0001
1000
0200
0310
,
0010
0001
0100
0000
0010
0000
1000
0000
,
0000
1001
0010
0010
,
0100
0100
0010
0000
,
1000
0001
0100
0010
,
1010
0000
1010
0000
1000
0001
0010
0000
,
0100
0000
1000
0000
0100
1000
0010
0000
,
0100
0000
0001
0000
0100
0001
0100
0000
,
0020
0000
0000
0030
0010
0100
0010
0000
,
0100
0000
0100
0000
0010
1000
0001
0000
,
1000
0001
0100
0010
,
0010
1001
0001
1000
,
0100
1000
0000
0110
,
0010
1000
0001
0010
,
0100
0010
0001
0001
,
1000
1000
1001
0000
,
0010
0100
0010
0000
0100
0000
0010
0000
,
1000
0100
0001
0100
,
0000
1100
1000
0010
,
0001
0010
1000
0001
,
0100
0000
0010
1000
0002
0000
0000
0000
,
0000
0000
0000
0000
,
0000
0000
0003
0000
;

//---------------dance-single - ----------------
#NOTES:
     dance-single:
     :
     Beginner:
     1:
     0.096,0.145,0.065,0.000,0.000: // measure 1
0000
0000
0000
0000
,  // measure 2
0000
0000
0000
0000
,  // measure 3
0000
0000
0000
0000
,  // measure 4
0000
0000
0000
0000
,  // measure 5
0001
1000
0000
0000
,  // measure 6
0010
0000
0000
0000
,  // measure 7
0000
0100
0000
0000
,  // measure 8
0000
1001
0010
0000
,  // measure 9
0000
0000
1000
0000
,  // measure 10
1000
0000
0001
0000
,  // measure 11
0000
0000
0100
0000
,  // measure 12
0000
0000
0010
0000
,  // measure 13
0000
1000
1000
0000
,  // measure 14
0001
0000
0100
0000
,  // measure 15
0000
0000
0000
0000
,  // measure 16
0010
0000
1000
0000
,  // measure 17
0000
1000
0000
0000
,  // measure 18
0001
0000
0010
0010
,  // measure 19
0000
0100
0000
0100
,  // measure 20
0000
0000
0000
1001
,  // measure 21
0000
0010
0000
0100
,  // measure 22
0000
0100
0010
0000
,  // measure 23
0000
0000
0000
0000
,  // measure 24
1000
1000
0001
0001
,  // measure 25
1001
0000
0000
0010
,  // measure 26
0000
0000
0100
0100
,  // measure 27
0000
0010
1000
1000
,  // measure 28
0001
0000
1000
0000
,  // measure 29
0000
0000
0001
0000
,  // measure 30
0000
0000
0100
0100
,  // measure 31
0100
0110
0100
0000
,  // measure 32
0010
0000
0000
1001
,  // measure 33
0010
0000
0010
0000
,  // measure 34
0010
0000
1000
0000
,  // measure 35
0000
0000
0001
0000
,  // measure 36
1000
1000
1001
0000
,  // measure 37
0100
0000
0010
0000
,  // measure 38
0000
0110
0010
0000
,  // measure 39
0010
0000
0010
0010
,  // measure 40
0010
0010
0000
0000
;
